#TITLE:m1dy is Sexy;
#SUBTITLE:;
#ARTIST:m1dy;
#TITLETRANSLIT:;
#SUBTITLETRANSLIT:;
#ARTISTTRANSLIT:;
#GENRE:;
#CREDIT:;
#BANNER:m1dy is Sexy.png;
#BACKGROUND:m1dy is Sexy-bg.png;
#LYRICSPATH:;
#CDTITLE:;
#MUSIC:m1dy is Sexy.ogg;
#OFFSET:-2.775000;
#SAMPLESTART:21.992998;
#SAMPLELENGTH:9.600000;
#SELECTABLE:YES;
#BPMS:0.000000=200.000000
,60.000000=400.000000
,190.000000=200.000000
,245.000000=400.000000
,263.000000=200.000000
,294.000000=400.000000
,351.500000=200.000000
,352.000000=400.000000
,412.000000=200.000000
,416.000000=400.000000
;
#STOPS:59.500000=0.900000,
352.000000=2.775000
;
#BGCHANGES:;
#KEYSOUNDS:;
#ATTACKS:;

//---------------dance-single - ----------------
#NOTES:
     dance-single:
     :
     Hard:
     13:
     0.984464,1.359425,0.343744,0.401035,0.045014,842.000000,800.000000,42.000000,49.000000,0.000000,0.000000,0.984464,1.359425,0.343744,0.401035,0.045014,842.000000,800.000000,42.000000,49.000000,0.000000,0.000000:
1001
0000
0000
0000
0000
0000
0000
1010
,
0000
0000
0000
0000
,
0101
0000
0000
0000
0000
0000
0000
0011
,
0000
0000
0001
0000
1000
0000
0010
0000
0100
0010
1000
0000
0001
0000
1000
0000
,
1100
0000
0000
0000
0000
0000
0000
1001
,
0000
0000
0000
0000
,
0110
0000
0000
0000
0000
0000
0000
0101
,
0000
0000
0000
0000
0000
1100
0000
0000
,
1010
0000
1000
0001
0010
0000
0100
1000
,
0000
1010
0000
0000
0000
0000
0000
0000
,
0101
0000
0001
1000
0010
0000
1000
0001
,
0000
0000
1000
0000
0100
0000
0010
0000
0001
0100
0001
0000
0100
0010
1000
0000
,
0001
1000
0100
1000
0001
0010
0100
0010
,
0001
1000
0010
0100
0001
1000
0001
0010
,
0110
0000
0110
0000
0000
0100
0010
1001
,
1000
0001
0020
0000
0130
0000
1000
0000
,
0010
0100
0001
0010
,
0001
1000
0100
0010
,
0100
0000
1000
0000
0001
0100
0001
0000
,
1000
0001
1000
0001
0010
0000
0010
0000
,
0001
0100
0010
1000
,
0100
1000
0010
0001
,
0010
0000
0100
0000
0001
1000
0010
0000
,
0100
0001
0100
0001
0010
0000
0100
0000
,
1000
0001
0010
0001
,
0100
0010
1000
0100
,
1000
0000
0001
0000
1000
0001
0100
0000
,
0010
1000
0001
0010
0100
0000
1000
0000
,
0001
0010
0100
1000
,
0001
1000
0020
0000
0000
0130
0010
1000
,
0001
0100
0001
0100
0010
0100
0010
1000
,
0010
0100
0001
1000
0001
0000
0001
0000
,
0100
0100
0010
0010
,
1000
0000
1000
0000
0001
0000
0001
1000
,
0010
0000
0100
0000
0010
1000
0010
0000
,
0100
0001
0010
0001
1000
0000
1000
0000
,
0010
0010
0100
0100
,
0001
0000
1001
0000
0000
0000
0001
1000
,
0010
0000
1000
0000
0001
0100
0010
0000
,
0100
0010
1000
0100
0010
0000
0010
0000
,
0001
0001
1000
1000
,
0100
0000
0100
0000
1000
0000
0001
1000
,
0010
0000
1000
0001
0010
0100
0010
0001
,
1000
0010
0100
0001
1000
0010
0100
0001
,
1000
0100
0010
0001
0010
0100
1000
0001
,
0100
0010
1000
0001
0000
1000
0100
0010
,
0001
0010
0001
0010
0100
2000
0002
0000
,
0000
0000
0000
3003
1000
0000
0100
0000
,
0001
0100
1000
0010
,
0001
0010
0100
0100
,
0001
0001
1000
1000
,
0010
0010
1000
0100
,
1000
0100
0010
0001
,
0010
0001
1000
0001
,
0010
0001
1000
0001
,
0200
0020
0000
0330
1001
0000
1000
1000
,
0001
0010
0001
1000
0000
0001
0001
1000
,
0001
0010
0000
0000
0100
0000
1000
1000
,
0100
0010
0010
0001
0000
1000
1000
0001
,
0100
0010
0000
0000
0100
0000
0010
0010
,
1000
0001
1000
1000
0000
0100
1000
1000
,
0001
0100
0000
0000
1001
0000
0000
0000
,
1000
0001
0010
0100
1000
0001
0100
0001
,
2000
0000
3000
0000
0022
0000
0000
0033
,
1000
0000
0001
0000
1000
0001
1000
0100
,
1000
0001
1000
0000
0001
1000
0001
0100
,
1000
0100
0010
1010
0010
1010
1000
0100
,
0010
0001
1000
0010
1000
0000
1001
0001
,
0010
0001
0100
0101
0001
0101
0100
0010
,
1000
0001
0011
0021
0001
0030
0110
0100
,
1000
0010
0100
0101
0001
1001
0000
1000
,
0001
0010
0001
1000
0100
0000
1100
0100
,
0000
0100
0010
0011
0001
0011
0000
0001
,
0100
0000
0001
0000
1000
0000
0010
1000
0002
0000
0000
0000
0000
0000
0003
0000
,
1000
0000
0001
0100
0001
0000
0001
1000
,
0001
0000
0001
0010
0001
0000
0010
0000
,
0100
0000
1000
0100
1000
0000
1000
0001
,
1000
0000
1000
0010
1000
0000
0001
0000
,
1000
0000
0001
0100
0001
0000
0100
0010
,
0100
0000
0010
1000
0010
0000
1000
0000
,
0100
0000
0010
0001
0010
0000
0001
0100
,
0001
0000
0100
0010
0100
0000
0010
0000
,
1000
0000
0100
0010
0001
0000
0010
0001
,
0100
0000
0010
1000
0001
0010
0100
1000
,
0001
0000
1000
0010
0100
0000
0001
0010
,
0100
0000
0010
0001
1000
0010
1000
0001
,
1000
0010
0100
0010
0100
0010
0100
0010
,
0100
0100
0000
2002
,
0000
3003
0002
0000
0023
0000
0230
0000
,
2300
3010
1000
0100
,
0001
0100
0010
0001
,
0100
0000
1000
0000
0200
0000
0310
1000
,
0001
0000
1000
0001
0100
0001
1000
0000
,
0100
0010
0100
0000
1000
0000
0010
0000
,
0001
0010
0100
0001
,
1000
0000
0100
0000
0010
0000
0001
1000
,
0001
1000
0002
0000
0203
0000
2300
0000
,
3200
0000
0310
1000
0010
1000
0010
1000
,
0010
1000
0010
1000
0010
1000
0010
1000
,
0010
1000
0001
0100
0001
0100
0001
0100
,
0001
0100
0001
0100
0001
0100
0001
0100
,
0001
1001
1001
1001
,
0010
0100
0010
0000
1001
0000
0000
0010
,
0200
0320
2030
3002
2003
3020
0230
0302
0023
0230
2300
3200
0320
0032
2000
0000
,
3003
1001
1000
0100
,
1000
0010
0100
0001
,
0010
0000
0001
0000
0100
0010
0100
0000
,
0010
1000
0001
1000
0001
0000
0100
0001
,
0010
0001
1000
0000
0100
0000
1000
0000
,
0010
0100
0001
0010
,
0001
0000
1000
0000
0010
0000
0100
0001
,
0100
0000
0001
1000
0001
0010
0001
1000
,
0100
0010
0001
0000
1000
0000
0100
0000
,
0010
0001
1000
0100
,
0010
0000
0001
0000
1000
0010
0100
0000
,
0010
1000
0100
1000
0001
0000
0100
0001
,
0100
0010
1000
0000
0001
0000
0010
0000
,
0001
0000
1000
0000
0010
0100
0010
0000
,
2002
0000
0000
3003
0001
1000
0010
0100
,
0010
0100
0020
0000
2000
0000
0000
0000
,
0000
3030
1001
0000
0001
0000
0010
0000
,
0001
0100
0010
1000
,
0100
0000
1000
0000
0010
0100
0010
0000
,
0100
0001
1000
0001
1000
0000
0010
1000
,
0100
1000
0001
0000
0010
0000
0001
0000
,
0100
0010
1000
0100
,
1000
0000
0001
0000
0100
0010
0100
0000
,
0010
1000
0001
0010
0100
1000
0001
1000
,
0010
0100
0001
0000
0001
0000
0010
0000
,
0100
1000
0001
0010
,
0100
0000
1000
0000
0001
0100
0001
0000
,
1000
0001
0010
0001
1000
0000
0010
1000
,
0010
0100
0001
0000
1000
0000
0100
0000
,
1000
0000
0001
0000
0100
0010
0100
0000
,
2002
0000
0000
3003
1000
0001
0100
0010
,
0100
0010
0200
0000
0002
0000
0000
0000
,
0000
0303
0001
0000
0100
0000
0010
1000
,
0000
0010
1000
0000
0010
0000
0100
0001
,
0000
0100
0001
0000
1000
0000
0100
0010
,
0100
0010
0100
0010
0100
0010
0100
0010
,
0100
0001
1000
0000
0010
0000
1000
0001
,
1000
0001
1000
0001
1000
0001
1000
0000
,
0002
0000
0000
0000
1003
0000
0001
1000
,
0010
0000
1000
0010
0100
0001
1000
0001
,
0200
0000
0301
0000
0100
0000
0010
1000
,
0000
0010
1000
0000
0010
0000
0100
0001
,
0000
0100
0001
0000
1000
0000
0100
0010
,
0100
0010
0100
0010
0100
0010
0100
0010
,
0100
0010
0001
0000
0100
0000
0001
1000
,
0001
1000
0001
1000
0001
1000
0001
0000
,
0220
0000
0000
0000
,
0330
0000
0000
0000
;

//---------------dance-single - ----------------
#NOTES:
     dance-single:
     :
     Easy:
     8:
     0.526139,0.617921,0.204609,0.065475,0.000000,450.000000,425.000000,25.000000,8.000000,0.000000,0.000000,0.526139,0.617921,0.204609,0.065475,0.000000,450.000000,425.000000,25.000000,8.000000,0.000000,0.000000:
// measure 0
1001
0000
0000
0000
0000
0000
0000
1001
,  // measure 1
0000
0000
0000
0000
,  // measure 2
0110
0000
0000
0000
0000
0000
0000
0110
,  // measure 3
0000
0000
0000
0000
,  // measure 4
1001
0000
0000
0000
0000
0000
0000
1001
,  // measure 5
0000
0000
0000
0000
,  // measure 6
0110
0000
0000
0000
0000
0000
0000
0110
,  // measure 7
0000
0000
0000
0000
0000
1001
0000
0000
,  // measure 8
1000
0001
0100
0001
,  // measure 9
0100
0010
1000
0010
,  // measure 10
1000
0100
1000
0100
,  // measure 11
0001
0100
1000
0010
,  // measure 12
0100
0001
0100
0001
,  // measure 13
0100
0010
0100
0010
,  // measure 14
0100
0000
0010
0000
0000
0100
0010
1001
,  // measure 15
0000
0000
0000
0000
,  // measure 16
1000
0000
0100
0000
,  // measure 17
1000
0000
0010
0000
,  // measure 18
0100
0000
0001
0100
,  // measure 19
0001
0100
0010
0000
,  // measure 20
1000
0000
0010
0000
,  // measure 21
0100
0000
0001
0000
,  // measure 22
1000
0000
0001
0100
,  // measure 23
0010
1000
0100
0000
,  // measure 24
0010
0000
0100
0000
,  // measure 25
0010
0000
0100
0000
,  // measure 26
0010
0000
0001
0010
,  // measure 27
0100
1000
0001
0000
,  // measure 28
1000
0000
0000
0001
,  // measure 29
0100
0010
0000
0100
,  // measure 30
0010
1000
0001
2000
,  // measure 31
0000
0000
3001
0000
,  // measure 32
0100
0000
0010
0000
,  // measure 33
1000
0000
0010
0000
,  // measure 34
0100
0000
0001
0100
,  // measure 35
0010
1000
0001
0000
,  // measure 36
1000
0000
0100
0000
,  // measure 37
0010
0000
0100
0000
,  // measure 38
1000
0010
0100
0001
,  // measure 39
1000
0100
0010
0000
,  // measure 40
0100
0000
1000
0000
,  // measure 41
0010
0000
0100
0000
,  // measure 42
0001
0100
0001
0010
,  // measure 43
0001
0010
0100
0000
,  // measure 44
1000
0000
0000
0100
,  // measure 45
1000
0010
0000
0100
,  // measure 46
0010
0100
0010
2000
,  // measure 47
0000
3000
1001
0001
,  // measure 48
1000
0001
1000
0001
,  // measure 49
1000
0001
0010
0100
,  // measure 50
0010
0100
0010
0100
,  // measure 51
0010
0100
1000
1000
,  // measure 52
0100
0100
0010
0010
,  // measure 53
0001
0001
1000
0100
,  // measure 54
0010
0001
1000
0100
,  // measure 55
0010
0100
0000
0000
1001
0000
0000
0000
,  // measure 56
0000
0000
0000
0001
0000
0000
0000
0000
,  // measure 57
0000
1000
0000
0000
0010
0000
0000
0000
,  // measure 58
0000
0000
0000
0100
0000
0000
0000
0000
,  // measure 59
0000
0010
0000
0000
1000
0000
0000
0000
,  // measure 60
0000
0000
0000
0100
0000
0000
0000
0000
,  // measure 61
0000
0000
1001
0000
,  // measure 62
0001
0100
0010
1000
,  // measure 63
0001
0000
1001
0000
,  // measure 64
0000
0000
0000
0000
,  // measure 65
0000
0000
0000
1001
,  // measure 66
0000
0000
0000
0001
0000
0100
0000
0000
,  // measure 67
0000
0000
0000
1010
,  // measure 68
0000
0000
0000
1000
0000
0010
0000
0000
,  // measure 69
0000
0000
0100
0001
0000
0000
0011
0000
,  // measure 70
0000
0000
0000
0010
0000
0100
0000
0000
,  // measure 71
0000
0000
0000
1100
,  // measure 72
0000
0000
0000
0100
0000
1000
0000
0000
,  // measure 73
0000
0000
0010
1000
0002
0000
0000
0000
,  // measure 74
1003
0100
1000
0100
,  // measure 75
1000
0100
1000
0100
,  // measure 76
1000
0100
1000
0100
,  // measure 77
1000
0100
1000
0000
,  // measure 78
0001
0100
0001
0100
,  // measure 79
0001
0100
0001
0100
,  // measure 80
0001
0100
0001
0100
,  // measure 81
0001
0100
0001
0000
,  // measure 82
0001
0010
0100
1000
,  // measure 83
0100
0010
0001
0010
,  // measure 84
0100
1000
0100
0010
,  // measure 85
0001
1000
0010
0100
,  // measure 86
0010
1000
0001
1000
,  // measure 87
0001
0010
0000
1001
,  // measure 88
0000
0000
0000
0000
,  // measure 89
0000
1001
0000
0001
,  // measure 90
0000
0100
0000
0010
,  // measure 91
0000
1000
0010
0100
,  // measure 92
0010
0100
0010
1000
,  // measure 93
0001
0010
0000
0100
,  // measure 94
0000
0010
0000
0001
,  // measure 95
0000
1000
0001
0100
,  // measure 96
0001
0100
0001
1000
,  // measure 97
0010
0100
0000
0010
,  // measure 98
0000
1000
0000
0001
,  // measure 99
0000
0010
0000
0100
,  // measure 100
0010
0001
0100
0010
,  // measure 101
1000
0001
1000
0001
,  // measure 102
1000
0001
1000
0000
,  // measure 103
2002
0000
0000
0000
0000
0000
0000
3003
,  // measure 104
0000
1001
0000
0001
,  // measure 105
0100
0010
0000
1000
,  // measure 106
0010
0000
0100
0010
,  // measure 107
1000
0001
0001
0010
,  // measure 108
0100
1000
0000
0100
,  // measure 109
1000
0010
0000
0100
,  // measure 110
0010
0000
1000
0001
,  // measure 111
0100
0010
0010
0100
,  // measure 112
0001
1000
0000
0100
,  // measure 113
1000
0010
0000
0100
,  // measure 114
0001
0000
0100
0010
,  // measure 115
1000
0010
0010
1000
,  // measure 116
0010
0100
0000
0101
,  // measure 117
0000
0000
0001
0010
,  // measure 118
0100
0000
0010
0010
,  // measure 119
0001
0010
0002
0000
,  // measure 120
0000
0013
0000
0100
,  // measure 121
1000
0010
0000
0100
,  // measure 122
0010
0000
1000
0010
,  // measure 123
0100
0001
1000
0010
,  // measure 124
0100
0010
0000
1000
,  // measure 125
0001
1000
0000
0001
,  // measure 126
0100
0000
0001
0100
,  // measure 127
0010
1000
1000
0010
,  // measure 128
0100
0001
0000
1000
,  // measure 129
0100
0010
0000
0001
,  // measure 130
0010
0000
0100
0010
,  // measure 131
0100
0010
0010
0100
,  // measure 132
1000
0100
0000
1100
,  // measure 133
0000
0000
1000
0100
,  // measure 134
0010
0000
0100
0100
,  // measure 135
1000
0001
0100
0000
,  // measure 136
0000
0100
0001
1000
,  // measure 137
0000
1000
0100
0010
,  // measure 138
0000
0001
0100
0010
,  // measure 139
0100
0010
0100
0010
,  // measure 140
0100
0010
1000
0001
,  // measure 141
1000
0001
1000
0001
,  // measure 142
1000
0001
0000
0100
,  // measure 143
0000
0010
1000
0001
,  // measure 144
0000
1000
0100
1000
,  // measure 145
0000
0100
0010
0100
,  // measure 146
0000
0001
0010
0100
,  // measure 147
0010
0100
0010
0100
,  // measure 148
0010
0001
1000
0010
,  // measure 149
0100
0010
0100
0010
,  // measure 150
2002
0000
0000
0000
,  // measure 151
3003
0000
0000
0000
;

//---------------dance-single - ----------------
#NOTES:
     dance-single:
     :
     Medium:
     10:
     0.727240,0.988673,0.188241,0.237347,0.000000,622.000000,599.000000,23.000000,29.000000,0.000000,0.000000,0.727240,0.988673,0.188241,0.237347,0.000000,622.000000,599.000000,23.000000,29.000000,0.000000,0.000000:
// measure 0
1001
0000
0000
0000
0000
0000
0000
0110
,  // measure 1
0000
0000
0000
0000
,  // measure 2
0101
0000
0000
0000
0000
0000
0000
1010
,  // measure 3
0000
0000
0000
0000
,  // measure 4
1100
0000
0000
0000
0000
0000
0000
0011
,  // measure 5
0000
0000
0000
0000
,  // measure 6
1001
0000
0000
0000
0000
0000
0000
0101
,  // measure 7
0000
0000
0000
0000
0000
1010
0000
0000
,  // measure 8
0101
0000
0001
0100
0010
0000
1000
0010
,  // measure 9
0000
1000
0000
0000
0000
0000
0000
0000
,  // measure 10
0000
0000
0010
1000
0001
0000
0001
1000
,  // measure 11
0000
1000
0100
0010
0001
0010
0100
1000
,  // measure 12
0001
0000
1000
0001
0100
0000
0010
1000
,  // measure 13
0000
0010
0000
0000
0000
0000
0000
0000
,  // measure 14
0100
0000
0001
0000
0000
0100
0010
2002
,  // measure 15
0000
3003
1000
0100
,  // measure 16
1000
0100
1000
0010
,  // measure 17
0100
0001
0010
1000
,  // measure 18
0010
0001
0100
0001
,  // measure 19
1000
0001
1000
0001
,  // measure 20
0100
0001
0100
0001
,  // measure 21
0100
0010
1000
0001
,  // measure 22
0010
1000
0010
0100
,  // measure 23
1000
0010
1000
0010
,  // measure 24
1000
0010
0100
0010
,  // measure 25
1000
0001
0010
0100
,  // measure 26
0010
0001
1000
0010
,  // measure 27
0001
0010
0100
0010
,  // measure 28
1000
0001
0010
1000
,  // measure 29
0010
0100
0000
0010
,  // measure 30
0001
0001
0010
0002
,  // measure 31
0000
0000
1003
0010
,  // measure 32
0100
0001
0010
0001
,  // measure 33
0100
0010
1000
0001
,  // measure 34
0010
0100
1000
0100
,  // measure 35
0001
0100
1000
0010
,  // measure 36
0100
0001
0010
0001
,  // measure 37
0100
0010
1000
0001
,  // measure 38
0010
0001
0010
1000
,  // measure 39
0010
0001
0100
0010
,  // measure 40
1000
0001
0010
0001
,  // measure 41
0100
0001
1000
0010
,  // measure 42
0100
0010
1000
0001
,  // measure 43
0010
1000
0010
0100
,  // measure 44
1000
0100
0001
0100
,  // measure 45
1000
0010
0000
0100
,  // measure 46
0010
1000
0001
2000
,  // measure 47
0000
0000
3100
1000
,  // measure 48
0100
1000
0100
0010
,  // measure 49
0100
0010
0001
0010
,  // measure 50
0001
0010
0001
1000
,  // measure 51
0001
1000
0001
0001
,  // measure 52
0100
0100
0010
0010
,  // measure 53
1000
1000
0010
0010
,  // measure 54
0100
0100
0001
0001
,  // measure 55
1000
1002
0000
0000
0013
0000
0001
0100
,  // measure 56
0001
0100
0001
1000
0000
0100
1000
0100
,  // measure 57
1000
0001
0000
0000
0010
0000
0001
1000
,  // measure 58
0001
1000
0001
0100
0000
0001
1000
0001
,  // measure 59
1000
0010
0000
0000
1000
0000
0001
0100
,  // measure 60
0001
0100
0001
0100
0000
0010
1000
0010
,  // measure 61
1000
0010
0000
0000
1001
0000
0000
0000
,  // measure 62
0001
0100
0010
0010
,  // measure 63
1000
0000
1001
0000
,  // measure 64
0000
0000
0000
0000
,  // measure 65
0000
0000
0000
0000
0000
0000
1000
0001
,  // measure 66
0100
0001
0100
0010
1000
0000
0010
0100
,  // measure 67
0010
1000
0001
0001
0010
0000
0100
1000
,  // measure 68
0001
0100
0010
1000
0001
0010
0100
1000
,  // measure 69
0001
1000
0100
0010
0100
0000
0010
0001
,  // measure 70
0100
0000
0010
1000
0001
1000
0000
0001
,  // measure 71
0010
0100
0010
0001
1000
0000
0001
0100
,  // measure 72
0010
1000
0001
0010
0100
0010
0000
0100
,  // measure 73
0010
0001
1000
0010
0200
0000
0000
0000
,  // measure 74
0310
1000
0001
0010
,  // measure 75
0100
0010
0001
0100
,  // measure 76
0010
1000
0100
0010
,  // measure 77
0001
0010
0100
0010
,  // measure 78
0001
1000
0001
0100
,  // measure 79
0001
0010
0100
0010
,  // measure 80
0001
0100
0010
1000
,  // measure 81
0100
0010
0001
1000
,  // measure 82
0010
0010
1000
1000
,  // measure 83
0001
0001
0100
0100
,  // measure 84
0010
0010
1000
1000
,  // measure 85
0001
0001
0010
0010
,  // measure 86
0100
0000
1000
0001
1000
0001
1000
0001
,  // measure 87
1000
0001
0000
2002
,  // measure 88
3003
0002
2003
3020
,  // measure 89
0230
0310
1000
0010
,  // measure 90
0100
0001
0010
0001
,  // measure 91
1000
0001
0020
0130
,  // measure 92
0200
1300
2000
3020
,  // measure 93
0130
0010
1000
0001
,  // measure 94
0010
0100
0010
0001
,  // measure 95
1000
0001
0100
0010
,  // measure 96
1000
0002
0023
0230
,  // measure 97
2300
3100
0010
0001
,  // measure 98
0010
0001
0100
0010
,  // measure 99
1000
0001
0020
0130
,  // measure 100
0020
0031
0200
0310
,  // measure 101
0020
1030
0001
1000
,  // measure 102
0001
1000
0001
0000
1000
0000
0000
0000
,  // measure 103
0001
0100
1000
0100
0010
1000
0001
0010
,  // measure 104
0000
0110
0100
1000
,  // measure 105
0010
0100
0001
0010
,  // measure 106
0001
0100
0010
1000
,  // measure 107
0001
0010
1000
0010
,  // measure 108
0001
1000
0001
0100
,  // measure 109
0001
0010
0100
1000
,  // measure 110
0010
0100
0001
0010
,  // measure 111
0001
0100
1000
0100
,  // measure 112
0001
1000
0100
0010
,  // measure 113
0100
1000
0010
0100
,  // measure 114
0001
0010
1000
0010
,  // measure 115
0001
0010
0100
0010
,  // measure 116
0001
0011
0000
1100
,  // measure 117
0000
0001
0100
0010
,  // measure 118
1010
0000
0000
0000
1000
0000
0100
1000
,  // measure 119
0100
1000
0001
0000
2000
0000
0000
0000
,  // measure 120
3000
0010
0010
1000
,  // measure 121
1000
0100
0100
1000
,  // measure 122
1000
0001
0010
1000
,  // measure 123
0010
0001
0010
1000
,  // measure 124
0010
0001
0001
0100
,  // measure 125
0100
0010
0010
1000
,  // measure 126
1000
0100
0001
0100
,  // measure 127
1000
0100
0001
0100
,  // measure 128
1000
0010
0010
0100
,  // measure 129
0100
0001
0001
1000
,  // measure 130
1000
0001
0010
0001
,  // measure 131
0100
0001
1000
0001
,  // measure 132
0010
0110
0000
1100
,  // measure 133
0000
0100
1000
0010
,  // measure 134
0101
0000
0000
0000
0001
0000
0100
0001
,  // measure 135
0100
0001
1000
0000
0002
0000
0000
0000
,  // measure 136
0000
1003
0001
0010
,  // measure 137
0001
1000
0010
1000
,  // measure 138
0001
0010
0100
1000
,  // measure 139
0001
0010
0100
1000
,  // measure 140
0010
0100
0001
0100
,  // measure 141
0001
0100
0001
0100
,  // measure 142
0002
0000
0103
0010
,  // measure 143
1000
0001
0010
1000
,  // measure 144
0010
0100
1000
0010
,  // measure 145
0100
0001
0100
0010
,  // measure 146
0100
0001
0010
0100
,  // measure 147
0100
0100
0100
0100
,  // measure 148
0010
0000
0001
0000
1000
0000
0001
1000
,  // measure 149
0001
1000
0001
1000
0001
1000
0001
0000
,  // measure 150
2002
0000
0000
0000
,  // measure 151
3003
0000
0000
0000
;

//---------------dance-single - ----------------
#NOTES:
     dance-single:
     :
     Beginner:
     4:
     0.203440,0.429680,0.237347,0.032738,0.000000,174.000000,145.000000,29.000000,4.000000,0.000000,0.000000,0.203440,0.429680,0.237347,0.032738,0.000000,174.000000,145.000000,29.000000,4.000000,0.000000,0.000000:
// measure 0
0000
0000
0000
0000
,  // measure 1
0000
0000
0000
0000
,  // measure 2
0000
0000
0000
0000
,  // measure 3
0000
0000
0000
0000
,  // measure 4
0000
0000
0000
0000
,  // measure 5
0000
0000
0000
0000
,  // measure 6
0000
0000
0000
0000
,  // measure 7
0000
0000
0000
0000
,  // measure 8
1001
0000
0000
0000
,  // measure 9
0000
0000
0000
0000
,  // measure 10
0110
0000
0000
0000
,  // measure 11
0000
0000
0000
0000
,  // measure 12
0110
0000
0000
0000
,  // measure 13
0000
0000
0000
0000
,  // measure 14
1001
0000
0000
0000
,  // measure 15
0000
0000
1000
0000
,  // measure 16
0000
0000
0000
0001
,  // measure 17
0000
0001
0000
0000
,  // measure 18
0000
0000
0000
0000
,  // measure 19
0000
0000
0100
0000
,  // measure 20
0000
0000
0000
0010
,  // measure 21
0000
0010
0000
0000
,  // measure 22
0000
0000
0100
0000
,  // measure 23
0000
0000
0010
0000
,  // measure 24
0000
0000
0000
1000
,  // measure 25
0000
1000
0000
0000
,  // measure 26
0000
0000
0000
0000
,  // measure 27
0000
0000
0001
0000
,  // measure 28
0000
0000
0000
1000
,  // measure 29
0000
1000
0000
0000
,  // measure 30
0000
0000
0001
0001
,  // measure 31
0000
0000
1000
0000
,  // measure 32
0000
0000
0000
0010
,  // measure 33
0000
0010
0000
0000
,  // measure 34
0000
0000
0000
0000
,  // measure 35
0000
0000
0100
0000
,  // measure 36
0000
0000
0000
0001
,  // measure 37
0000
0001
0000
0000
,  // measure 38
0000
0000
1000
0000
,  // measure 39
0000
0000
0010
0000
,  // measure 40
0000
0000
0000
0100
,  // measure 41
0000
0001
0000
0000
,  // measure 42
0000
0000
0000
0000
,  // measure 43
0000
0000
0010
0000
,  // measure 44
0010
0000
0000
0100
,  // measure 45
0000
0100
0000
0000
,  // measure 46
1000
0000
0001
0001
,  // measure 47
0000
0000
1001
0000
,  // measure 48
0000
0000
0001
0000
,  // measure 49
0000
0000
0100
0000
,  // measure 50
0000
0000
0010
0000
,  // measure 51
0000
0000
1000
0000
,  // measure 52
0000
0000
0100
0000
,  // measure 53
0000
0000
1000
0000
,  // measure 54
0000
0000
0001
0000
,  // measure 55
1001
0000
0110
0000
,  // measure 56
0000
0000
0000
0000
,  // measure 57
0000
0000
0010
0000
,  // measure 58
0000
0000
0000
0000
,  // measure 59
0000
0000
0100
0000
,  // measure 60
0000
0000
0000
0000
,  // measure 61
0000
0000
1001
0000
,  // measure 62
0000
0000
0000
0001
,  // measure 63
0001
0000
1000
0000
,  // measure 64
0000
0000
0000
0000
,  // measure 65
0000
0000
0000
1001
,  // measure 66
0000
0000
0000
0110
,  // measure 67
0000
0000
0000
0010
,  // measure 68
0000
0000
0000
0100
,  // measure 69
0000
0010
0000
1001
,  // measure 70
0000
0000
1000
0000
,  // measure 71
0000
0001
0000
1001
,  // measure 72
0000
1000
0000
0001
,  // measure 73
0000
1000
1000
0000
,  // measure 74
0010
0000
0010
0000
,  // measure 75
0010
0000
0010
0000
,  // measure 76
0100
0000
0100
0000
,  // measure 77
0100
0000
0100
0000
,  // measure 78
0001
0000
0001
0000
,  // measure 79
0001
0000
0001
0000
,  // measure 80
1000
0000
1000
0000
,  // measure 81
1000
0000
1000
0000
,  // measure 82
0001
0000
1000
0000
,  // measure 83
0001
0000
1000
0000
,  // measure 84
0010
0000
0100
0000
,  // measure 85
0010
0000
0100
0000
,  // measure 86
0010
0000
0000
0000
,  // measure 87
0000
0000
0000
1001
,  // measure 88
0000
0000
0000
0000
,  // measure 89
0000
0020
0000
0000
,  // measure 90
0000
0000
0000
0000
,  // measure 91
0000
0000
0000
0000
,  // measure 92
0000
0000
0000
0030
,  // measure 93
0000
0200
0000
0000
,  // measure 94
0000
0000
0000
0000
,  // measure 95
0000
0000
0000
0300
,  // measure 96
0000
0001
0000
1000
,  // measure 97
0000
2002
0000
0000
,  // measure 98
0000
0000
0000
0000
,  // measure 99
0000
0000
0000
0000
,  // measure 100
0000
0000
0000
3003
,  // measure 101
0000
0001
0000
1000
,  // measure 102
0000
0001
0000
0000
,  // measure 103
0110
0000
0000
0000
,  // measure 104
0000
1001
0000
0000
,  // measure 105
0000
0000
1000
0000
,  // measure 106
0001
0000
0000
0000
,  // measure 107
0000
0000
0000
0000
,  // measure 108
0000
1001
0000
0000
,  // measure 109
0000
0000
0001
0000
,  // measure 110
0010
0000
0000
0000
,  // measure 111
0000
0100
0100
0000
,  // measure 112
0000
0110
0000
0000
,  // measure 113
0000
0000
0010
0000
,  // measure 114
0010
0000
0000
0000
,  // measure 115
0000
0000
0000
0000
,  // measure 116
0000
0110
0000
0000
,  // measure 117
0000
0000
0100
0000
,  // measure 118
1000
0000
0000
0000
,  // measure 119
0000
0001
1000
0000
,  // measure 120
0000
1001
0000
0000
,  // measure 121
0000
0000
0001
0000
,  // measure 122
1000
0000
0000
0000
,  // measure 123
0000
0000
0000
0000
,  // measure 124
0000
0110
0000
0000
,  // measure 125
0000
0000
0100
0000
,  // measure 126
0010
0000
0000
0000
,  // measure 127
0000
1000
1000
0000
,  // measure 128
0000
1001
0000
0000
,  // measure 129
0000
0000
0001
0000
,  // measure 130
1000
0000
0000
0000
,  // measure 131
0000
0000
0000
0000
,  // measure 132
0000
1001
0000
0000
,  // measure 133
0000
0000
0001
0000
,  // measure 134
1000
0000
0000
0000
,  // measure 135
0000
0010
0010
0000
,  // measure 136
0000
0100
0000
0000
,  // measure 137
0000
0010
0000
0000
,  // measure 138
0000
1000
0000
0000
,  // measure 139
0000
0000
0000
0000
,  // measure 140
0000
1000
0000
0000
,  // measure 141
0000
0000
0000
0000
,  // measure 142
0000
1001
0000
0000
,  // measure 143
0000
0001
1000
0001
,  // measure 144
0000
1001
0000
0000
,  // measure 145
0000
1001
0000
0000
,  // measure 146
0000
1001
0000
0000
,  // measure 147
0000
0000
0000
0000
,  // measure 148
0000
0110
0000
0000
,  // measure 149
0000
0000
0000
0000
,  // measure 150
1001
0000
0000
0000
;
