#TITLE:lets do it;
#SUBTITLE:;
#ARTIST:UniBe@t;
#TITLETRANSLIT:;
#SUBTITLETRANSLIT:;
#ARTISTTRANSLIT:;
#GENRE:;
#CREDIT:;
#BANNER:lets do it.png;
#BACKGROUND:lets do it-bg.png;
#LYRICSPATH:;
#CDTITLE:;
#MUSIC:lets do it.ogg;
#OFFSET:1.874000;
#SAMPLESTART:32.712482;
#SAMPLELENGTH:16.267052;
#LASTBEATHINT:1.680103;
#SELECTABLE:YES;
#BPMS:0.000000=118.040001
;
#STOPS:
;
#BGCHANGES:;
#KEYSOUNDS:;
#ATTACKS:;

//---------------dance-single - ----------------
#NOTES:
     dance-single:
     :
     Hard:
     7:
     0.389460,0.428853,0.132796,0.093738,0.156230,349.000000,332.000000,17.000000,12.000000,0.000000,0.000000,0.389460,0.428853,0.132796,0.093738,0.156230,349.000000,332.000000,17.000000,12.000000,0.000000,0.000000:
// measure 0
0000
0000
0000
0000
,  // measure 1
0000
0000
0000
0000
,  // measure 2
0000
0000
0000
0000
,  // measure 3
0000
0000
0000
0000
,  // measure 4
0000
0000
0000
0000
,  // measure 5
0001
0100
0001
0010
0001
0000
1000
0000
,  // measure 6
0010
1000
0100
1000
0010
0000
1000
0000
,  // measure 7
0100
1000
0100
0010
0100
0000
1000
0000
,  // measure 8
0010
0100
0001
0010
0001
0000
0100
0000
,  // measure 9
1001
0000
0000
0001
0000
0000
0000
0000
0100
0000
0000
0000
0000
0000
0000
0000
,  // measure 10
1000
0000
0000
1000
0000
0000
0000
0000
0100
0000
0000
0000
0000
0000
0000
0000
,  // measure 11
0010
0000
0000
0010
0000
0000
0000
0000
1000
0000
0000
0000
0000
0000
0000
0000
,  // measure 12
0010
0000
0000
0010
0000
0000
0000
0000
1000
0000
0000
0000
0001
0000
0000
0000
,  // measure 13
1000
0000
0000
1000
0000
0000
1000
0000
0001
0000
0000
0000
0100
0000
0000
0000
,  // measure 14
0010
0000
0000
0010
0000
0000
0010
0000
0100
0000
0000
0000
0001
0000
0000
0000
,  // measure 15
0010
0000
0000
0010
0000
0000
0010
0000
0100
0000
0000
0000
1000
0000
0000
0000
,  // measure 16
0001
0000
0000
0001
0000
0000
1000
0000
0000
0000
0000
0000
0000
0000
0000
0000
,  // measure 17
0001
0000
0100
0001
0000
0001
0100
0000
0010
0000
0000
0000
1010
0000
0000
0000
,  // measure 18
1000
0000
0100
1000
0000
1000
0100
0000
0010
0000
0000
0000
0011
0000
0000
0000
,  // measure 19
0001
0000
1000
0100
0000
0100
1000
0000
0010
0000
0000
0000
1010
0000
0000
0000
,  // measure 20
1000
0000
0001
0100
0000
0100
0001
0000
0010
0000
0000
0000
0011
0000
0000
0000
,  // measure 21
1000
0000
0010
1000
0000
1000
0010
0000
0100
0000
0000
0000
0101
0000
0000
0000
,  // measure 22
0001
0000
0010
0001
0000
0001
0010
0000
0100
0000
0000
0000
1100
0000
0000
0000
,  // measure 23
1000
0000
0001
0010
0000
0000
0100
1000
0000
0000
1000
0000
0001
0000
0000
0000
,  // measure 24
1000
0010
0001
0100
1000
0010
1001
0000
,  // measure 25
1000
0000
0000
0100
0000
0000
1000
0000
,  // measure 26
0001
0000
0000
0100
0000
0000
0010
0000
,  // measure 27
1000
0000
0000
0010
0000
0000
0100
0000
,  // measure 28
0001
0000
0000
1000
0000
0000
0010
0000
,  // measure 29
1000
0000
0100
0100
0000
1000
1000
0000
,  // measure 30
0010
0000
0100
0100
0000
0001
0001
0000
,  // measure 31
0010
0000
0100
0100
0000
0010
0010
0000
,  // measure 32
0001
0000
1000
2000
0000
0001
0002
3003
,  // measure 33
0110
0000
1001
1000
0100
0001
0100
0010
,  // measure 34
0001
0000
0100
0010
0100
0000
0001
1000
,  // measure 35
0001
0000
0010
0100
1000
0100
0001
0100
,  // measure 36
0010
0100
1000
0000
0100
1000
0010
0100
,  // measure 37
0001
0000
1000
0001
0100
0001
0100
1000
,  // measure 38
0100
0000
0100
0001
0100
0000
0010
1000
,  // measure 39
0010
0000
0100
0001
0010
1000
0010
0100
,  // measure 40
1000
0001
0100
0010
1000
0001
0010
0100
,  // measure 41
0010
0000
0001
0000
0000
0000
0010
0000
0000
0010
0000
0010
0100
0000
1000
0000
,  // measure 42
0001
1000
0010
0100
0001
0010
0001
1000
,  // measure 43
0001
0000
0010
0000
0000
0000
0100
0000
0000
0100
0000
0100
0010
0000
0001
0000
,  // measure 44
1000
0000
0010
0200
0000
0301
2000
0000
,  // measure 45
3010
1000
0010
1000
0010
1000
0100
0000
,  // measure 46
0010
0001
0010
0001
0010
0001
0100
0000
,  // measure 47
0001
1000
0001
1000
0001
1000
0100
0000
,  // measure 48
0020
0230
2300
3002
,  // measure 49
0103
0001
0100
0001
0100
0001
0010
0000
,  // measure 50
0100
1000
0100
1000
0100
1000
0010
0000
,  // measure 51
0100
0001
0100
0001
0100
0001
0010
0000
,  // measure 52
0002
0023
0230
2300
,  // measure 53
3001
0000
1000
0010
0000
0010
0100
0000
0001
0000
0000
0000
1010
0000
0000
0000
,  // measure 54
1000
0000
0001
0100
0000
0100
0010
0000
1000
0000
0000
0000
1100
0000
0000
0000
,  // measure 55
0100
0000
0010
0001
0000
0001
0100
0000
0010
0000
0000
0000
1010
0000
0000
0000
,  // measure 56
0010
0000
1000
0010
0000
0100
0010
0000
0100
0000
0000
0000
0101
0000
0000
0000
,  // measure 57
0001
0000
0010
0001
0000
1000
0100
0000
0010
0000
0000
0000
0011
0000
0000
0000
,  // measure 58
1000
0000
0010
1000
0000
0100
0001
0000
1000
0000
0000
0000
1100
0000
0000
0000
,  // measure 59
0100
0000
0010
0001
0000
0000
0001
0100
0000
0000
0010
0000
1000
0000
0000
0000
,  // measure 60
0100
0010
0001
0100
1000
0010
0001
0000
,  // measure 61
1001
0000
0000
0000
;

//---------------dance-single - ----------------
#NOTES:
     dance-single:
     :
     Medium:
     6:
     0.287910,0.333552,0.148419,0.132796,0.046869,258.000000,239.000000,19.000000,17.000000,0.000000,0.000000,0.287910,0.333552,0.148419,0.132796,0.046869,258.000000,239.000000,19.000000,17.000000,0.000000,0.000000:
// measure 0
0000
0000
0000
0000
,  // measure 1
0000
0000
0000
0000
,  // measure 2
0000
0000
0000
0000
,  // measure 3
0000
0000
0000
0000
,  // measure 4
0000
0000
0000
0000
,  // measure 5
1000
0010
0100
0101
,  // measure 6
0001
0010
0100
1100
,  // measure 7
1000
0001
0010
0011
,  // measure 8
0001
1000
0100
1100
,  // measure 9
1020
0000
0130
0000
,  // measure 10
0002
0000
0013
0000
,  // measure 11
0200
0000
1300
0001
,  // measure 12
0200
0000
0310
0100
,  // measure 13
0001
1000
1010
0101
,  // measure 14
0001
0010
0110
1100
,  // measure 15
0100
1000
1010
0110
,  // measure 16
0100
0002
0000
0003
,  // measure 17
1000
0000
0000
1000
0000
0000
1000
0000
0001
0000
0000
0000
0100
0000
0000
0000
,  // measure 18
0001
0000
0000
0001
0000
0000
0001
0000
0100
0000
0000
0000
0010
0000
0000
0000
,  // measure 19
0100
0000
0000
0100
0000
0000
0100
0000
0001
0000
0000
0000
1000
0000
0000
0000
,  // measure 20
0010
0000
0000
0010
0000
0000
0010
0000
1000
0000
0000
0000
0001
0000
0000
0000
,  // measure 21
1000
0000
0000
0100
0000
0000
1000
0000
0100
0000
0000
0000
1000
0000
0000
0000
,  // measure 22
0001
0000
0000
0100
0000
0000
0001
0000
0100
0000
0000
0000
0001
0000
0000
0000
,  // measure 23
1000
0100
0000
1000
0000
0000
0010
0000
,  // measure 24
0000
0100
0010
1000
0001
0010
0001
0000
,  // measure 25
1000
0000
0000
1000
0000
0000
1000
0000
,  // measure 26
0001
0000
0000
0001
0000
0000
0001
0000
,  // measure 27
0100
0000
0000
0100
0000
0000
0100
0000
,  // measure 28
0010
0000
0000
0010
0000
0000
0010
0000
,  // measure 29
0100
0000
0001
1000
0000
0001
1000
0000
,  // measure 30
0001
0000
1000
0001
0000
1000
0001
0000
,  // measure 31
0001
0000
1000
0001
0000
0001
1000
0000
,  // measure 32
1000
0000
1000
0001
0000
0001
1000
0000
,  // measure 33
1010
0000
0000
0000
1000
0010
0100
0001
,  // measure 34
1000
0000
0001
0010
0001
0000
0100
0000
,  // measure 35
0110
0000
0000
0000
0100
0010
1000
0001
,  // measure 36
1000
0000
0100
0000
1000
1000
0001
0000
,  // measure 37
0101
0000
0000
0000
0100
0010
1000
0001
,  // measure 38
0010
0100
0010
0001
,  // measure 39
1100
0000
0000
0000
1000
0100
1000
0001
,  // measure 40
0100
0010
0100
0001
,  // measure 41
1000
0001
0100
0001
,  // measure 42
0011
0001
1001
0000
,  // measure 43
1000
0010
0100
0010
,  // measure 44
1010
0000
1000
0001
0000
1000
0100
0000
,  // measure 45
2000
0010
0010
3010
,  // measure 46
0200
0001
0001
0301
,  // measure 47
0020
0100
0100
0130
,  // measure 48
0200
1300
2000
3001
,  // measure 49
0200
0001
0001
0301
,  // measure 50
2000
0100
0100
3100
,  // measure 51
0020
0001
0001
0031
,  // measure 52
2000
3200
0320
0032
,  // measure 53
1003
0000
0000
1000
0000
0000
1000
0000
0001
0000
0000
0000
1000
0000
0000
0000
,  // measure 54
0001
0000
0000
0001
0000
0000
0001
0000
1000
0000
0000
0000
0001
0000
0000
0000
,  // measure 55
0100
0000
0000
0100
0000
0000
0100
0000
0010
0000
0000
0000
0100
0000
0000
0000
,  // measure 56
0010
0000
0000
0010
0000
0000
0010
0000
0100
0000
0000
0000
0010
0000
0000
0000
,  // measure 57
1000
0000
0000
0010
0000
0000
0100
0000
0001
0000
0000
0000
0010
0000
0000
0000
,  // measure 58
0100
0000
0000
1000
0000
0000
0010
0000
0100
0000
0000
0000
0001
0000
0000
0000
,  // measure 59
1000
0001
0000
0100
0000
0001
0000
0000
,  // measure 60
0000
1000
0100
0001
0100
1000
0010
0000
,  // measure 61
1001
0000
0000
0000
;

//---------------dance-single - ----------------
#NOTES:
     dance-single:
     :
     Easy:
     3:
     0.177433,0.285902,0.046869,0.148419,0.000000,159.000000,153.000000,6.000000,19.000000,0.000000,0.000000,0.177433,0.285902,0.046869,0.148419,0.000000,159.000000,153.000000,6.000000,19.000000,0.000000,0.000000:
0000
0000
0000
0000
,
0000
0000
0000
0000
,
0000
0000
0000
0000
,
0000
0000
0000
0000
,
0000
0000
0000
0000
,
1000
0001
1000
0100
,
1000
0001
1000
0100
,
1000
0001
1000
0100
,
1000
0001
1000
0100
,
2002
0000
3003
0000
,
0020
0000
0030
0000
,
0200
0000
0300
0000
,
0002
0000
0003
0000
,
2000
0000
3001
1000
,
0002
0000
0103
0010
,
0200
0000
0310
0100
,
0002
0000
0000
0003
,
1000
0001
1000
0010
,
1000
0001
1000
0100
,
1000
0001
1000
0010
,
1000
0001
1000
0100
,
1000
0010
1000
0100
,
1000
0010
1000
0001
,
0100
0001
0010
0001
,
2000
3200
0320
0032
,
1003
0000
0000
0000
,
0001
0000
0000
0000
,
0100
0000
0000
0000
,
0010
0000
0000
0000
,
1000
1000
0000
1000
,
0001
0001
0000
1000
,
1000
0001
0000
0100
,
0010
0010
0000
0000
,
0100
0000
0010
1000
,
0001
1000
0000
1000
,
0001
0000
0010
0001
,
1000
0000
0100
0000
,
1000
0000
0010
1000
,
0001
0010
0001
1000
,
0100
0000
0010
0100
,
1000
0000
0001
0000
,
1001
0000
0010
0000
,
0100
0000
0000
0000
,
1001
0000
0100
0000
,
0010
0000
0000
0000
,
2000
0000
0000
3000
,
0002
0000
0000
0003
,
2000
0000
0000
3000
,
0010
1000
0001
0100
,
0020
0000
0000
0030
,
0200
0000
0000
0300
,
0020
0000
0000
0030
,
1000
0100
0010
0001
,
1000
0001
0010
0010
,
0001
1000
0010
0100
,
0001
1000
0010
0010
,
1000
0001
0100
0010
,
1000
0001
0100
0100
,
0001
1000
0100
0010
,
0100
1000
0010
0100
,
0001
1001
1000
1001
,
0110
0000
0000
0000
;

//---------------dance-single - ----------------
#NOTES:
     dance-single:
     :
     Beginner:
     1:
     0.085927,0.142951,0.039058,0.000000,0.000000,77.000000,72.000000,5.000000,0.000000,0.000000,0.000000,0.085927,0.142951,0.039058,0.000000,0.000000,77.000000,72.000000,5.000000,0.000000,0.000000,0.000000:
0000
0000
0000
0000
,
0000
0000
0000
0000
,
0000
0000
0000
0000
,
0000
0000
0000
0000
,
0000
0000
0000
0000
,
0001
0000
0000
0000
,
0001
0000
0000
0000
,
0001
0000
0000
0000
,
0001
0000
0000
0000
,
1001
0000
0000
0000
,
1000
0000
0000
0000
,
0010
0000
0000
0000
,
1000
0000
0000
0000
,
0001
0000
0000
0000
,
0100
0000
0000
0000
,
0001
0000
0000
0000
,
1000
0000
0000
0000
,
0110
0000
0000
0000
,
0100
0000
0000
0000
,
0010
0000
0000
0000
,
1000
0000
0000
0000
,
0001
0000
0000
0000
,
1000
0000
0000
0000
,
0010
0000
0100
0000
,
0001
0000
1000
0001
,
1000
0000
0000
0000
,
1000
0000
0000
0000
,
0001
0000
0000
0000
,
0001
0000
0000
0000
,
0100
0000
0000
0000
,
0100
0000
0000
0000
,
0010
0000
0000
0000
,
0010
0000
0000
0000
,
1001
0000
1000
1000
,
1000
0000
0000
0000
,
0001
0000
0100
0100
,
0100
0000
0000
0000
,
1001
0000
0010
0010
,
0010
0000
0000
0000
,
1000
0000
0001
0001
,
0001
0000
0000
0000
,
0100
0000
0100
0000
,
0100
0000
0000
0000
,
0010
0000
0010
0000
,
0010
0000
0000
0000
,
1000
0000
0000
0000
,
0001
0000
0000
0000
,
1000
0000
0000
0000
,
0010
0000
0100
0000
,
0010
0000
0000
0000
,
0100
0000
0000
0000
,
0010
0000
0000
0000
,
0100
0000
0000
0000
,
0001
0000
0000
0000
,
0010
0000
0000
0000
,
0001
0000
0000
0000
,
1000
0000
0000
0000
,
0010
0000
0000
0000
,
1000
0000
0000
0000
,
0100
0000
0000
0000
,
1000
0000
0001
0000
,
1001
0000
0000
0000
;
