#TITLE:invoker;
#SUBTITLE:;
#ARTIST:Caladborg;
#TITLETRANSLIT:;
#SUBTITLETRANSLIT:;
#ARTISTTRANSLIT:;
#GENRE:;
#CREDIT:;
#BANNER:invoker.png;
#BACKGROUND:invoker-bg.png;
#LYRICSPATH:;
#CDTITLE:;
#MUSIC:03. invoker.mp3;
#OFFSET:-0.555000;
#SAMPLESTART:10.381154;
#SAMPLELENGTH:9.846154;
#SELECTABLE:YES;
#BPMS:0.000000=97.500000
,16.000000=195.000000
;
#STOPS:44.000000=0.923000,
147.500000=0.308000,
162.500000=0.308000
;
#BGCHANGES:;
#KEYSOUNDS:;
#ATTACKS:;

//---------------dance-single - ----------------
#NOTES:
     dance-single:
     :
     Hard:
     10:
     0.698769,0.859389,0.299312,0.204792,0.102396,557.000000,38.000000,26.000000,0.000000,0.000000,0.000000,0.698769,0.859389,0.299312,0.204792,0.102396,557.000000,38.000000,26.000000,0.000000,0.000000,0.000000:
// measure 0
0000
0000
0000
0000
,  // measure 1
0000
0000
0000
0000
,  // measure 2
0000
0000
0000
0000
,  // measure 3
0000
0000
0000
0000
,  // measure 4
1001
0001
0010
0100
,  // measure 5
1000
0100
0010
0100
,  // measure 6
1000
0001
0010
0001
,  // measure 7
1000
0010
0100
0001
,  // measure 8
1001
0001
0010
0100
,  // measure 9
1001
1000
0100
0010
,  // measure 10
1001
0001
0010
0100
,  // measure 11
0000
1000
0100
0001
,  // measure 12
0100
0000
0010
0000
0001
0000
0100
0100
,  // measure 13
0100
0001
1000
0010
,  // measure 14
0100
0000
0001
0000
1000
0000
0010
0010
,  // measure 15
0110
0000
0001
0100
0010
1000
0001
0100
,  // measure 16
0010
1000
0001
0100
0010
1000
0001
0001
,  // measure 17
0001
0000
1000
0001
0010
0001
0100
0001
,  // measure 18
1000
0010
1000
0010
0001
0010
1000
0100
,  // measure 19
0010
0001
1000
0001
0100
0001
1000
0010
,  // measure 20
0100
0010
0100
0001
1000
0100
0010
0010
,  // measure 21
0010
0000
0100
1000
0001
0100
0010
0100
,  // measure 22
0001
1000
0100
0010
0100
1000
0001
0100
,  // measure 23
0010
0000
0100
0010
0100
0001
1000
0100
,  // measure 24
0010
0100
1000
0001
0100
0010
1000
1000
,  // measure 25
1000
0000
0010
0100
0001
1000
0100
0010
,  // measure 26
0001
0100
0110
0000
0110
0000
1000
0000
,  // measure 27
0010
0000
0100
0001
1000
0001
0010
0100
,  // measure 28
1000
0001
0100
0001
1000
0001
0010
0100
,  // measure 29
1000
0001
0001
1000
0100
0010
0001
1000
,  // measure 30
0001
0100
0001
1000
0100
0010
0001
1000
,  // measure 31
0001
0100
0100
0000
0001
0000
1000
0001
,  // measure 32
0010
0000
0100
0000
1000
0001
0010
0000
,  // measure 33
0100
0000
1000
0000
0100
0010
0000
0000
,  // measure 34
0001
2000
0000
0200
,  // measure 35
3300
0000
0000
0000
1000
0000
0001
0000
0100
0000
0010
1000
0000
0010
1000
0000
,  // measure 36
0010
0000
0100
0000
0001
0000
0010
0000
0100
0000
1000
0100
0000
1000
0100
0000
,  // measure 37
0010
0000
0001
0000
1000
0000
0001
1000
0000
1000
0001
0000
0100
0000
0010
0000
,  // measure 38
1000
0000
0001
0000
0010
0000
0100
0010
0000
0010
0100
0000
0010
0001
1000
0000
,  // measure 39
0010
0000
0100
0000
0001
0000
1000
0100
0000
0100
0010
0000
0001
0000
0010
0000
,  // measure 40
0001
0000
0100
0000
0010
0000
1000
0001
0000
1000
0010
0000
1000
0000
0001
0000
,  // measure 41
0010
0000
0100
1000
0000
0100
0010
0000
0001
0000
0100
0000
0010
0000
1000
0000
,  // measure 42
0001
0000
0010
0100
0000
0010
0001
0000
1000
0000
0010
0000
1000
0000
0100
0000
,  // measure 43
1000
0010
1000
0001
0010
0100
1000
0100
,  // measure 44
1000
0010
1000
0001
0010
0000
0110
0100
,  // measure 45
0000
0000
1001
0000
0001
0000
0000
0000
1000
0001
1000
0000
0001
0000
0000
0001
,  // measure 46
0000
0001
1000
0001
0020
0000
0031
0100
,  // measure 47
0010
0100
0001
0010
0100
1000
0001
0100
,  // measure 48
0010
0100
0001
0010
0100
0000
1000
0100
,  // measure 49
0000
0010
0001
0000
1001
0000
0001
0100
,  // measure 50
0000
0000
0010
0000
1000
0000
0000
0000
0001
1000
0001
0000
2002
0000
0000
0000
,  // measure 51
0000
0000
0000
0000
,  // measure 52
0000
3003
1001
0220
,  // measure 53
0000
0000
0000
0000
,  // measure 54
0000
0000
0330
2000
,  // measure 55
0200
3000
0002
0300
0200
0003
2000
0300
,  // measure 56
0020
3000
0002
0030
0020
0003
0200
0030
,  // measure 57
0020
0300
2000
0030
0002
3000
0200
0003
,  // measure 58
0020
0300
2000
0030
0002
3000
1000
0003
,  // measure 59
0100
1000
0000
0010
0000
0100
0000
0001
,  // measure 60
0100
0001
0001
0000
,  // measure 61
1000
0100
0000
0010
0100
1000
0000
0001
,  // measure 62
1000
0010
1000
0000
,  // measure 63
0100
0010
0000
0001
0000
0010
0000
0100
,  // measure 64
0010
0100
0100
0000
,  // measure 65
0010
0001
0000
1000
0001
0010
0000
0010
,  // measure 66
0001
1000
0100
1001
,  // measure 67
0110
0000
0100
0000
0010
0000
1000
0100
,  // measure 68
0010
0100
1000
0100
0010
0001
1001
0000
,  // measure 69
0001
0010
0100
2000
,  // measure 70
3002
0000
0203
0000
0310
0000
1001
0001
,  // measure 71
0010
0100
1000
0100
0010
0001
1001
0001
,  // measure 72
0010
0100
1000
0100
0010
0001
1001
0001
,  // measure 73
0010
0100
1000
0100
0010
0001
1001
0001
,  // measure 74
0010
0100
1000
0100
0010
0001
1001
0001
,  // measure 75
0010
0100
1001
1000
0100
0010
1001
0001
,  // measure 76
0010
0100
1001
1000
0100
0010
1001
0001
,  // measure 77
1001
1000
1001
0001
1001
1000
1001
1001
,  // measure 78
1001
1001
1001
1001
1001
0000
0001
0010
,  // measure 79
1000
0010
0000
0001
0000
0010
0000
0100
,  // measure 80
1000
0000
0010
0000
0001
0000
0010
0100
,  // measure 81
0001
1000
0000
0010
0100
0010
0000
1000
,  // measure 82
0001
0000
0010
0000
1001
0000
0001
1000
,  // measure 83
0010
0001
0000
0010
0000
0100
0000
0010
,  // measure 84
1000
0000
0001
0000
0100
0000
0001
0010
,  // measure 85
1000
0010
0000
0010
0100
1000
0000
0100
,  // measure 86
0010
0000
0001
0000
1001
0000
1000
0100
,  // measure 87
1000
0010
1000
0100
0010
0001
0010
0001
,  // measure 88
0100
0001
1000
0100
0010
0001
1000
0010
,  // measure 89
0100
0010
0001
0010
0100
1000
0001
1000
,  // measure 90
0010
0100
0001
0010
0100
1000
0100
0010
,  // measure 91
0001
1000
0010
0001
0010
1000
0010
0100
,  // measure 92
0001
0010
0100
1000
0100
0001
0100
0010
,  // measure 93
0001
0000
0100
0000
0010
0000
1000
0000
0001
0000
0010
0000
0100
0010
0001
1000
,  // measure 94
0010
0100
0001
0010
0100
1000
0010
1000
0001
0000
0010
0000
1001
0000
0100
0000
;

//---------------dance-single - ----------------
#NOTES:
     dance-single:
     :
     Medium:
     8:
     0.487225,0.560471,0.189039,0.149656,0.003938,390.000000,24.000000,19.000000,0.000000,0.000000,0.000000,0.487225,0.560471,0.189039,0.149656,0.003938,390.000000,24.000000,19.000000,0.000000,0.000000,0.000000:
0000
0000
0000
0000
,
0000
0000
0000
0000
,
0000
0000
0000
0000
,
0000
0000
0000
0000
,
1001
0010
0100
0001
,
1000
0010
0100
0001
,
1000
0100
0010
0100
,
1000
0010
0100
0001
,
1001
0000
0000
0000
,
0110
0000
0000
0000
,
1001
0000
0000
0000
,
0110
0100
0010
0001
,
1000
0000
0010
0000
0100
0000
0001
0100
,
0001
0100
0010
1000
,
0010
0100
0001
1000
,
1001
0001
0001
1000
,
1000
0000
0010
0000
0010
0000
0100
0010
,
1000
0001
0010
0100
,
1000
0100
1000
0010
,
0100
0001
1001
1000
,
0100
0000
0010
0000
0011
0000
0001
0100
,
0010
1000
1010
0010
,
0100
0001
1001
0001
,
1001
1000
1100
0010
,
0001
0000
0010
0000
0100
0000
1000
0100
,
0010
0001
0011
0001
,
1000
0020
1030
0200
,
0310
0000
0001
0000
0010
0000
0100
1000
,
0010
0100
0001
0000
0010
0000
0100
0010
,
1000
0001
0010
0000
0100
0000
0010
0001
,
0100
0010
1000
0000
0100
0000
0010
0001
,
0100
0010
1000
0000
0001
0000
1000
0001
,
0000
0000
0001
0000
0100
0010
0000
1000
,
0000
0000
0100
0000
0010
0100
0000
0000
,
0100
2000
0000
0002
,
0000
3003
0001
0000
0100
0010
0000
1000
,
0010
0000
0100
0000
0001
0010
0000
0100
,
0010
0000
0001
0010
0000
0010
0100
0000
,
0100
0000
0010
0001
0000
1000
0001
0100
,
0001
0000
0100
0010
0000
1000
0010
0000
,
0100
0000
0001
0010
0000
0100
0010
0000
,
0001
0010
0000
0010
0100
0000
0100
0000
,
1000
0100
0000
0100
0010
0000
0001
0000
,
1000
0000
0010
1000
0010
1000
0010
0000
,
0100
0000
0001
0100
0001
0000
0001
1000
,
0000
0000
0001
0000
1000
0000
0000
0000
0001
0000
1000
0000
0001
0000
0000
1000
,
0000
0001
1000
0010
1000
0000
0100
0000
,
0010
0000
0001
0010
0100
1000
0100
0000
,
1000
0000
0100
0010
0001
0000
0010
0100
,
0000
0010
0100
0000
0010
0001
1000
0000
,
0001
0000
0100
0010
1000
0000
2002
0000
,
0000
0000
0000
0000
,
0000
0000
3003
2002
,
0000
0000
0000
0000
,
0000
0000
3003
0102
,
0000
0203
0000
0320
,
0000
2030
0000
3200
,
0000
0302
0000
0203
,
0000
2300
0000
3100
,
1000
0100
0010
0100
,
0010
0001
0001
0000
,
0010
0100
1000
0010
,
0100
0001
0001
0000
,
0100
0001
1000
0100
,
1000
0010
0010
0000
,
0100
0010
1000
0001
,
0010
0100
1000
1001
,
0001
0100
0010
2000
,
0000
0000
0000
3010
,
0100
0001
1000
0200
,
0000
0000
0300
1001
,
0001
1000
0000
0010
0000
1000
0001
0000
,
0100
0001
0000
1000
0000
0100
0010
0000
,
0001
0010
0000
0100
0000
1000
0100
0000
,
1000
0010
0000
0100
0000
0001
1000
0000
,
0001
0100
0001
0000
0100
0010
0100
0000
,
0010
1000
0010
0000
0100
0010
1000
0001
,
1000
0001
1000
0001
1000
0001
1000
0100
,
0010
0001
0010
0100
1000
0000
0001
0000
,
0100
0010
1000
0010
,
0100
0101
1010
1000
,
0100
0010
0001
0010
,
0100
0110
1001
0001
,
1000
0100
1000
0010
,
0100
0101
1010
1000
,
0010
0100
0001
1000
,
0010
0000
0100
0010
1000
0000
0001
0000
,
0100
0000
0010
1000
0010
0100
0010
0000
,
0100
0000
0001
0100
0010
0000
0100
0000
,
0010
0000
0001
0010
0100
1000
0100
0000
,
1000
0000
0010
0100
0001
1000
0010
0000
,
0100
0000
0001
0010
0100
1000
0100
0000
,
1000
0000
1000
0100
0010
0001
0010
0000
,
0100
0000
0010
0001
0100
0010
1000
0001
,
0010
0100
1000
0100
0010
0001
2000
3010
;

//---------------dance-single - ----------------
#NOTES:
     dance-single:
     :
     Easy:
     6:
     0.360074,0.523106,0.228422,0.102396,0.000000,278.000000,29.000000,13.000000,0.000000,0.000000,0.000000,0.360074,0.523106,0.228422,0.102396,0.000000,278.000000,29.000000,13.000000,0.000000,0.000000,0.000000:
0000
0000
0000
0000
,
0000
0000
0000
0000
,
0000
0000
0000
0000
,
0000
0000
0000
0000
,
1001
0000
0000
0000
,
0000
0000
0000
0000
,
0020
0000
0030
0000
,
0200
0000
0300
0000
,
0002
0000
0003
0000
,
2000
0000
3000
0000
,
2002
0000
0000
0000
,
3003
0001
0100
0001
,
0100
0001
0100
0001
,
0001
0100
0001
0100
,
0001
0100
0001
0100
,
1001
1000
0010
1000
,
0010
0000
1000
0000
0010
0000
1000
0010
,
1000
0010
1000
0010
,
1000
0020
0000
0000
,
0030
0100
0001
0000
,
0100
0000
0010
0000
,
1000
0000
0100
0000
,
0010
0000
0001
0000
,
0010
0001
0001
0010
,
0010
0100
0100
1000
,
1000
1000
1000
0100
,
0100
0010
0010
0001
,
0001
1000
0001
0100
,
0100
0001
1000
0100
,
0100
1000
0100
0010
,
0010
0001
0010
0100
,
0100
0000
0010
0000
0001
0000
1000
0001
,
0000
0000
1000
0000
0001
1000
0000
0001
,
0000
0000
1000
0000
0000
0010
0000
0000
,
0100
0002
0000
2000
,
3003
0001
1000
0010
,
1010
0010
0100
0001
,
1000
0100
0010
0011
,
0010
0000
0100
0000
1000
0000
0001
1000
,
0010
1000
0001
0101
,
0001
1000
0110
0100
,
0010
1000
1010
0010
,
0100
0001
0101
0001
,
1000
0100
0100
1000
,
0001
0100
0100
0010
,
0000
0100
0010
1000
,
1000
0001
0001
1000
,
0100
0001
0100
1000
,
0010
0001
0010
0110
,
0000
0010
0100
0001
,
0001
0000
1000
0000
0010
0100
2002
0000
,
0000
0000
0000
0000
,
0000
0000
0000
0000
,
0000
0000
0000
0000
,
0000
0000
3003
0000
,
0010
0100
0000
0010
,
0000
0000
0110
1001
,
0000
1000
0000
0002
,
0000
0003
0000
0100
,
0000
0001
0000
1000
,
0000
0100
0100
1000
,
0000
0100
0000
0010
,
0000
0001
0001
0010
,
0000
0001
0000
1000
,
0000
0010
0010
1000
,
0000
0010
0000
0100
,
0000
0010
0000
0100
,
0010
1000
0001
0020
,
0000
0000
0030
0110
,
0010
0000
0100
0010
,
0000
0000
0000
1001
,
0010
0000
0000
1001
,
0100
0000
0000
1001
,
0010
0000
0000
1001
,
0100
0000
0000
1001
,
0010
1001
0100
1001
,
0010
1001
0100
1001
,
1001
0110
0110
1001
,
0110
1001
0010
1000
,
0010
0100
0010
1000
,
0001
0010
0010
0001
,
1000
0100
0010
0001
,
0010
0001
0001
0010
,
0001
0100
0010
1000
,
0010
0100
0100
0010
,
1000
0001
0010
0100
,
1000
0100
0100
1000
,
0010
0100
0001
0010
,
0100
1000
0100
1000
,
0010
0100
0001
0010
,
1000
0010
0100
1000
,
0100
0001
0100
0010
,
0001
0010
0100
1000
,
0100
0010
0001
0010
,
0100
0000
1000
0000
0010
0000
1000
0001
;

//---------------dance-single - ----------------
#NOTES:
     dance-single:
     :
     Beginner:
     3:
     0.213794,0.447786,0.204792,0.000000,0.000000,164.000000,26.000000,0.000000,0.000000,0.000000,0.000000,0.213794,0.447786,0.204792,0.000000,0.000000,164.000000,26.000000,0.000000,0.000000,0.000000,0.000000:
0000
0000
0000
0000
,
0000
0000
0000
0000
,
0000
0000
0000
0000
,
0000
0000
0000
0000
,
0010
0000
0000
0000
,
0100
0000
0000
0000
,
1000
0000
0000
0000
,
0100
0000
0000
0000
,
0010
0000
0000
0000
,
0001
0000
0000
0000
,
1000
0000
0000
0000
,
0000
0001
0000
0001
,
0000
0001
0000
1000
,
1000
0001
0000
1000
,
0000
0010
0000
0100
,
0110
0010
0000
0010
,
0000
0010
0000
0010
,
0010
0100
0000
0010
,
0000
1000
0000
0000
,
0000
0001
0000
1000
,
0000
0010
0000
0100
,
0100
0100
0000
0010
,
0000
1000
0000
0001
,
0000
1000
0000
0100
,
0000
0010
0000
0001
,
0001
0010
0000
0100
,
0000
1000
0000
0001
,
0000
1000
0000
0000
,
0000
0001
0000
0000
,
0000
0100
0000
0000
,
0000
0010
0000
0000
,
0000
0100
0000
0010
,
0000
0001
0001
0001
,
0000
1000
0000
0001
,
0000
1001
0000
0110
,
0000
0100
0000
0010
,
0000
0100
0000
0010
,
0100
0000
0010
0000
,
1000
0000
0001
0001
,
1000
0000
0001
0000
,
0100
0000
0001
1000
,
0000
0100
0000
1000
,
0000
0010
0000
0100
,
0000
0000
0000
0010
,
0000
0000
0000
1000
,
0000
1000
1000
0001
,
0000
0001
0000
0100
,
0000
0001
0000
1000
,
0000
0010
0000
0100
,
0000
0000
0010
0010
,
0000
0100
0010
1001
,
0000
0000
0000
0000
,
0000
0000
0000
1001
,
0000
0000
0000
0000
,
0000
0000
0000
0010
,
0000
0000
0000
0000
,
0000
0000
1001
1001
,
0000
0000
0000
0000
,
0000
0000
0000
1000
,
0000
0000
0000
0001
,
0000
0000
0000
0100
,
0000
0000
0000
0001
,
0000
1000
0000
0010
,
0000
0000
0000
0100
,
0000
0000
0000
0010
,
0000
0000
0000
0001
,
0000
0000
0000
1001
,
1000
0000
0000
0010
,
0000
0000
0000
1001
,
0001
0000
0000
1000
,
0000
0000
0000
1001
,
0000
0000
0000
0110
,
0000
0000
0000
1001
,
0000
0000
0000
0110
,
0000
0000
0000
1001
,
0000
1001
0000
0110
,
0000
0110
0000
1001
,
1001
1001
1001
0110
,
0110
0110
0110
0100
,
0000
0010
0000
1000
,
1000
1000
0000
0001
,
0000
1000
0000
0100
,
0100
0100
0000
1000
,
0000
0001
0000
0010
,
0010
0010
0000
0001
,
0000
1000
0000
0010
,
0010
0010
0000
0100
,
0000
0010
0000
1000
,
1000
1000
0000
0010
,
0000
0100
0000
0001
,
0001
0001
0000
1000
,
0000
0001
0000
0100
,
0000
0010
0000
1000
,
0000
0001
0000
0100
,
0000
0010
0000
1001
;
