#VERSION:0.83;
#TITLE:entelecheia;
#SUBTITLE:;
#ARTIST:Rche;
#TITLETRANSLIT:;
#SUBTITLETRANSLIT:;
#ARTISTTRANSLIT:;
#GENRE:;
#ORIGIN:;
#CREDIT:;
#BANNER:entelecheia.png;
#BACKGROUND:entelecheia-bg.png;
#PREVIEWVID:;
#JACKET:entelecheia-jacket.png;
#CDIMAGE:;
#DISCIMAGE:;
#LYRICSPATH:;
#CDTITLE:;
#MUSIC:entelecheia.mp3;
#OFFSET:-6.225001;
#SAMPLESTART:21.793568;
#SAMPLELENGTH:10.378380;
#SELECTABLE:YES;
#BPMS:0.000=185.000;
#STOPS:;
#DELAYS:;
#WARPS:;
#TIMESIGNATURES:0.000=4=4;
#TICKCOUNTS:0.000=4;
#COMBOS:0.000=1;
#SPEEDS:0.000=1.000=0.000=0;
#SCROLLS:0.000=1.000;
#FAKES:;
#LABELS:0.000=Song Start;
#BGCHANGES:;
#KEYSOUNDS:;
#ATTACKS:
;

//---------------dance-single - ----------------
#NOTEDATA:;
#CHARTNAME:;
#STEPSTYPE:dance-single;
#DESCRIPTION:;
#CHARTSTYLE:;
#DIFFICULTY:Hard;
#METER:9;
#RADARVALUES:0.546481,0.926917,0.321010,0.419097,0.222924,429.000000,393.000000,36.000000,47.000000,0.000000,0.000000,0.000000,0.000000,0.000000,0.546481,0.926917,0.321010,0.419097,0.222924,429.000000,393.000000,36.000000,47.000000,0.000000,0.000000,0.000000,0.000000,0.000000;
#CREDIT:;
#NOTES:
// measure 0
0002
0000
0000
0000
,  // measure 1
0200
0000
0000
0003
,  // measure 2
2000
0000
0000
0300
,  // measure 3
0020
0000
0000
3000
,  // measure 4
0031
0000
1000
0010
1000
0000
0001
0000
,  // measure 5
1000
0100
1000
0000
0001
0000
1000
0001
,  // measure 6
1000
0000
0001
1000
0000
0001
1000
0000
,  // measure 7
1000
0001
0000
1000
0001
0000
1001
0000
,  // measure 8
1000
0000
0001
0010
0001
0000
1000
0000
,  // measure 9
0001
0100
0001
0000
1000
0000
0001
1000
,  // measure 10
0001
0000
1000
0010
0100
0001
0100
0010
,  // measure 11
1000
0000
0001
0000
0010
0000
0100
0000
1000
0000
0001
0000
0100
0010
0100
0001
,  // measure 12
1000
0000
0001
0100
1000
0000
0100
0000
,  // measure 13
0001
0010
0001
1000
0001
0000
0000
0000
,  // measure 14
1000
0100
0001
0100
0010
0001
0100
0001
,  // measure 15
1000
0100
1000
0001
0100
0000
0000
0000
,  // measure 16
0001
0000
1000
0001
0010
0000
0100
1000
,  // measure 17
0010
0000
0100
0001
0010
0000
0100
1000
,  // measure 18
0001
0000
1000
0001
0010
0000
0100
1000
,  // measure 19
0010
0010
0100
0100
,  // measure 20
0001
1000
0100
1000
0010
0100
0001
0100
,  // measure 21
0010
1000
0100
1000
0010
0100
0001
0010
,  // measure 22
0001
0010
0100
1000
0100
1000
0010
0100
,  // measure 23
0001
0010
0100
0010
0001
1000
0100
0010
,  // measure 24
0002
0023
0032
0203
,  // measure 25
0302
2003
3200
2300
,  // measure 26
3020
2030
3200
2300
,  // measure 27
3010
0000
0100
0000
0010
0000
0000
0000
0100
0000
0001
1000
0001
1000
0001
1000
,  // measure 28
0001
0000
1000
0010
0000
0100
0001
0000
,  // measure 29
1000
0010
0000
0100
0001
0001
1000
0001
,  // measure 30
1000
0000
0001
0010
0000
0100
1000
0000
,  // measure 31
0001
0010
0000
0001
0010
0010
0001
0100
,  // measure 32
0010
0000
1000
0010
0000
0100
0001
0000
,  // measure 33
1000
0010
0000
0100
0010
0010
1000
0001
,  // measure 34
1000
0000
0100
1000
0000
0100
0010
0000
,  // measure 35
0010
0001
0000
1000
0001
0001
0010
0100
,  // measure 36
1000
0001
0020
0000
0130
1000
0002
0000
,  // measure 37
0103
0010
2000
0000
3010
1000
0200
0000
,  // measure 38
0310
0100
2000
0000
3100
0010
0002
0000
,  // measure 39
0103
0001
0020
0000
0130
0010
0002
0000
,  // measure 40
1003
0100
0002
0000
0103
1000
0020
0000
,  // measure 41
0130
0010
2000
0000
3001
0010
0200
0000
,  // measure 42
0310
0100
2000
0000
3001
0010
2000
0000
,  // measure 43
3010
0001
0200
0000
0310
1000
0002
0000
,  // measure 44
1003
0000
0100
0000
0001
0000
0001
0100
,  // measure 45
1000
0100
0020
0000
,  // measure 46
0130
1000
0010
0001
,  // measure 47
0010
0100
0002
0000
,  // measure 48
1003
0000
0010
0000
0001
0000
0001
0010
,  // measure 49
1000
0010
0200
0000
,  // measure 50
1300
0100
0001
0100
,  // measure 51
0010
1000
0002
0000
,  // measure 52
1003
0000
0001
0000
0000
0100
0000
0000
0010
1000
0000
0010
0000
0000
0100
0000
,  // measure 53
0000
0000
0001
0000
0000
1000
0000
0000
0100
1000
0000
0010
0000
0000
0100
0000
,  // measure 54
0000
0000
0001
0000
0000
1000
0000
0000
0100
1000
0000
0010
0000
0000
0100
0000
,  // measure 55
0000
0000
0001
0000
0000
0100
0000
0000
0001
1000
0000
0100
0000
0000
0010
0000
,  // measure 56
0000
0000
0100
0000
0000
0010
0000
0000
0001
1000
0000
0010
0000
0000
0100
0000
,  // measure 57
0000
0000
0010
0000
0000
1000
0000
0000
0001
0010
0000
0100
0000
0000
0010
0000
,  // measure 58
0000
0000
0100
0000
0000
0010
0000
0000
0001
0010
0000
0001
0000
0000
0100
0000
,  // measure 59
0010
0000
1000
0000
0001
0000
0000
0000
0100
0000
0010
0000
1000
0001
1000
0001
,  // measure 60
1000
0000
1100
0000
0000
0110
0000
0000
0011
0000
0000
0110
0000
0000
1100
0000
,  // measure 61
0000
0000
1100
0000
0000
0110
0000
0000
0011
0000
0000
0110
0000
0000
1100
0000
,  // measure 62
0000
0000
1100
0000
0000
0110
0000
0000
0011
0000
0000
0110
0000
0000
1100
0000
,  // measure 63
0000
0000
1010
0000
0000
0101
0000
0000
1001
0000
0000
1100
0000
0000
0110
0000
,  // measure 64
0000
0000
0011
0000
0000
0110
0000
0000
1100
0000
0000
0110
0000
0000
0011
0000
,  // measure 65
0000
0000
0011
0000
0000
0110
0000
0000
1100
0000
0000
0110
0000
0000
0011
0000
,  // measure 66
0000
0000
1100
0000
0000
0110
0000
0000
0011
0000
0000
0110
0000
0000
0011
0000
,  // measure 67
0001
1000
0001
1000
0001
1000
0001
1000
0001
1000
0001
1000
0001
1000
0001
1000
,  // measure 68
0200
0000
0000
0000
,  // measure 69
0020
0300
0002
0030
,  // measure 70
0200
0003
2000
0300
,  // measure 71
0020
3000
0002
0030
,  // measure 72
2000
0003
0002
3000
,  // measure 73
0200
0003
0020
0000
,  // measure 74
0000
0000
0000
0000
,  // measure 75
0000
0000
0000
0000
,  // measure 76
0000
0000
0000
0000
,  // measure 77
0330
0000
0000
0000
;

//---------------dance-single - ----------------
#NOTEDATA:;
#CHARTNAME:;
#STEPSTYPE:dance-single;
#DESCRIPTION:;
#CHARTSTYLE:;
#DIFFICULTY:Easy;
#METER:4;
#RADARVALUES:0.323558,0.343302,0.053502,0.205090,0.000000,254.000000,248.000000,6.000000,23.000000,0.000000,0.000000,0.000000,0.000000,0.000000,0.323558,0.343302,0.053502,0.205090,0.000000,254.000000,248.000000,6.000000,23.000000,0.000000,0.000000,0.000000,0.000000,0.000000;
#CREDIT:;
#NOTES:
2000
0000
0000
0000
,
3200
0000
0000
0000
,
0320
0000
0000
0000
,
0230
0000
0000
0000
,
1300
0001
1000
0010
,
0100
0010
1000
0010
,
1000
0001
0100
0001
,
0100
0001
0100
0001
,
0010
0100
0010
0100
,
1000
0100
1000
0001
,
1000
0001
1000
0010
,
0100
0001
1000
0010
,
0100
0001
0010
0001
,
1001
0000
0001
0000
,
1000
0100
1000
0010
,
0110
0000
0000
0000
,
1001
0000
1000
0000
,
1001
0000
0001
0000
,
1000
0000
0001
0000
,
0010
0010
0100
0100
,
1000
0100
1000
0010
,
0200
0000
0000
0300
,
0010
0100
0001
0010
,
0002
0000
0000
0003
,
0001
0010
0100
0010
,
0001
1000
0100
0010
,
0100
1000
0010
0100
,
0002
0000
2000
3003
,
1001
0001
0100
0001
,
0100
0010
1000
1000
,
0010
0100
0001
1000
,
0100
0010
0001
0001
,
0010
0001
0100
0010
,
1000
0001
0100
0100
,
0001
0010
0001
1000
,
0100
1000
0010
0010
,
1000
0100
1000
0010
,
1000
0100
1000
0010
,
1000
0100
1000
0010
,
1000
0100
1000
0001
,
0001
0100
0001
0010
,
0001
0100
0001
0010
,
0001
0100
0001
0010
,
0001
0100
0001
0010
,
0001
0010
0100
0010
,
0001
1000
0200
0300
,
1000
0100
0001
0100
,
1000
0001
2000
3000
,
0001
0010
0001
0100
,
0010
0100
0002
0003
,
1000
0100
1000
0010
,
0100
0001
2000
3000
,
0001
1000
0100
0100
,
1000
0010
0100
0100
,
0010
1000
0100
0100
,
1000
0010
0100
0001
,
1000
0001
0010
0010
,
0001
0100
0010
0010
,
0100
0001
0010
0010
,
0100
0010
0001
1000
,
0001
0100
0010
1000
,
0010
0100
0001
1000
,
0100
1000
0010
0100
,
0001
0010
0001
1000
,
0100
1000
0010
0100
,
0001
1000
0100
1000
,
0010
0100
0001
0010
,
0001
0100
0010
1000
,
1002
0000
0000
0000
,
2003
0000
3200
0000
,
2300
0000
3002
0000
,
0203
0000
0320
0000
,
2030
0000
3002
0000
,
0203
0000
0020
0000
,
0000
0000
0000
0000
,
0000
0000
0000
0000
,
0000
0000
0000
0000
,
0330
0000
0000
0000
;

//---------------dance-single - ----------------
#NOTEDATA:;
#CHARTNAME:;
#STEPSTYPE:dance-single;
#DESCRIPTION:;
#CHARTSTYLE:;
#DIFFICULTY:Medium;
#METER:7;
#RADARVALUES:0.457312,0.617944,0.526100,0.169422,0.142671,359.000000,300.000000,59.000000,19.000000,0.000000,0.000000,0.000000,0.000000,0.000000,0.457312,0.617944,0.526100,0.169422,0.142671,359.000000,300.000000,59.000000,19.000000,0.000000,0.000000,0.000000,0.000000,0.000000;
#CREDIT:;
#NOTES:
2000
0000
0000
0000
,
3020
0000
0000
0000
,
0230
0000
0000
0000
,
0302
0000
0000
0000
,
1003
0001
0010
0001
,
0100
0010
1000
0100
,
1000
0010
0100
0001
,
0100
0001
0100
0001
,
0001
0010
0001
0100
,
0010
1000
0100
1000
,
0010
0100
0001
1000
,
0010
0000
0100
0000
0001
0000
0010
0001
,
1001
0000
1000
0001
0010
0000
0100
0000
,
0110
0000
0100
0000
,
1000
0000
0100
1000
0010
0000
0100
0000
,
0101
0000
0001
0000
,
0010
0000
0001
0100
0001
0000
0100
0000
,
0010
0000
1000
0100
1000
0000
0100
0000
,
1000
0000
0001
1000
0010
0000
0010
0100
,
0001
0001
0100
0100
,
0110
0100
0101
0001
,
1001
1000
0100
1000
,
1010
1000
1010
0101
,
1010
1000
0001
0010
,
0011
0110
1100
1001
,
1100
0110
0011
1001
,
1010
1001
0011
1001
,
1000
0001
1000
0000
0001
0010
0100
1000
,
0001
0000
1000
0010
0000
1000
0010
0000
,
1000
0010
0000
1000
0010
0000
1010
0000
,
1001
0000
0001
0010
0000
0001
0010
0000
,
0001
0010
0000
0001
0010
0000
0011
0000
,
1001
0000
0001
0100
0000
0001
0100
0000
,
0001
0100
0000
0001
0100
0000
0001
0000
,
1001
0000
1000
0100
0000
1000
0100
0000
,
1000
0100
0000
1000
0100
0000
1000
0000
,
1001
1010
1001
0011
,
1001
1010
1001
0011
,
1001
1010
1001
0011
,
1001
1010
1001
0011
,
1001
1100
1001
0101
,
1001
1100
1001
0101
,
1001
1100
1001
0101
,
1001
1100
1001
0101
,
0001
0000
0010
0000
0001
0000
1000
0100
,
0010
0100
2000
0000
,
3100
1000
0010
0100
,
0001
1000
0002
0000
,
1003
0000
0001
0000
0010
0000
0100
0010
,
0001
1000
0002
0000
,
0103
0001
0010
0001
,
1000
0100
2000
0000
,
3100
0000
1000
0000
0000
1000
0000
0000
0100
0000
0000
0100
0000
0000
0010
0000
,
0000
0000
0001
0000
0000
0001
0000
0000
0010
0000
0000
0010
0000
0000
0100
0000
,
0000
0000
1000
0000
0000
1000
0000
0000
0100
0000
0000
0100
0000
0000
0010
0000
,
0000
0000
0100
0000
0000
0010
0000
0000
0001
0000
0000
1000
0000
0000
0001
0000
,
0000
0000
1000
0000
0000
1000
0000
0000
0100
0000
0000
0100
0000
0000
0010
0000
,
0000
0000
0001
0000
0000
0001
0000
0000
0010
0000
0000
0010
0000
0000
0100
0000
,
0000
0000
0010
0000
0000
0010
0000
0000
0100
0000
0000
0100
0000
0000
1000
0000
,
0000
0000
0100
0000
0000
1000
0000
0000
0010
0000
0000
0100
0000
0000
0001
0000
,
0000
0000
1000
0000
0000
0001
0000
0000
0100
0000
0000
0001
0000
0000
0010
0000
,
0000
0000
0100
0000
0000
1000
0000
0000
0010
0000
0000
0100
0000
0000
0001
0000
,
0000
0000
1000
0000
0000
0100
0000
0000
1000
0000
0000
0010
0000
0000
0100
0000
,
0000
0000
0001
0000
0000
0001
0000
0000
1000
0000
0000
1000
0000
0000
0010
0000
,
0000
0000
1000
0000
0000
0100
0000
0000
0010
0000
0000
0001
0000
0000
1000
0000
,
0000
0000
0001
0000
0000
0010
0000
0000
0100
0000
0000
1000
0000
0000
0001
0000
,
0000
0000
1000
0000
0000
0010
0000
0000
0100
0000
0000
0001
0000
0000
1000
0000
,
0000
0000
0001
0000
0000
0100
0000
0000
0010
0000
0000
1000
0000
0000
0001
0000
,
0200
0000
0000
0000
,
0320
0000
2030
0000
,
3002
0000
0023
0000
,
0230
0000
0320
0000
,
0032
0000
2003
0000
,
3020
0000
0200
0000
,
0000
0000
0000
0000
,
0000
0000
0000
0000
,
0000
0000
0000
0000
,
0330
0000
0000
0000
;

//---------------dance-single - ----------------
#NOTEDATA:;
#CHARTNAME:;
#STEPSTYPE:dance-single;
#DESCRIPTION:;
#CHARTSTYLE:;
#DIFFICULTY:Beginner;
#METER:2;
#RADARVALUES:0.159231,0.240312,0.098086,0.026751,0.000000,125.000000,114.000000,11.000000,3.000000,0.000000,0.000000,0.000000,0.000000,0.000000,0.159231,0.240312,0.098086,0.026751,0.000000,125.000000,114.000000,11.000000,3.000000,0.000000,0.000000,0.000000,0.000000,0.000000;
#CREDIT:;
#NOTES:
1000
0000
0000
0000
,
0100
0000
0000
0000
,
0010
0000
0000
0000
,
0001
0000
0000
0000
,
2002
0000
0000
0000
,
0000
0000
0000
0000
,
0000
0000
0000
0000
,
0000
0000
0000
3003
,
1000
0000
0000
1000
,
0000
0000
0010
0000
,
0000
0100
0000
0000
,
0010
0000
0000
0100
,
1001
0000
0001
0000
,
0100
0000
0000
0000
,
0010
0000
1000
0000
,
0001
0000
0000
0000
,
1000
0000
0001
0000
,
1000
0000
0100
0000
,
1000
0000
0010
0000
,
0100
0100
0010
0010
,
1000
0000
0001
0000
,
0100
0000
0000
0000
,
0010
0000
0100
0100
,
0100
0000
0000
0000
,
0010
0000
0100
0000
,
0001
0000
1000
0000
,
0001
0000
1000
0000
,
0010
0000
0000
0000
,
0100
0000
0000
0000
,
0010
0000
1000
1000
,
0000
0001
0000
0000
,
1000
0000
0010
0010
,
0000
0100
0000
0000
,
0001
0000
0010
0010
,
0000
0001
0000
0000
,
1000
0000
0010
0010
,
0000
1000
0000
0001
,
0000
0100
0000
0001
,
0000
1000
0000
0100
,
0000
1000
0000
0001
,
0000
1000
0000
0010
,
0000
0100
0000
0010
,
0000
1000
0000
0001
,
0000
0010
0000
0001
,
1000
0000
0000
0000
,
0001
0000
0000
0000
,
0100
0000
0000
0000
,
0010
0000
0000
0000
,
1000
0000
0000
0000
,
0100
0000
0000
0000
,
1000
0000
0000
0000
,
0001
0000
0000
0000
,
1001
0000
0000
0000
,
1001
0000
0000
0000
,
1001
0000
0000
0000
,
1001
0000
0000
0000
,
0110
0000
0000
0000
,
0110
0000
0000
0000
,
0110
0000
0000
0000
,
0110
0000
0010
0000
,
1000
0000
0001
0000
,
0100
0000
0001
0000
,
1000
0000
0100
0000
,
1000
0000
0001
0000
,
1000
0000
0010
0000
,
1000
0000
0001
0000
,
0010
0000
0001
0000
,
1000
0000
0001
0000
,
1001
0000
0000
0000
,
0001
0000
0000
0000
,
0100
0000
0000
0000
,
0010
0000
0000
0000
,
1000
0000
0001
0000
,
1000
0000
0200
0000
,
0000
0000
0000
0000
,
0000
0000
0000
0000
,
0000
0000
0000
0000
,
0300
0000
0000
0000
;

//---------------dance-single - ----------------
#NOTEDATA:;
#CHARTNAME:;
#STEPSTYPE:dance-single;
#DESCRIPTION:;
#CHARTSTYLE:;
#DIFFICULTY:Challenge;
#METER:11;
#RADARVALUES:0.793608,1.132898,0.017834,0.383429,0.811442,623.000000,621.000000,2.000000,43.000000,0.000000,0.000000,0.000000,0.000000,0.000000,0.793608,1.132898,0.017834,0.383429,0.811442,623.000000,621.000000,2.000000,43.000000,0.000000,0.000000,0.000000,0.000000,0.000000;
#CREDIT:;
#NOTES:
// measure 0
2000
0000
0000
0000
,  // measure 1
0200
0000
0000
3000
,  // measure 2
0020
0000
0000
0300
,  // measure 3
0002
0000
0000
0030
,  // measure 4
1003
1000
0010
0100
0001
0000
0010
0010
,  // measure 5
0100
1000
0001
0000
1000
1000
0001
0010
,  // measure 6
0010
0000
0100
0100
1000
0010
0010
0100
,  // measure 7
0001
0001
0010
0100
0100
1000
0010
0010
,  // measure 8
0100
0100
0001
1000
1000
0000
0001
0001
,  // measure 9
0010
0100
0100
0000
0010
0010
0001
1000
,  // measure 10
0001
0001
0001
1000
1000
1000
0010
0010
,  // measure 11
0010
0000
0100
0000
0100
0000
0100
0000
0010
0000
1000
0000
0001
0100
0010
1000
,  // measure 12
0100
1000
0010
0100
0001
0000
0100
0000
,  // measure 13
1000
0100
0010
1000
0001
0000
0000
0000
,  // measure 14
0001
0010
1000
0010
0100
0010
0001
1000
,  // measure 15
0010
0001
0010
0100
0001
0000
0000
0000
,  // measure 16
1000
0000
0000
0000
0000
0000
0010
0000
0000
0000
0000
0000
0100
0000
0000
0000
0001
0000
0000
0000
0010
0000
0000
0000
0001
0000
0000
0010
0000
0000
0100
0000
0000
1000
0000
0000
0001
0000
0000
0000
0000
0000
0000
0000
0000
0000
0000
0000
,  // measure 17
1000
0000
0000
0000
0000
0000
0010
0000
0000
0000
0000
0000
0100
0000
0000
0000
0001
0000
0000
0000
1000
0000
0000
0000
0100
0000
0000
0010
0000
0000
0001
0000
0000
1000
0000
0000
0010
0000
0000
0000
0000
0000
0000
0000
0000
0000
0000
0000
,  // measure 18
0100
0000
0001
0000
0010
0100
1000
0010
0100
0000
0001
0000
0010
0000
0001
0000
,  // measure 19
1000
0100
0010
0001
,  // measure 20
1000
0001
1000
0001
0100
0010
0100
0010
1000
0001
1000
0100
1000
0010
1000
0001
,  // measure 21
0100
0001
0100
0010
1000
0010
1000
0100
0010
0001
0010
0100
0010
0001
0010
0001
,  // measure 22
1000
0001
0100
0001
1000
0010
0100
0010
1000
0001
0010
0001
0100
0010
1000
0010
,  // measure 23
0100
0001
0010
0100
0010
0001
0100
0010
1000
0001
0010
0001
0100
0010
1000
0100
,  // measure 24
0020
0000
0000
0031
0200
0000
0000
0310
2000
0000
0000
3100
0020
0000
0000
0031
,  // measure 25
0200
0000
0000
0310
2000
0000
0000
3100
0020
0000
0000
0130
2000
0000
0000
3010
,  // measure 26
0002
0000
0000
0103
0020
0000
0000
1030
0020
0000
0000
0130
0002
0000
0000
0013
,  // measure 27
0100
0000
1000
0000
0001
0000
0000
0000
1000
0000
0001
0100
0010
1000
0100
0010
,  // measure 28
0001
0001
0010
0001
0001
0010
0001
0001
,  // measure 29
0010
0001
0001
0010
0001
0001
1000
1000
,  // measure 30
0010
0010
0100
0001
0001
0100
0010
0010
,  // measure 31
0100
0001
0001
0100
0010
0010
1000
1000
,  // measure 32
0100
0100
0010
0100
0100
1000
0100
0100
,  // measure 33
0010
0100
0100
1000
0001
0001
0100
0100
,  // measure 34
0010
0010
0100
0001
0001
0100
0010
0010
,  // measure 35
0100
0001
0001
0100
0010
0010
1000
1000
,  // measure 36
0001
0000
1000
0000
0100
0010
0001
1000
0010
0000
0100
0000
0001
0010
0100
1000
,  // measure 37
0001
0000
0100
0000
0010
1000
0100
0010
0001
0000
1000
0000
0001
0010
0100
1000
,  // measure 38
0001
0000
0010
0000
0100
0010
0001
1000
0010
0000
0100
0000
0001
0100
0010
1000
,  // measure 39
0100
0000
0010
0000
0100
1000
0010
0100
0001
0000
0010
0000
0100
0010
0001
1000
,  // measure 40
0001
0000
0010
0000
0100
1000
0010
0100
0001
0000
0010
0000
1000
0010
0100
1000
,  // measure 41
0010
0000
0100
0000
0001
0010
0001
1000
0100
0000
0001
0000
0100
0010
0001
1000
,  // measure 42
0010
0000
0100
0000
0001
0010
0001
0100
0010
0000
1000
0000
0010
0001
0010
0100
,  // measure 43
0001
0000
1000
0000
0001
0010
0100
1000
0001
0000
0100
0010
1000
0000
0001
1000
,  // measure 44
0200
0000
0320
0000
0032
0000
0013
0100
,  // measure 45
2000
3020
0200
0330
,  // measure 46
0020
2030
3002
0023
,  // measure 47
0230
0320
0002
0033
,  // measure 48
1100
0000
0000
0000
1000
0001
0100
0001
0010
0000
0000
0100
1000
0000
0010
0000
,  // measure 49
0100
0000
0000
0000
0010
0100
0001
1000
0100
0000
0000
0010
0100
0000
1000
0000
,  // measure 50
0001
0000
0000
0000
1000
0100
1000
0001
0100
0000
0000
0010
1000
0000
0010
0000
,  // measure 51
0200
0000
0302
0000
2000
0000
0000
3003
,  // measure 52
1001
0000
0001
0100
0000
0100
0010
0000
0010
1000
0000
1000
0100
0000
0010
0000
,  // measure 53
0000
0000
0001
0010
0000
0100
1000
0000
1000
0010
0000
0010
0100
0000
0001
0000
,  // measure 54
0000
0000
1000
0010
0000
0010
0100
0000
0100
0001
0000
0001
1000
0000
0100
0000
,  // measure 55
0000
0000
0010
0001
0000
0100
1000
0000
0001
1000
0000
0010
0100
0000
0001
0000
,  // measure 56
1000
0000
0100
0010
0000
0010
0001
0000
0001
0100
0000
0100
0010
0000
0100
0000
,  // measure 57
0000
0000
0001
0100
0000
0010
1000
0000
1000
0001
0000
0001
0010
0000
0100
0000
,  // measure 58
0000
0000
0010
0100
0000
0100
1000
0000
1000
0001
0000
0001
0100
0000
0010
0000
,  // measure 59
1000
0000
0001
0000
0010
0000
0000
0000
0100
0000
1000
0001
1000
0001
1000
0001
,  // measure 60
1000
0000
0001
0100
0010
1000
0100
0010
0100
1000
0010
0100
0001
0010
0100
0000
,  // measure 61
0000
0000
0010
0001
0100
0010
1000
0001
0010
0001
0100
0010
1000
0100
1000
0000
,  // measure 62
0000
0000
0010
0001
0100
0010
1000
0100
0010
0001
0010
0001
0100
0001
1000
0000
,  // measure 63
0000
0000
0001
0100
0010
1000
0001
0100
0001
0010
0001
1000
0100
0010
0001
0000
,  // measure 64
0000
0000
1000
0001
0010
0001
0100
0010
1000
0100
1000
0010
0100
0001
1000
0000
,  // measure 65
0000
0000
0001
0010
0001
1000
0010
1000
0100
1000
0010
0100
0001
0010
0100
0000
,  // measure 66
0000
0000
0010
0001
0100
0010
1000
0001
0010
0100
0010
0001
1000
0010
0100
0001
,  // measure 67
0010
0100
0010
0100
0010
0100
0010
0100
0010
0100
0010
0100
0010
0100
0010
0100
,  // measure 68
2000
0000
0000
0000
,  // measure 69
0200
3000
0002
0300
,  // measure 70
0020
0003
2000
0030
,  // measure 71
0002
3000
0200
0003
,  // measure 72
0002
0300
0200
0003
,  // measure 73
2000
0300
0020
0000
,  // measure 74
0000
0000
0000
0000
,  // measure 75
0000
0000
0000
0000
,  // measure 76
0000
0000
0000
0000
,  // measure 77
3030
0000
0000
0000
;
