#TITLE:drop pop candy;
#SUBTITLE:;
#ARTIST:GigaP x Reol;
#TITLETRANSLIT:;
#SUBTITLETRANSLIT:;
#ARTISTTRANSLIT:;
#GENRE:;
#CREDIT:;
#BANNER:drop pop candy.png;
#BACKGROUND:drop pop candy-bg.png;
#LYRICSPATH:;
#CDTITLE:CDtitle.png;
#MUSIC:drop pop candy.ogg;
#OFFSET:1.802000;
#SAMPLESTART:51.736462;
#SAMPLELENGTH:14.769226;
#LASTBEATHINT:1.694334;
#SELECTABLE:YES;
#BPMS:0.000000=130.000000
;
#STOPS:
;
#BGCHANGES:;
#KEYSOUNDS:;
#ATTACKS:;

//---------------dance-single - ----------------
#NOTES:
     dance-single:
     :
     Hard:
     7:
     0.388463,0.490109,0.124472,0.067023,0.043087,284.000000,271.000000,13.000000,7.000000,0.000000,0.000000,0.388463,0.490109,0.124472,0.067023,0.043087,284.000000,271.000000,13.000000,7.000000,0.000000,0.000000:
0000
0000
0000
0000
,
0000
0000
0000
0000
,
0000
0000
0000
0000
,
0000
0000
0000
0000
,
0000
0000
0000
0000
,
0001
0000
0000
1000
0100
0000
0000
1000
,
0001
0000
0000
0010
0000
0100
0010
0001
,
1000
0000
0000
0001
0010
0000
0000
0001
,
1000
0000
0000
0100
0000
0010
0100
1000
,
0010
1001
0001
0010
,
0001
1000
0100
1000
,
0001
0000
0100
0001
0100
0000
0010
0000
,
1000
0010
0000
0100
0000
0010
1000
0000
,
0001
1001
0001
1000
,
0010
0100
0001
1000
,
0001
0000
1000
0010
0100
0100
0000
0010
,
0000
0100
0000
0010
2000
0000
3200
0000
,
0310
1100
1000
0010
,
0100
0010
1000
0001
0000
0001
1000
0010
,
0100
0001
0010
0100
,
1000
0100
0010
0001
0000
0001
0010
0100
,
1000
0011
0010
0001
,
1000
0001
0100
0001
0000
0001
0100
0010
,
1000
0000
0000
0000
0010
0000
0000
0000
0100
0000
0000
0010
0000
0000
1000
0000
,
0010
1000
0001
0100
0000
0010
0100
0010
,
0100
0001
1000
0001
1000
0010
1000
0010
,
1000
0001
0100
0001
0100
0001
0010
0001
,
0010
0100
1000
0100
1000
0001
0100
0010
,
0110
1001
0110
1001
,
0001
0000
1000
0000
0010
1000
0000
1000
,
0010
0100
0001
0010
,
0100
0000
0010
0001
1000
1000
0000
0001
,
0100
0000
0000
0001
0100
0100
0100
0000
,
0010
0000
1000
0000
0100
1000
0000
1000
,
0001
0100
0010
0100
,
0001
0000
1000
0001
0100
0100
0000
0010
,
1000
0000
0000
0010
1000
1000
0001
1000
,
0000
0000
0001
0000
0010
0000
0100
0000
1000
0000
0000
1000
0000
0000
1000
0000
,
0000
0000
1000
0000
0100
0000
0010
0000
0001
0000
0000
0001
0000
0000
0001
0000
,
0000
0000
0001
0000
0010
0000
0100
0000
1000
0000
0000
1000
0000
0000
1000
0000
,
0000
0100
1000
0010
0000
0100
0001
0010
,
0000
0000
0100
0000
0010
0000
0001
0000
1000
0000
0000
1000
0000
0000
1000
0000
,
0000
0000
1000
0000
0010
0000
0100
0000
0001
0000
0000
0001
0000
0000
0001
0000
,
0000
0000
0001
0000
0100
0000
0010
0000
1000
0000
0000
1000
0000
0000
1000
0000
,
0000
0010
0100
0001
1000
0001
1000
0001
,
0000
0202
0000
0000
0000
0000
0000
0303
,
0000
0001
0100
0100
0010
0000
0100
0010
,
0000
2002
0000
0000
0000
0000
3003
0001
,
0100
0100
0010
0000
1002
0000
0000
0000
,
0013
1100
1000
0010
,
1000
0001
0000
0001
0000
0000
0010
0100
,
1000
0000
0010
0000
0000
0000
0000
0000
0010
0000
0000
0010
0000
0000
0010
0000
,
1000
0100
0000
1000
0000
0010
0100
0100
,
0001
0000
1001
0000
1000
0001
0000
0000
,
0001
0100
0000
0010
0000
0100
0001
0001
,
1000
0000
0100
0000
0000
0000
0000
0000
0100
0000
0000
0100
0000
0000
0100
0000
,
1000
0001
0000
0100
0000
0010
0010
0010
;

//---------------dance-single - ----------------
#NOTES:
     dance-single:
     :
     Medium:
     5:
     0.303657,0.408424,0.181921,0.028724,0.000000,222.000000,203.000000,19.000000,3.000000,0.000000,0.000000,0.303657,0.408424,0.181921,0.028724,0.000000,222.000000,203.000000,19.000000,3.000000,0.000000,0.000000:
0000
0000
0000
0000
,
0000
0000
0000
0000
,
0000
0000
0000
0000
,
0000
0000
0000
0000
,
0000
0000
0000
0000
,
1000
0000
0001
0000
,
0100
0000
0000
0010
0000
0000
1000
0000
,
0001
0000
1000
0000
,
0100
0000
0000
1000
0000
0000
0010
0000
,
0100
0001
0010
0001
,
1000
0100
1000
0010
,
0100
0000
0001
1000
0010
0000
1000
0001
,
0100
0001
0000
0010
0000
0100
1000
0000
,
0100
1000
0010
0100
,
0001
0010
0001
1000
,
0001
0000
1000
0010
0100
0001
0000
0100
,
0000
0010
0000
0100
0010
0000
1000
0000
,
0001
0001
1000
1000
,
0001
0100
0001
0100
0000
0000
0000
0000
,
0010
0010
1000
1000
,
0100
0010
0100
0010
0000
0000
0000
0000
,
0100
0100
1000
1000
,
0001
0010
0001
0010
0000
0000
0001
0000
,
0100
0001
0010
0001
,
1000
0100
1000
0001
,
1001
1000
1001
0010
,
0110
0100
0110
0010
,
1001
0100
1001
0010
,
1001
0110
1001
0110
,
1000
0000
0010
0000
0100
0001
0000
0001
,
0100
0010
1000
0100
,
0010
0000
0100
1000
0001
1000
0000
0001
,
0100
0000
0000
0001
0100
0010
0100
0000
,
0010
0000
1000
0000
0010
1000
0000
1000
,
0100
0010
0100
1000
,
0001
0000
1000
0001
0100
0001
0000
0001
,
0010
0000
0000
0010
0001
0100
0010
0000
,
1010
1000
0001
0010
,
0011
0001
1000
0010
,
1010
1000
0001
0010
,
0011
0000
0001
0100
0000
0100
0001
0100
,
0101
0001
1000
0100
,
1100
1000
0001
0100
,
0101
0001
1000
1000
,
1100
1000
0100
0010
,
0000
0200
0000
0000
0000
0000
0000
0300
,
0000
0000
0010
0000
0001
0000
1000
0001
,
0000
0200
0000
0000
0000
0000
0300
0010
,
1000
0010
0100
0000
2001
0000
0000
0000
,
3001
0000
1000
0000
,
0010
0000
0000
1000
0000
0000
0100
0000
,
1000
0000
0001
0000
,
0100
0000
0000
0001
0000
0000
0010
0000
,
0001
0000
1000
0000
,
0100
0000
0000
1000
0000
0000
0010
0000
,
0100
0000
0010
0000
,
1000
0000
0000
0001
0000
1000
0001
1000
;

//---------------dance-single - ----------------
#NOTES:
     dance-single:
     :
     Easy:
     3:
     0.203806,0.271684,0.047874,0.019150,0.000000,149.000000,144.000000,5.000000,2.000000,0.000000,0.000000,0.203806,0.271684,0.047874,0.019150,0.000000,149.000000,144.000000,5.000000,2.000000,0.000000,0.000000:
0000
0000
0000
0000
,
0000
0000
0000
0000
,
0000
0000
0000
0000
,
0000
0000
0000
0000
,
0000
0000
0000
0000
,
1000
0000
0001
0000
,
1000
0000
0000
0000
,
0010
0000
0100
0000
,
0010
0000
0000
0000
,
1000
0001
0000
1000
,
0000
0010
0000
1000
,
0000
0100
0100
1000
,
0001
0000
0100
0000
,
0010
0010
0000
0100
,
0000
0010
0000
1000
,
0001
1000
0100
0000
,
1000
0000
0001
0000
,
1000
0010
0100
0001
,
1000
1000
1000
0001
,
1000
0001
0010
0100
,
1000
1000
1000
0100
,
1000
0010
0100
0001
,
0010
0010
0010
0001
,
1000
0100
1000
0001
,
0100
0010
1000
0001
,
1001
0000
0000
1000
,
1001
0000
0000
0010
,
1001
0000
0000
0100
,
0010
0010
0010
0010
,
1000
0001
0010
0000
,
0001
1000
0100
0010
,
0001
1000
1000
0000
,
0100
0000
0100
0100
,
1000
0001
0100
0000
,
0001
1000
0010
1000
,
0100
1000
1000
0000
,
0001
0000
1000
0001
,
0100
0001
0010
0000
,
0001
1000
0100
0000
,
1000
0001
0100
0000
,
0010
0000
1000
0000
,
0001
1000
0100
0000
,
1000
0001
0010
0000
,
0100
0010
0001
0000
,
1000
0001
0100
0010
,
2000
0000
0000
3000
,
0000
0001
1000
0001
,
0100
0020
0000
0000
,
0130
0100
1001
0000
,
0000
1000
0000
0001
,
0000
0100
0000
0010
,
0000
1000
0000
0010
,
0000
0100
0000
0001
,
1000
0100
0000
1000
,
0000
0010
0000
0100
,
0000
0001
0000
1000
,
0000
0001
0000
0110
;

//---------------dance-single - ----------------
#NOTES:
     dance-single:
     :
     Beginner:
     1:
     0.095748,0.217348,0.019150,0.000000,0.000000,70.000000,68.000000,2.000000,0.000000,0.000000,0.000000,0.095748,0.217348,0.019150,0.000000,0.000000,70.000000,68.000000,2.000000,0.000000,0.000000,0.000000:
0000
0000
0000
0000
,
0000
0000
0000
0000
,
0000
0000
0000
0000
,
0000
0000
0000
0000
,
0000
0000
0000
0000
,
1000
0000
0000
0000
,
1000
0000
0000
0000
,
0001
0000
0000
0000
,
0001
0000
0000
0000
,
0000
0010
0000
0000
,
0000
0000
0000
0000
,
0000
0100
0000
0000
,
0000
0000
0000
0000
,
0000
0001
0000
0000
,
0000
0000
0000
0000
,
1000
0000
0000
0000
,
0001
0000
0000
0000
,
0100
0000
0000
0000
,
0000
0000
0000
0010
,
0010
0000
0000
0000
,
0000
0000
0000
1000
,
1000
0000
0000
0000
,
0000
0000
0000
0001
,
0001
0000
1000
0000
,
0010
0000
0000
0100
,
0100
0000
0000
0010
,
0010
0000
0000
1000
,
1000
0000
0000
0001
,
0001
0001
0001
0001
,
1001
0000
0010
0000
,
0100
0000
0000
0000
,
0010
0000
0000
0000
,
1000
0000
1000
0000
,
0001
0000
1000
0000
,
0010
0000
0000
0000
,
1000
0000
0000
0000
,
0100
0000
0100
0000
,
1001
0000
0000
0000
,
0010
0000
0000
0000
,
0010
0000
0000
0000
,
0010
0000
0100
0000
,
0001
0000
0000
0000
,
1000
0000
0000
0000
,
0100
0000
0000
0000
,
1000
0000
0001
0000
,
0100
0000
0000
0000
,
0000
0001
0000
1000
,
0000
0010
0000
0000
,
0100
0100
0100
0000
,
0010
0000
0000
0000
,
1000
0000
0000
0000
,
0001
0000
0000
0000
,
0100
0000
0000
0000
,
0001
0000
0000
0000
,
1000
0000
0000
0000
,
0010
0000
0000
0000
,
1000
0000
0001
0001
;

//---------------dance-single - ----------------
#NOTES:
     dance-single:
     :
     Challenge:
     8:
     0.525245,0.599022,0.258519,0.603211,0.124472,384.000000,357.000000,27.000000,63.000000,0.000000,0.000000,0.525245,0.599022,0.258519,0.603211,0.124472,384.000000,357.000000,27.000000,63.000000,0.000000,0.000000:
// measure 0
0000
0000
0000
0000
,  // measure 1
0000
0000
0000
0000
,  // measure 2
0000
0000
0000
0000
,  // measure 3
0000
0000
0000
0000
,  // measure 4
0000
0000
0000
0000
,  // measure 5
1020
0000
0130
0001
1000
0000
0001
1000
,  // measure 6
0100
1000
0000
0011
0000
0001
0100
0000
,  // measure 7
1020
0000
1030
0001
0010
0100
0000
1000
,  // measure 8
0100
0000
1000
0000
0001
0000
0010
0100
1000
0000
0001
0000
0100
0000
0010
0000
,  // measure 9
1000
0010
1010
1000
0001
0000
0010
0001
,  // measure 10
0000
1000
0001
0100
0010
1000
0000
0100
,  // measure 11
0000
0020
0032
0203
2300
0000
3200
0320
,  // measure 12
2030
3002
0000
0023
0000
0230
0320
0031
,  // measure 13
1000
0100
0110
0100
1000
0000
0001
0100
,  // measure 14
0000
0010
1000
0001
0010
0001
0000
0100
,  // measure 15
0001
0000
0000
0000
1000
0000
0100
0000
1000
0010
1000
0000
0000
0000
0001
0000
,  // measure 16
0000
0010
0000
0001
2000
0000
3020
0000
,  // measure 17
0130
0001
0010
1000
0010
0100
1000
0010
,  // measure 18
0100
0001
0010
0011
0000
0001
1000
1000
,  // measure 19
0010
1000
0001
0010
1000
0010
0100
1000
,  // measure 20
0100
0001
0100
0110
0000
0010
0001
0001
,  // measure 21
1000
0010
0100
0001
0010
1000
0010
0001
,  // measure 22
0100
1000
0100
0110
0000
0100
0010
1000
,  // measure 23
1010
0000
0000
0000
1100
0000
0000
0000
0101
0000
0010
0001
0000
0000
0001
0000
,  // measure 24
0010
0100
1000
0001
0000
1000
0100
0010
,  // measure 25
0001
0002
0203
2300
3020
0031
0010
0100
,  // measure 26
1000
0200
0302
0023
2030
3001
0010
0100
,  // measure 27
1000
2000
3002
0023
0230
1300
0001
1000
,  // measure 28
2001
3000
0120
0030
1002
0003
0210
0300
,  // measure 29
1001
0000
0001
0000
0100
0000
0010
0000
1000
0010
0200
0000
0000
0000
0310
0000
,  // measure 30
1000
0001
0010
0001
1000
0010
0100
0001
,  // measure 31
1000
0000
0000
0000
0001
0000
0100
0000
0010
0000
0010
0000
0000
0000
0100
0010
,  // measure 32
2000
0000
0000
0000
0000
0000
3010
0100
0002
0003
0002
0003
0002
0000
0000
0000
,  // measure 33
1003
0000
1000
0000
0001
0000
0010
0000
0100
1000
0002
0000
0000
0000
0103
0000
,  // measure 34
0100
0010
1000
0001
0010
0001
1000
0100
,  // measure 35
1000
0000
0000
0000
0001
0000
1000
0000
0100
0000
0100
0000
0000
0000
0010
0001
,  // measure 36
0100
0000
0000
0000
0000
0000
0010
1000
0100
0000
0010
0000
0001
0000
1000
0000
,  // measure 37
1100
0000
1000
0000
0010
0000
0100
0000
0001
0000
1000
0001
0000
1000
0001
0000
,  // measure 38
0011
0000
0010
0000
0100
0000
1000
0000
0010
0000
0100
0001
0000
0100
0001
0000
,  // measure 39
0011
0000
0010
0000
0001
0000
1000
0000
0100
0000
0010
0100
0000
0010
0100
0000
,  // measure 40
0110
0010
0001
0200
0000
0310
1000
0100
,  // measure 41
0110
0000
0100
0000
1000
0000
0010
0000
0100
0000
0001
0100
0000
0100
0010
0000
,  // measure 42
1010
0000
1000
0000
0001
0000
0010
0000
0100
0000
0010
0001
0000
0001
0100
0000
,  // measure 43
0101
0000
0100
0000
0010
0000
1000
0000
0100
0000
0010
0100
0000
0100
1000
0000
,  // measure 44
1100
0200
0320
0032
0203
2300
3200
0320
,  // measure 45
0030
2002
0000
0000
0000
0000
0000
3003
,  // measure 46
0000
0000
0002
0000
0023
0030
0020
0030
0002
0000
0000
0000
2003
0000
3200
0000
,  // measure 47
0000
0300
0220
0000
0000
0000
0000
0000
0000
0000
0000
0000
0330
0000
0200
2300
,  // measure 48
3020
0000
0230
0000
0302
0000
0000
0003
1200
0000
0000
0000
0000
0000
0000
0000
,  // measure 49
0310
0010
0000
0001
1000
1000
0000
0010
,  // measure 50
0100
0100
0001
0200
0000
0310
1000
1000
,  // measure 51
0001
0000
0100
0000
0000
0000
0010
0000
1000
0000
0100
0010
0000
0100
0010
0000
,  // measure 52
0001
1000
0000
0001
0000
0100
0010
0010
,  // measure 53
1000
1000
0000
0010
0100
0100
0000
0010
,  // measure 54
1000
1000
0001
0020
0000
0130
1000
1000
,  // measure 55
0001
0000
0010
0000
0000
0000
0100
0000
0010
0000
0001
0010
0000
0010
0001
0000
,  // measure 56
1000
1000
0000
0001
0000
0100
0100
0100
;
