#TITLE:athletic meet of sound toy;
#SUBTITLE:;
#ARTIST:Mr.T;
#TITLETRANSLIT:;
#SUBTITLETRANSLIT:;
#ARTISTTRANSLIT:;
#GENRE:;
#CREDIT:;
#BANNER:;
#BACKGROUND:;
#LYRICSPATH:;
#CDTITLE:;
#MUSIC:athletic meet of sound toy.ogg;
#OFFSET:-2.003000;
#SAMPLESTART:12.115264;
#SAMPLELENGTH:10.421050;
#SELECTABLE:YES;
#BPMS:0.000000=190.000000
;
#STOPS:30.000000=0.079000,
30.250000=0.079000,
30.500000=0.079000,
30.750000=0.079000,
61.000000=0.079000,
61.250000=0.079000,
61.500000=0.079000,
61.750000=0.079000,
200.000000=0.316000
;
#BGCHANGES:;
#KEYSOUNDS:;
#ATTACKS:;

//---------------dance-single - ----------------
#NOTES:
     dance-single:
     :
     Hard:
     9:
     0.547262,0.684302,0.062801,0.565205,0.026915,427.000000,420.000000,7.000000,63.000000,0.000000,0.000000,0.547262,0.684302,0.062801,0.565205,0.026915,427.000000,420.000000,7.000000,63.000000,0.000000,0.000000:
0000
0000
0000
0000
,
0000
0000
0000
0000
,
0000
0000
0000
0000
,
0000
0000
0000
0000
,
1000
0001
1000
0001
,
0100
0010
0100
0010
,
1000
0010
0100
0001
,
0010
0000
0000
0000
0100
0000
0000
0000
1000
0001
1000
0001
0000
0000
0100
0000
,
0100
0100
0100
0100
0100
0100
0010
1000
,
0100
0001
0100
0010
0001
1000
0100
0000
,
0000
1000
0010
0000
0000
1000
0001
0000
,
0000
0001
1000
0000
0000
0000
0000
0010
,
0010
0010
0010
0010
0010
0010
0100
0010
,
1000
0010
1000
0001
0010
0100
1000
0000
,
0000
0100
0010
0000
0000
0100
1000
0000
,
0000
0000
0000
0000
0001
0100
0001
0100
0000
0000
0001
0000
0001
0000
0001
0000
,
0001
0001
0001
0001
1000
0010
0001
0010
,
0100
0001
0010
0100
0010
0000
0000
0100
,
1000
0000
0000
0100
0010
0000
0000
0010
,
0100
0000
1000
0000
0001
1000
1000
1000
,
1000
1000
1000
1000
0001
1000
0100
1000
,
0010
0100
0001
0010
0100
0000
0000
0100
,
1000
0000
0000
1000
0001
0000
0000
0000
,
1000
0001
0000
1000
0001
0000
0100
0000
0020
0000
0000
0000
2030
0000
0000
0000
,
3020
0230
0302
2003
,
0002
3003
2000
3200
,
0320
0032
0020
0000
,
0033
0000
0200
2300
,
3020
0230
0302
2003
,
3020
0000
0030
0100
0002
0000
0000
1003
,
0200
0000
0000
0310
0002
0000
0000
0000
,
0003
0000
0010
1001
,
0001
0010
0100
1000
0001
1000
0010
1000
,
0001
0000
0001
1000
0100
1000
0100
1000
,
0001
0000
0010
0010
0100
1000
0001
0100
,
0001
0010
0100
1000
0001
0000
0100
0000
,
1000
0000
0100
0100
0010
1000
0001
0010
,
0100
0000
0000
0100
0010
0010
0001
1000
,
0010
0000
0100
0100
1000
0001
0010
0001
,
1000
0100
1000
0001
1000
0000
0100
0000
,
0010
0000
0100
0000
1000
1000
0100
1000
,
0001
0000
0100
0100
0001
1000
0010
0100
,
0001
0000
0100
0100
0001
0010
1000
0010
,
0100
0010
0001
1000
0001
0000
1000
0000
,
0010
0000
0100
0100
0001
0001
1000
0100
,
0010
0000
0100
0100
0010
1000
0001
0001
,
1000
0000
0001
1000
0020
0000
0000
1030
,
0002
0000
0000
0103
0020
0000
0000
1030
,
0002
0000
0000
1003
0200
0000
0000
0000
,
0000
0000
0310
0010
,
1001
0000
0001
0010
0010
0010
0010
0010
,
0010
0010
1000
0010
0001
0010
0100
1000
,
0100
0010
0100
0000
0000
0100
0010
0000
,
0000
0010
0100
0000
0000
0100
1000
0000
,
0000
0000
0000
0100
0100
0100
0100
0100
,
0100
0100
0100
1000
0001
0100
0001
1000
,
0010
1000
0100
0000
0010
0001
0100
0000
,
0010
1000
0001
0000
1000
0000
0001
0100
,
0010
1000
0001
0000
0100
0000
0001
0000
,
0010
0100
1000
0100
,
0010
0100
1000
0001
,
0100
0001
1000
0001
,
0100
0000
0001
0000
1000
0001
0000
0001
,
1000
0100
0010
0000
0010
0100
1000
0001
,
1000
0000
0010
0000
1000
0001
0010
0000
,
0100
1000
1001
0000
1001
0000
1001
0000
,
1001
0002
0203
2300
,
3200
0320
2030
3002
,
0023
0032
2003
3200
,
2300
3002
0203
0302
,
0203
0320
2030
3020
,
0032
0023
0230
0302
,
2003
3002
0203
0302
,
2003
0200
0000
0000
,
3300
0000
1000
0001
0100
0001
1000
0100
,
1000
0001
1000
0001
0010
0001
1000
0010
,
1000
0001
0010
0001
1000
0100
1000
0001
,
0100
0001
1000
0100
0010
0001
1000
0100
,
0010
0001
0100
0010
1000
0100
0010
0100
,
1000
0001
0010
0100
0010
0001
0100
0010
,
1000
0001
0020
0000
0000
0000
0230
0000
,
0000
2300
0000
3020
,
0000
0200
0000
0000
,
0330
2002
0000
0000
,
0000
0000
0000
3003
;

//---------------dance-single - ----------------
#NOTES:
     dance-single:
     :
     Medium:
     7:
     0.424224,0.608268,0.179430,0.107658,0.000000,331.000000,311.000000,20.000000,12.000000,0.000000,0.000000,0.424224,0.608268,0.179430,0.107658,0.000000,331.000000,311.000000,20.000000,12.000000,0.000000,0.000000:
0000
0000
0000
0000
,
0000
0000
0000
0000
,
0000
0000
0000
0000
,
0000
0000
0000
0000
,
1000
0010
0000
0100
,
0001
0010
0000
0100
,
1000
1000
0001
0001
,
0100
0000
0010
0000
2000
0000
3000
0001
,
0100
0100
0100
0010
,
1000
0000
0001
0000
0100
0001
0010
0000
,
0000
0100
1000
0000
0000
0100
0010
0000
,
0000
0010
0001
0000
0000
0000
0000
1000
,
0001
0001
0001
1000
,
0001
0000
0100
0000
0010
1000
0010
0000
,
0000
0010
0100
0000
0000
0100
0001
0000
,
0000
0000
2000
0000
3000
0001
0010
0000
,
0010
0010
0100
1000
,
0100
0000
1000
0010
0100
0000
0000
0001
,
0100
0000
0000
0010
1000
0000
0001
0000
,
0100
0000
0000
0000
0000
0001
1000
0000
,
1000
1000
0100
1000
,
0010
0000
0100
0001
1000
0000
0000
0100
,
1000
0000
0000
0010
0100
0000
0000
0000
,
0010
1000
0001
1000
,
0001
0010
0001
1000
,
0001
0000
1000
0100
,
1000
0010
0100
0000
,
0000
0000
0001
0100
,
0010
0100
0001
1000
,
0100
0000
0000
1000
0010
0000
0000
0100
,
0001
0000
0000
0001
2000
0000
0000
0000
,
0000
0000
3001
1010
,
0010
0100
0001
1000
0100
0000
1000
0001
,
0100
0000
0010
0100
0010
0000
0100
0001
,
1000
0000
1000
0100
1000
0000
0010
0000
,
0100
0000
0001
0100
0010
0000
0100
0000
,
0001
0000
1000
0100
1000
0100
0010
0001
,
0010
0000
0000
0001
0010
0000
0100
0000
,
1000
0000
0100
1000
0100
0000
1000
0000
,
0010
0100
0101
1100
,
0101
0000
1100
0000
1000
0000
0010
0100
,
0010
0000
0100
0000
0001
0000
1000
0010
,
1000
0000
0001
0010
0100
0000
0010
0000
,
0001
0000
1000
0010
0100
0000
0001
0000
,
1000
0000
0100
0000
0010
0100
1000
0010
,
1000
0000
0001
1000
0010
0100
0001
0010
,
0100
0000
1000
0001
0100
0000
0000
0010
,
1000
0000
0000
0010
0100
0000
0000
0010
,
1000
0000
0000
0001
2000
0000
0000
0000
,
0000
0000
0000
0000
,
3000
0000
0000
0001
0100
0000
0100
0000
,
0100
0010
1000
0001
,
0010
0100
1000
0000
0000
0100
0010
0000
,
0000
0010
0001
0000
0000
0001
1000
0000
,
0000
0000
0000
1000
0010
0000
0010
0000
,
0010
0100
0001
1000
,
0100
1000
0010
0000
0000
0100
0001
0000
,
0000
0100
0010
0000
0000
0000
0100
0000
,
0010
1000
0100
0001
,
0100
1000
0010
0100
,
0001
0010
0001
1000
,
0100
0001
0100
1000
,
0010
0100
1000
0100
,
0001
0010
1000
0010
,
0001
0010
0100
1000
,
0001
1000
0000
0000
,
0000
0001
0100
1000
,
0100
0010
1000
0001
,
0010
1000
0010
0100
,
1000
0100
0100
1000
,
1000
0100
1000
0010
,
0100
0001
0010
1000
,
0010
0100
1000
0010
,
0100
0002
0000
0000
,
0003
1000
1100
0100
,
0110
0010
0011
0001
,
1001
0001
0101
0100
,
0110
0110
1001
0110
,
1001
1000
1100
0100
,
0110
0010
0011
0001
,
1001
0002
0003
2000
,
3000
0020
0030
0200
,
0300
0020
0000
0000
,
0030
2002
0000
0000
,
0000
0000
0000
3003
;

//---------------dance-single - ----------------
#NOTES:
     dance-single:
     :
     Easy:
     5:
     0.333227,0.485471,0.125601,0.071772,0.000000,260.000000,246.000000,14.000000,8.000000,0.000000,0.000000,0.333227,0.485471,0.125601,0.071772,0.000000,260.000000,246.000000,14.000000,8.000000,0.000000,0.000000:
0000
0000
0000
0000
,
0000
0000
0000
0000
,
0000
0000
0000
0000
,
0000
0000
0000
0000
,
1000
0000
0000
0000
,
0001
0000
0000
0000
,
1000
0000
0001
0000
,
0100
0010
2000
3000
,
0001
0100
0100
0001
,
1000
0100
0010
0001
,
0000
1000
0000
0100
,
0000
1000
0000
0000
,
0010
0010
0010
0100
,
0001
0100
0001
1000
,
0000
0100
0000
1000
,
0000
0002
0103
0001
,
0001
0001
0100
0010
,
1000
0100
1000
0000
,
0010
0000
0100
0000
,
0001
0000
0000
1000
,
1000
1000
0001
0100
,
0001
1000
0100
0000
,
1000
0000
0010
0000
,
0100
0001
1000
0100
,
0001
0100
0010
0001
,
0010
0000
0001
0010
,
1000
0010
0100
0000
,
0000
0000
0010
0001
,
1000
0010
0100
0001
,
1000
0000
0001
0000
,
1000
0000
0200
0000
,
0000
0000
0310
1001
,
0001
0010
0100
0100
,
0010
0100
1000
1000
,
0100
1000
0001
0001
,
0100
0001
1000
0100
,
0010
0001
0010
0010
,
0100
0000
0100
0100
,
0010
0100
1000
1000
,
0001
0001
1001
1001
,
0110
0110
0100
0010
,
1000
0010
0100
0100
,
0001
1000
0001
0001
,
0010
0100
0010
0000
,
0000
0100
1000
1000
,
0010
0100
0001
0001
,
1000
0000
0001
0000
,
0100
0000
0001
0000
,
1000
0000
0200
0000
,
0000
0000
0000
0000
,
0300
0100
0010
0010
,
0010
0100
1000
0001
,
0100
0010
0000
1000
,
0000
0010
0000
0100
,
0000
0000
0001
0001
,
0001
0001
1000
0001
,
0010
0100
0000
0010
,
0000
0001
0000
0000
,
0000
0001
0100
0010
,
1000
0010
0100
0001
,
0010
0100
0010
0001
,
1000
0010
0100
0010
,
1000
0001
0100
0001
,
1000
0010
1000
0001
,
0010
0001
1000
0100
,
0010
0200
0000
0000
,
0300
0010
0010
0100
,
0100
1000
1000
0001
,
0001
1000
1000
0010
,
0010
0100
0001
0100
,
0001
0100
0100
0010
,
0010
1000
1000
0001
,
0001
1000
0100
0010
,
0001
2000
0000
0000
,
0000
3001
1000
0001
,
1001
0001
0100
0001
,
0101
0001
0010
0001
,
0011
0010
0110
0100
,
1100
1000
0001
1000
,
1001
1000
0010
1000
,
1010
1000
0000
0001
,
0000
0100
0000
0010
,
0000
2002
0000
0000
,
3003
0110
0000
0000
;

//---------------dance-single - ----------------
#NOTES:
     dance-single:
     :
     Beginner:
     2:
     0.171740,0.298751,0.017943,0.000000,0.000000,134.000000,132.000000,2.000000,0.000000,0.000000,0.000000,0.171740,0.298751,0.017943,0.000000,0.000000,134.000000,132.000000,2.000000,0.000000,0.000000,0.000000:
// measure 0
0000
0000
0000
0000
,  // measure 1
0000
0000
0000
0000
,  // measure 2
0000
0000
0000
0000
,  // measure 3
0000
0000
0000
0000
,  // measure 4
0010
0000
0000
0000
,  // measure 5
0010
0000
0000
0000
,  // measure 6
0010
0000
0010
0000
,  // measure 7
0010
0010
0000
1000
,  // measure 8
0000
0000
0000
0001
,  // measure 9
0000
0000
0000
1000
,  // measure 10
0000
0001
0000
0010
,  // measure 11
0000
0001
0000
0000
,  // measure 12
1000
0000
0000
1000
,  // measure 13
0000
0000
0000
0001
,  // measure 14
0000
0010
0000
0001
,  // measure 15
0000
0000
0001
0000
,  // measure 16
0000
0000
0100
0000
,  // measure 17
0000
0000
0010
0000
,  // measure 18
1000
0000
0010
0000
,  // measure 19
1000
0000
0001
0000
,  // measure 20
0000
0000
1000
0000
,  // measure 21
0000
0000
0100
0000
,  // measure 22
1000
0000
0010
0000
,  // measure 23
0000
0000
0100
0000
,  // measure 24
0010
0000
1000
1000
,  // measure 25
1000
0000
0010
0000
,  // measure 26
0100
0000
0010
0000
,  // measure 27
0000
0000
0100
0000
,  // measure 28
0001
0000
1000
1000
,  // measure 29
1000
0000
0001
0000
,  // measure 30
0010
0000
0001
0000
,  // measure 31
0000
0000
0000
1001
,  // measure 32
0000
0000
0001
0000
,  // measure 33
0000
1000
1000
0000
,  // measure 34
0000
0010
0010
0000
,  // measure 35
0100
0000
0010
0000
,  // measure 36
0000
1000
1000
0000
,  // measure 37
0000
0000
0001
0000
,  // measure 38
0000
0000
0100
0000
,  // measure 39
0010
0000
1000
1000
,  // measure 40
1000
0001
1000
0000
,  // measure 41
0000
0000
0010
0000
,  // measure 42
0000
0000
0100
0000
,  // measure 43
0100
0000
0010
0000
,  // measure 44
0000
0000
1000
0000
,  // measure 45
0000
0000
0001
0000
,  // measure 46
0000
0000
0010
0000
,  // measure 47
0001
0000
0010
0000
,  // measure 48
0001
0000
1000
0000
,  // measure 49
0000
0000
0000
0000
,  // measure 50
0000
0010
0000
0000
,  // measure 51
0000
0100
0000
0000
,  // measure 52
0000
0010
0000
1000
,  // measure 53
0000
0010
0000
0100
,  // measure 54
0000
0001
0000
0000
,  // measure 55
0000
0010
0000
0000
,  // measure 56
0000
0001
0000
1000
,  // measure 57
0000
0010
0000
0000
,  // measure 58
0000
0100
0000
0000
,  // measure 59
0000
0010
0000
0000
,  // measure 60
0000
1000
0000
0000
,  // measure 61
0000
0100
0000
0000
,  // measure 62
0000
1000
0000
0000
,  // measure 63
0000
0010
0000
0000
,  // measure 64
0000
0100
0000
0100
,  // measure 65
0000
0100
0000
0000
,  // measure 66
0000
0010
0000
0010
,  // measure 67
0000
0010
0000
0010
,  // measure 68
0000
1000
0000
1000
,  // measure 69
0000
1000
0000
1000
,  // measure 70
0000
0001
0000
0001
,  // measure 71
0000
0001
0000
0001
,  // measure 72
0000
0100
0000
0100
,  // measure 73
0000
0100
0000
0000
,  // measure 74
0000
0010
0010
0010
,  // measure 75
0000
1000
1000
1000
,  // measure 76
0000
0001
0000
1000
,  // measure 77
0000
0010
0010
0100
,  // measure 78
0100
0001
0001
0001
,  // measure 79
0000
1000
1000
1000
,  // measure 80
0000
0010
0000
0100
,  // measure 81
0000
0001
0000
1000
,  // measure 82
0000
0001
0000
0000
,  // measure 83
0000
1001
0000
0000
;
