#TITLE:aleatrik;
#SUBTITLE:;
#ARTIST:nc feat. NRG Factory;
#TITLETRANSLIT:;
#SUBTITLETRANSLIT:;
#ARTISTTRANSLIT:;
#GENRE:;
#CREDIT:;
#BANNER:aleatrik.png;
#BACKGROUND:aleatrik-bg.png;
#LYRICSPATH:;
#CDTITLE:;
#MUSIC:aleatrik.ogg;
#OFFSET:-0.248000;
#SAMPLESTART:71.539352;
#SAMPLELENGTH:13.913040;
#SELECTABLE:YES;
#BPMS:0.000000=138.000000
;
#STOPS:
;
#BGCHANGES:;
#KEYSOUNDS:;
#ATTACKS:;

//---------------dance-single - ----------------
#NOTES:
     dance-single:
     :
     Hard:
     7:
     0.352416,0.525282,0.017013,0.374290,0.051040,290.000000,288.000000,2.000000,44.000000,0.000000,0.000000,0.352416,0.525282,0.017013,0.374290,0.051040,290.000000,288.000000,2.000000,44.000000,0.000000,0.000000:
0000
0000
0000
0000
,
0000
0000
0000
0000
,
0000
0000
0000
0000
,
0000
0000
0000
0000
,
0000
0000
0000
0000
,
0001
0000
0000
0000
1000
0000
0000
0100
0000
0000
0010
0000
0001
0000
0010
0000
,
0100
0000
0000
0000
0001
0000
0000
1000
0000
1000
0000
0000
0001
0000
1000
0000
,
0010
0000
0000
0000
0100
0000
0000
0010
0000
0000
1000
0000
0100
0000
1000
0000
,
0001
0001
0001
0000
0010
0001
1000
0100
,
1000
0000
0001
0000
0100
0000
0010
1000
,
0010
0000
1000
0000
0100
0000
0010
0001
,
0010
0000
0100
0000
0010
0000
0001
1000
,
0001
0000
0100
0000
0010
0000
1000
0010
,
0100
0000
0001
0000
0010
0000
0100
1000
,
0010
0000
0100
0000
0001
0000
1000
0001
,
0010
0000
0001
0000
1000
0000
0100
0010
,
0001
0000
0010
0000
0001
0000
1000
0001
,
1002
0000
0000
0000
0000
0000
1003
0020
,
0000
0000
0000
0000
0000
0000
0130
0002
,
0000
0000
0000
0000
0000
0000
1003
0200
,
0000
0000
0000
0000
0000
0000
0310
0002
,
0000
0000
0000
0000
0000
0000
1003
0020
,
0000
0000
0000
0000
0000
0000
1030
0002
,
0000
0000
0000
0000
0000
0000
0103
0020
,
0000
0000
0000
0030
,
1002
0000
0200
0003
,
0020
0300
2000
0030
,
0200
0000
0000
3000
0020
0000
0300
0000
,
0002
0030
2000
0003
,
0020
3000
0002
0030
,
0020
0003
0200
0030
,
0002
0300
0020
0003
,
0200
0030
0020
0300
,
0130
0000
0010
0000
0100
0000
0010
0001
,
0100
0000
0010
0000
0100
0000
0010
1000
,
0100
0000
0010
0000
0100
0000
0010
0001
,
0100
0000
0010
0000
0100
0000
0010
0100
,
0001
0000
0000
1000
0000
0000
0010
0000
0100
0000
0001
0000
0010
0000
0001
0000
,
0010
0000
0000
0001
0000
0000
1000
0000
0001
0000
0010
0000
0001
0000
0010
0000
,
0100
0010
0001
1000
0010
0100
0001
0010
,
0200
0000
2300
0000
3020
0000
0230
0000
0301
1000
0001
1000
0200
0000
0000
0000
,
2300
0000
3010
0000
0100
0000
0001
0100
,
0020
0000
1030
0000
0001
0000
0010
0100
,
2000
0000
3100
0000
1000
0000
0010
0100
,
0002
0000
0013
0000
1000
0000
0100
0010
,
0002
0000
0013
0000
0001
0000
0100
0010
,
2000
0000
3001
0000
0010
0000
1000
0010
,
0002
0000
0103
0000
0010
0000
1000
0001
,
0020
0000
0130
0000
1000
0000
0100
1000
,
0020
0000
0100
0000
0100
0000
0130
0001
,
0020
0000
0100
0000
0100
0000
0130
1000
,
0020
0000
0100
0000
0100
0000
0130
0001
,
0020
0000
0100
0000
0100
0000
0130
0010
,
0200
0000
0010
0000
0010
0000
0310
1000
,
0200
0000
0010
0000
0010
0000
0310
0001
,
0200
0010
0010
0310
,
1000
0000
0000
0001
0000
0010
0001
0000
1000
0000
1000
0000
0100
0000
0010
0000
,
0001
0100
0001
0100
0001
1000
0010
0100
,
0000
0001
0010
0001
0010
0100
1000
0001
,
0000
1000
0010
1000
0010
0100
0001
1000
,
0000
0100
1000
0100
1000
0100
0010
0001
,
0000
1000
0001
0100
0001
1000
0010
0001
,
0000
0001
0010
1000
0010
0100
1000
0010
,
0000
1000
0100
0001
0100
0010
1000
0001
,
0010
0000
0000
0100
0000
0010
0001
0000
1000
0000
0100
0000
0010
0000
0100
0000
,
1000
0000
0000
0000
;

//---------------dance-single - ----------------
#NOTES:
     dance-single:
     :
     Medium:
     5:
     0.315959,0.414696,0.102079,0.246691,0.008507,260.000000,248.000000,12.000000,29.000000,0.000000,0.000000,0.315959,0.414696,0.102079,0.246691,0.008507,260.000000,248.000000,12.000000,29.000000,0.000000,0.000000:
0000
0000
0000
0000
,
0000
0000
0000
0000
,
0000
0000
0000
0000
,
0000
0000
0000
0000
,
0000
0000
0000
0000
,
0001
0010
0001
1000
,
0100
1000
0010
0100
,
0010
1000
0001
0010
,
0100
0010
0001
0000
0001
0010
0100
1000
,
0010
0000
0100
0000
0001
0000
1000
0001
,
0100
0000
0010
0000
1000
0000
0100
0010
,
0100
0000
0010
0000
0001
0000
1000
0001
,
0100
0000
0001
0000
0010
0000
0100
0010
,
0001
0000
1000
0000
0001
0000
0100
0010
,
1000
0000
0010
0000
1000
0000
0010
0100
,
0001
0000
0100
0000
0001
0000
0100
0010
,
1000
0000
0001
0000
1000
0000
0001
0100
,
0000
0000
0000
0000
0000
0000
0010
1000
,
0000
0000
0000
0000
0000
0000
0100
0010
,
0000
0000
0000
0000
0000
0000
0100
1000
,
0000
0000
0000
0000
0000
0000
0100
1000
,
0000
0000
0000
0000
0000
0000
1000
0001
,
0000
0000
0000
0000
0000
0000
0001
0100
,
0000
0000
0000
0000
0000
0000
0100
0010
,
0000
0000
0000
0000
,
1002
0000
2003
0000
,
3020
0000
2030
0000
,
3200
0000
2300
0000
,
3002
0000
0023
0000
,
0032
0000
0203
0000
,
0320
0000
2030
0000
,
3200
0000
2300
0000
,
3020
0000
0230
0000
,
0301
0000
0001
0000
0001
0000
0001
1000
,
0001
0000
0001
0000
0001
0000
0001
1000
,
0001
0000
0001
0000
0001
0000
0001
1000
,
0001
0000
0001
0000
0001
0000
0001
1000
,
0001
0100
0010
1000
,
0010
0100
0001
0100
,
0010
1000
0010
0100
,
0001
1000
0001
1000
0020
0000
0030
0000
,
1000
1010
0010
0110
,
0100
0000
0101
0000
0001
1000
0100
0000
,
1000
1100
0100
0110
,
0010
0000
0011
0000
0001
0010
0100
0010
,
0001
1001
1000
1010
,
0010
0000
0110
0000
0100
0010
1000
0000
,
0001
0011
0001
0101
,
0001
0000
1000
0000
0010
0100
0010
1000
,
0001
0000
1000
0000
0010
0000
0100
0001
,
0010
0000
1000
0000
0010
0000
0100
1000
,
0010
0000
0001
0000
0010
0000
0100
1000
,
0100
0000
0010
0000
1000
0000
0001
0010
,
0100
0000
0010
0000
0001
0000
1000
0001
,
0100
0000
0010
0000
1000
0000
0010
0100
,
0001
0000
1000
0000
0001
0000
0100
0010
,
1000
0000
0000
0001
0000
0000
1000
0000
0010
0000
1000
0000
0001
0000
0000
0000
,
0002
0000
0203
0000
0320
0000
1030
0010
,
0200
0000
0302
0000
0023
0000
0130
0010
,
0002
0000
2003
0000
3020
0000
1030
0010
,
0200
0000
0302
0000
0023
0000
0130
0010
,
0001
0000
1000
0000
0001
0000
1000
0001
,
0100
0000
0010
0000
1000
0000
0010
0100
,
0001
0000
1000
0000
0010
0000
0100
0010
,
1000
0000
0000
0010
0000
0000
0100
0000
0001
0000
0010
0000
0100
0000
1000
0000
,
0001
0000
0000
0000
;

//---------------dance-single - ----------------
#NOTES:
     dance-single:
     :
     Easy:
     3:
     0.213880,0.276464,0.017013,0.331757,0.000000,176.000000,174.000000,2.000000,39.000000,0.000000,0.000000,0.213880,0.276464,0.017013,0.331757,0.000000,176.000000,174.000000,2.000000,39.000000,0.000000,0.000000:
0000
0000
0000
0000
,
0000
0000
0000
0000
,
0000
0000
0000
0000
,
0000
0000
0000
0000
,
0000
0000
0000
0000
,
0001
1000
0001
0000
,
0100
0010
0100
0000
,
0001
0010
0010
0000
,
0001
1000
1000
0000
,
0100
1000
0010
0100
,
0001
0100
0001
1000
,
0100
0010
0100
0010
,
0001
1000
0001
1000
,
0010
0010
0010
0000
,
0100
0100
0100
0000
,
0001
1000
0001
0000
,
1000
0001
1000
0000
,
0110
0000
0000
0010
,
0000
0000
0000
0100
,
0000
0000
0000
0001
,
0000
0000
0000
1000
,
0000
0000
0000
0010
,
0000
0000
0000
1000
,
0000
0000
0000
0001
,
0000
0000
0000
0000
,
0200
0000
0000
0300
,
0020
0000
0000
0030
,
2000
0000
0000
3000
,
0002
0000
0000
0003
,
0200
0000
0000
0300
,
0002
0000
0000
0003
,
0020
0000
0000
0030
,
0200
0000
0000
0300
,
1000
0001
2000
3000
,
0001
0100
0002
0003
,
0100
0010
0200
0300
,
0100
0010
0200
0300
,
0010
0000
1000
0000
,
0001
0000
0100
0000
,
0001
1000
0001
1000
,
0020
0000
0000
0030
,
1000
0001
0200
0301
,
0010
0001
2000
3100
,
1000
0010
0200
0310
,
1000
0001
0200
0301
,
0100
0010
2000
3100
,
1000
0100
0020
0130
,
0010
0001
2000
3001
,
0100
0001
0010
0001
,
1000
0001
0100
0020
,
1030
0010
0100
0002
,
0013
0100
0010
0002
,
1003
0100
1000
0020
,
1030
0100
1000
0002
,
1003
0010
0100
0020
,
1030
0010
0100
0002
,
0013
0001
1000
0001
,
2000
3200
2300
3100
,
0020
0032
0023
0031
,
2000
3002
2003
3001
,
0002
0203
0302
0103
,
0010
1000
0010
1000
,
0001
0100
0001
0100
,
0001
1000
0001
1000
,
0001
0100
1000
0100
,
0110
0000
0000
0000
;

//---------------dance-single - ----------------
#NOTES:
     dance-single:
     :
     Beginner:
     1:
     0.097218,0.193525,0.051040,0.000000,0.000000,80.000000,74.000000,6.000000,0.000000,0.000000,0.000000,0.097218,0.193525,0.051040,0.000000,0.000000,80.000000,74.000000,6.000000,0.000000,0.000000,0.000000:
0000
0000
0000
0000
,
0000
0000
0000
0000
,
0000
0000
0000
0000
,
0000
0000
0000
0000
,
0000
0000
0000
0000
,
0010
0000
0000
0000
,
0100
0000
0000
0000
,
0001
0000
0000
0000
,
1000
1000
0000
0001
,
0000
0000
0000
1000
,
0000
0000
0000
0010
,
0000
0000
0000
0100
,
0000
0000
0000
0010
,
0000
0000
0000
1000
,
0000
0000
0000
0001
,
0000
0000
0000
0100
,
0000
0000
0000
0010
,
1001
0000
0000
0000
,
0000
0000
0000
0000
,
1000
0000
0000
0000
,
0000
0000
0000
0000
,
0001
0000
0000
0000
,
0000
0000
0000
0000
,
0100
0000
0000
0000
,
0000
0000
0000
0000
,
0110
0000
0000
0000
,
0010
0000
0000
0000
,
1000
0000
0000
0000
,
0001
0000
0000
0000
,
0100
0000
0000
0000
,
0010
0000
0000
0000
,
1000
0000
0000
0000
,
0001
0000
0000
0000
,
1000
0000
0000
0000
,
0001
0000
0000
0000
,
0100
0000
0000
0000
,
0010
0000
0000
0000
,
1000
0000
1000
0000
,
0001
0000
0001
0000
,
0100
0000
0010
0000
,
1000
1000
1000
0000
,
1001
0000
0000
0000
,
0001
0000
0000
0000
,
0100
0000
0000
0000
,
0001
0000
0000
0000
,
1000
0000
0000
0000
,
0010
0000
0000
0000
,
0100
0000
0000
0000
,
0001
0000
1000
0000
,
0110
0000
0000
0000
,
0010
0000
0000
0000
,
1000
0000
0000
0000
,
0001
0000
0000
0000
,
0010
0000
0000
0000
,
0001
0000
0000
0000
,
1000
0000
0000
0000
,
0010
0000
0100
0000
,
1001
0000
0000
1000
,
1000
0000
0000
0001
,
0001
0000
0000
0100
,
0100
0000
0000
0010
,
0010
0000
0000
1000
,
0001
0000
0000
0001
,
1000
0000
0000
0010
,
0100
0000
0010
0000
,
1001
0000
0000
0000
;

//---------------dance-single - ----------------
#NOTES:
     dance-single:
     :
     Challenge:
     10:
     0.692679,0.939978,0.263704,0.425329,0.672020,570.000000,539.000000,31.000000,50.000000,0.000000,0.000000,0.692679,0.939978,0.263704,0.425329,0.672020,570.000000,539.000000,31.000000,50.000000,0.000000,0.000000:
// measure 0
0000
0000
0000
0000
,  // measure 1
0000
0000
0000
0000
,  // measure 2
0000
0000
0000
0000
,  // measure 3
0000
0000
0000
0000
,  // measure 4
0000
0000
0000
0000
,  // measure 5
0101
0000
0000
0000
0100
0000
0000
1001
0000
0000
1000
0000
0100
0000
1000
0000
,  // measure 6
0001
0000
0000
0000
0010
0000
0000
1100
0000
1100
0000
0000
1000
0000
0100
0000
,  // measure 7
1000
0000
0000
0000
0001
0000
0000
0011
0000
0000
0010
0000
0100
0000
0010
0000
,  // measure 8
0001
0000
0000
0000
0010
0000
0000
0000
0001
0000
0000
0000
0000
0000
0001
0100
0001
0000
1000
0000
0010
0000
1000
0000
0100
0000
1000
0000
0010
0000
0100
0000
,  // measure 9
0001
0000
1000
0000
0100
0000
1000
0100
0000
0100
1000
0000
0100
0000
0010
0000
,  // measure 10
0001
0000
1000
0000
0001
0000
0001
0100
0000
0100
0000
0100
0010
0000
1000
0000
,  // measure 11
0100
0000
1000
0000
0010
0000
0100
0001
0000
0001
0010
0000
0001
0000
1000
0000
,  // measure 12
0100
0000
1000
0000
0010
0000
0100
0001
0000
0001
0000
0001
0010
0000
0100
0000
,  // measure 13
0110
0000
1100
0000
0110
0000
0010
0001
,  // measure 14
0101
0000
1100
0000
0101
0000
1100
0100
,  // measure 15
0010
1000
0001
0100
0010
1000
0001
0100
,  // measure 16
0001
0000
0000
1000
0000
0000
0001
0000
0000
1000
0000
0000
0001
0000
0000
1000
0000
0000
0001
0000
0000
1000
0000
0000
0010
0000
0100
0000
0010
0000
0100
0000
0010
0000
0100
0000
0010
0000
0000
0000
0000
0000
0000
0000
0000
0000
0000
0000
,  // measure 17
1001
1001
1000
0001
0000
0000
1010
1010
,  // measure 18
1000
0010
1000
0010
0000
0000
0101
0101
,  // measure 19
0001
0100
0001
0100
0000
0000
1001
1001
,  // measure 20
0001
1000
0001
1000
0000
0000
1010
1010
,  // measure 21
0010
1000
0010
1000
0000
0000
1100
1100
,  // measure 22
1000
0100
1000
0100
0000
0000
0110
0110
,  // measure 23
0010
0001
0010
0001
0000
0000
1001
1001
,  // measure 24
0001
1000
0001
1000
0000
0000
0000
0000
,  // measure 25
0201
0000
0000
0000
2300
0000
0000
0000
3200
0000
0000
0000
0310
1000
0010
0100
,  // measure 26
0002
0000
0000
0000
0023
0000
0000
0000
2030
0000
0000
0000
3010
0100
1000
0001
,  // measure 27
0200
0000
0000
0000
0302
0000
0000
0000
0023
0000
0000
0000
0130
0010
0001
1000
,  // measure 28
0002
0000
0000
0000
0203
0000
0000
0000
2300
0000
0000
0000
3100
0010
1000
0100
,  // measure 29
0020
0000
0000
0000
0230
0000
0000
0000
2300
0000
0000
0000
3001
0100
0001
1000
,  // measure 30
0200
0000
0000
0000
0320
0000
0000
0000
0032
0000
0000
0000
1003
0100
1000
0001
,  // measure 31
0200
0000
0000
0000
2300
0000
0000
0000
3200
0000
0000
0000
0310
1000
0010
0100
,  // measure 32
0002
0000
0000
0000
0023
0000
0000
0000
2030
0000
0000
0000
3010
0100
1000
0001
,  // measure 33
0100
0000
0000
0000
0010
0000
0000
0000
1000
0000
0000
0000
0001
0100
0001
1000
,  // measure 34
0100
0000
0000
0000
0010
0000
0000
0000
0001
0000
0000
0000
0100
0001
0010
0001
,  // measure 35
1000
0000
0000
0000
0100
0000
0000
0000
1000
0000
0000
0000
0010
1000
0010
0100
,  // measure 36
0001
0000
0000
0000
0010
0000
0000
0000
0001
0000
0000
0000
1000
0100
1000
0001
,  // measure 37
0010
0000
0000
0100
0000
1000
0010
0000
0100
0000
0001
0000
0100
0010
1000
0001
,  // measure 38
0010
0000
0000
0100
0000
1000
0010
0000
0100
0000
0001
0000
0100
0010
1000
0001
,  // measure 39
1000
0000
0000
0010
0000
0000
1000
0000
0000
0010
0000
0000
1000
0000
0000
0010
0000
0000
1000
0000
0000
0010
0000
0000
1000
0000
0010
0000
1000
0000
0010
0000
1000
0000
0010
0000
1000
0000
0010
0000
1000
0000
0010
0000
1000
0000
0010
0000
,  // measure 40
0200
0000
0000
0300
0200
0000
0000
0000
0020
0000
0000
0030
0020
0000
0000
0300
0100
0030
0010
0000
1000
0000
0001
0000
2002
0000
0000
0000
0000
0000
3003
0000
,  // measure 41
0101
0000
0001
1000
0000
1000
0001
0000
0010
0000
0100
0000
0010
0001
0100
0010
,  // measure 42
1000
0000
0001
1000
0000
1000
0100
0000
1000
0000
0010
0000
0100
0010
1000
0010
,  // measure 43
0100
0000
0001
0100
0000
0001
1000
0000
0001
0000
0010
0000
0100
0010
0001
0010
,  // measure 44
0001
0000
1000
0100
0000
1000
0010
0000
0100
0000
0001
0000
1000
0010
1000
0100
,  // measure 45
0010
0000
0100
0010
0000
0010
0001
0000
1000
0000
0100
0000
1000
0010
0100
0001
,  // measure 46
0010
0000
0010
0001
0000
0001
0100
0000
0010
0000
1000
0000
0001
0010
0001
1000
,  // measure 47
0001
0000
1000
0100
0000
0100
0010
0000
0100
0000
1000
0000
0100
0010
0001
1000
,  // measure 48
0010
0000
0100
0001
0000
0001
0010
0000
0100
0000
0010
0000
0001
0010
0100
1000
,  // measure 49
0100
1000
0010
0100
0001
1000
0002
2003
,  // measure 50
3010
1000
0010
0100
0001
0010
0200
0320
,  // measure 51
0031
1000
0100
1000
0010
1000
0002
2003
,  // measure 52
3010
1000
0001
0100
0001
1000
0200
2300
,  // measure 53
3010
0100
0010
0100
0001
1000
0002
2003
,  // measure 54
3001
0010
0100
0010
0001
1000
0200
0320
,  // measure 55
0130
1000
0010
0100
0001
0010
0200
2300
,  // measure 56
3100
0000
0000
0000
1000
0001
1000
0000
0001
0000
1000
0000
0001
0000
1000
0000
0001
0000
1000
0000
0001
0000
1000
0000
0001
0000
0000
0000
0000
0000
0000
0000
,  // measure 57
0100
0010
1000
0010
0100
0010
1000
0010
0100
0001
0010
0100
0010
0001
1000
0001
,  // measure 58
0000
0000
1000
0100
0010
0100
1000
0010
0100
0001
0010
0001
1000
0100
0010
0001
,  // measure 59
0000
0000
1000
0001
0010
0001
0100
0001
1000
0010
1000
0100
1000
0010
1000
0100
,  // measure 60
1000
0001
0010
0001
0100
0010
1000
0001
0010
0001
1000
0001
0010
0001
0010
0100
,  // measure 61
2000
0000
0000
0000
3200
0000
0000
0000
0302
0000
0000
0000
0103
0010
0001
1000
,  // measure 62
0020
0000
0000
0000
0230
0000
0000
0000
0302
0000
0000
0000
1003
0001
0010
0001
,  // measure 63
1000
0100
0001
0100
1000
0100
0001
0100
,  // measure 64
1000
0000
0010
0000
0100
0000
0001
0000
0010
0000
0100
0000
0010
0000
0001
0000
1000
0001
1000
0000
0001
1000
0001
0000
1000
0001
1000
0000
0001
1000
0001
0000
,  // measure 65
0100
0000
0000
0000
;
