#TITLE:Zirkfied;
#SUBTITLE:;
#ARTIST:iconoclasm;
#TITLETRANSLIT:;
#SUBTITLETRANSLIT:;
#ARTISTTRANSLIT:;
#GENRE:;
#CREDIT:;
#BANNER:;
#BACKGROUND:;
#LYRICSPATH:;
#CDTITLE:;
#MUSIC:Zirkfied.mp3;
#OFFSET:-5.117000;
#SAMPLESTART:9.672428;
#SAMPLELENGTH:10.285713;
#SELECTABLE:YES;
#DISPLAYBPM:*;
#BPMS:0.000000=105.000000
,8.000000=210.000000
,188.000000=105.000000
,230.000000=210.000000
,294.000000=105.000000
,300.000000=52.500000
,301.000000=210.000000
,349.000000=420.000000
,353.000000=210.000000
,354.000000=105.000000
;
#STOPS:44.000000=0.857000,
153.000000=0.143000,
153.500000=0.143000
;
#BGCHANGES:;
#KEYSOUNDS:;
#ATTACKS:;

//---------------dance-single - ----------------
#NOTES:
     dance-single:
     :
     Hard:
     13:
     0.925926,1.000000,0.462963,0.095532,1.000000,806.000000,63.000000,13.000000,0.000000,0.000000,0.000000,0.925926,1.000000,0.462963,0.095532,1.000000,806.000000,63.000000,13.000000,0.000000,0.000000,0.000000:
// measure 0
1000
0010
1000
0100
,  // measure 1
1000
0000
0001
0000
0100
0001
1000
0010
1000
0000
0000
0000
0101
0000
0000
0100
,  // measure 2
0001
1000
0001
1000
0001
0010
0100
1000
0001
1000
0000
0000
,  // measure 3
0001
1000
0100
0010
0100
1000
0001
0010
0100
1000
0000
0000
,  // measure 4
1100
0101
0011
1100
,  // measure 5
0001
0100
1000
0100
0010
1000
0001
0010
1000
0010
0001
0100
,  // measure 6
0010
0000
0000
0100
0010
1000
0001
0010
0100
1000
0000
0000
,  // measure 7
0011
0000
0000
1000
0100
0010
0001
1000
0010
0100
0000
0000
,  // measure 8
0101
0011
1100
1010
,  // measure 9
1000
0010
0100
0001
0010
0100
1000
0010
0100
0001
1000
0001
,  // measure 10
0010
0010
0100
0100
1000
1000
0001
0001
0100
0100
0010
0010
,  // measure 11
0110
0000
0000
0000
0001
0000
1000
0000
0010
0000
0100
0001
0000
0100
0001
0000
,  // measure 12
1000
0000
0100
0000
0010
0000
0100
0000
1000
0000
0001
0010
0000
0001
0010
0000
,  // measure 13
0001
0000
0100
0000
0001
0000
1000
0000
0100
0000
0010
0001
0000
0010
0001
0000
,  // measure 14
1000
0000
0100
0000
0010
0000
0001
0000
0100
0000
0010
0100
0000
0010
0100
0000
,  // measure 15
0010
1000
0001
1000
0010
1000
0000
1000
,  // measure 16
0001
1000
0010
0100
0001
0100
0000
0010
,  // measure 17
1000
0001
0010
0010
0100
0000
1000
1000
,  // measure 18
0100
0000
0010
0010
0001
0000
0010
0010
,  // measure 19
0001
0000
1000
0000
0001
0000
0010
0000
0000
1000
0000
0000
0010
0000
0000
0100
0000
0000
0000
0000
0000
0100
0000
0000
,  // measure 20
0010
0001
1000
0001
0010
0001
1000
0100
,  // measure 21
0010
0100
1000
0001
0010
0001
1000
0100
,  // measure 22
0010
0001
0100
0001
0010
0001
1000
0100
,  // measure 23
0010
0100
1000
0001
0010
0100
0000
1000
,  // measure 24
0001
1000
1000
0001
0010
0100
0000
1000
,  // measure 25
0100
0010
0001
0001
0100
0001
1000
0010
,  // measure 26
0100
0010
1000
0001
0100
1000
0100
0001
,  // measure 27
0100
0010
1000
0010
1000
0010
0100
0010
,  // measure 28
0100
0001
0100
0001
0010
0001
0010
0100
,  // measure 29
0010
0000
0000
0100
0000
0000
1000
0000
0100
0000
1000
0000
0100
0000
0010
0000
0100
0000
0010
0000
0001
0000
0010
0000
,  // measure 30
0001
0000
0000
0000
1000
0000
0000
0000
0001
0000
0000
0000
1000
0000
0000
0100
0000
0000
0010
0000
0000
0100
0000
0000
1000
0000
0000
0000
0000
0000
0000
0000
0000
0000
0000
0000
1000
0000
0000
0000
0100
0000
0000
0000
0010
0000
0000
0000
,  // measure 31
0001
0000
1000
0000
0100
0000
0110
0000
0000
0000
0000
0000
0010
0000
0000
0001
0000
0000
0011
0000
0000
0000
0000
0000
,  // measure 32
0001
0100
0101
0000
0100
0010
0110
0000
,  // measure 33
0010
1000
1010
0000
1000
0001
1001
0000
,  // measure 34
0001
0010
0011
0000
0010
0100
0110
0000
,  // measure 35
0100
1000
1001
0000
1010
0000
0101
0000
,  // measure 36
0011
1100
0110
0011
,  // measure 37
0110
0000
0000
0001
0000
1000
0010
0000
0100
0001
0000
0001
,  // measure 38
0010
0000
0000
0000
0100
0000
1100
0000
0000
0011
0000
0000
0001
0000
0100
0000
1000
0000
0100
0000
0010
0000
1000
0000
,  // measure 39
0001
0000
1000
0001
0010
0100
1000
0000
0001
1000
0100
0010
,  // measure 40
0001
0000
1000
0001
0100
0010
1000
0000
0001
1000
0010
0100
,  // measure 41
0010
0000
1000
0010
0100
0001
0010
0000
0100
0010
0001
1000
,  // measure 42
0010
0000
0100
0010
1000
0001
0010
0100
1000
0001
0010
0100
,  // measure 43
1000
0001
0100
0010
1000
0001
0010
0100
0010
0001
0100
0010
,  // measure 44
1000
0100
0010
0100
1000
0010
0100
0001
0010
0100
1000
0010
,  // measure 45
0100
0010
0100
0001
0100
0001
0010
0001
0010
0100
0010
0100
,  // measure 46
1000
0100
1000
0001
1000
0010
1000
0010
0100
0010
0100
0001
,  // measure 47
0100
0001
0010
0001
,  // measure 48
1000
0100
1000
0001
,  // measure 49
0100
0000
0010
0000
0100
0000
0001
0100
,  // measure 50
0001
1000
0100
0010
0001
0010
1000
0010
,  // measure 51
0100
0000
0100
0010
0001
0000
0000
0000
,  // measure 52
1000
0000
0001
0010
0100
0000
0000
0000
,  // measure 53
1000
0000
0001
0010
0100
0010
0100
1000
,  // measure 54
0010
0000
0100
0000
0010
0000
1000
0000
0001
0000
0010
0000
0001
0000
0000
1000
,  // measure 55
0001
1000
0001
1000
0001
1000
0001
1000
0001
1000
0001
0000
0000
0000
0000
0000
1000
0001
1000
0001
1000
0001
1000
0001
0010
0001
0010
0001
0010
0001
0010
0100
,  // measure 56
0010
0000
0000
0000
0000
0000
0100
0000
0000
0000
0000
0000
0010
0000
0000
0000
0000
0000
0100
0000
0000
0000
0000
0000
0010
0000
0000
0000
0000
0000
0100
0000
0000
0000
0000
0000
0010
0000
0000
0000
0000
0000
0100
0000
0000
0000
0000
0000
1000
0000
0000
0000
0000
0000
0100
0000
0000
0000
0000
0000
1000
0000
0000
0000
0000
0000
0100
0000
0000
0000
0000
0000
1000
0000
0000
0000
0000
0000
0100
0000
0000
0000
0000
0000
1000
0000
0000
0000
0000
0000
0100
0000
0000
0000
0000
0000
1100
0000
0000
0000
0000
0000
0000
0000
0000
0000
0000
0000
0000
0000
0000
0000
0011
0000
0000
0000
0000
0000
0000
0000
0000
0000
0000
0000
0000
0000
0000
0000
0101
0000
0000
0000
0000
0000
0000
0000
0000
0000
0000
0000
0000
0000
0000
0000
1010
0000
0000
0000
0000
0000
0000
0000
0000
0000
0000
0000
0000
0000
0000
0000
1001
0000
0000
0000
0000
0000
0000
0000
0000
0000
0000
0000
0000
0000
0000
0000
0011
0000
0000
0000
0000
0000
0000
0000
0000
0000
0000
0000
0000
0000
0000
0000
,  // measure 57
0000
0000
0000
0000
0000
0000
0000
0000
0000
0000
0000
0000
0000
0000
0000
0000
0000
0000
0000
0000
0000
0000
0000
0000
0000
0000
0000
0000
0001
0000
0000
0000
0100
0000
0000
0000
0000
0000
0000
0000
0000
0000
0010
0000
0000
0000
0000
0000
0000
0000
0000
0000
0000
0000
1000
0000
0000
0000
0000
0000
0000
0000
0000
0000
0000
0000
0000
0000
0000
0000
0000
0000
0000
0000
0000
0000
0000
0000
0000
0000
0000
0000
0000
0000
0000
0000
0000
0000
0000
0000
0000
0000
0000
0000
0000
0000
0001
0000
0000
0000
0000
0000
0000
0000
0000
0000
0000
0000
0100
0000
0000
0000
0000
0000
0000
0000
0000
0000
0000
0000
0001
0000
0000
0000
0000
0000
0000
0000
0000
0000
0000
0000
0100
0000
0000
0000
0000
0000
0000
0000
0000
0000
0000
0000
0020
0000
0000
0000
0000
0000
0000
0000
0000
0000
0000
0000
0000
0000
0000
0000
0000
0000
0000
0000
0000
0000
0000
0000
0000
0000
0000
0000
0000
0000
0000
0000
0000
0000
0000
0000
0000
0000
0000
0000
0000
0000
0000
0000
0000
0000
0000
0000
,  // measure 58
0030
0000
0000
0100
0000
0000
0010
0000
0000
1000
0000
0000
0001
0000
1000
0000
0100
0000
0010
0000
0001
0000
1000
0000
,  // measure 59
0100
0000
0000
0000
0010
0000
0000
0000
0001
0000
0000
0000
1000
0000
0000
0000
0001
0000
0000
0000
0010
0000
0000
0000
0001
0000
0000
0100
0000
0000
0000
0000
0000
0000
0000
0000
0011
0000
0000
0000
0000
0000
0000
0000
0000
0000
0000
0000
,  // measure 60
0001
0100
0000
0000
1010
0000
0000
0000
1000
0100
0000
0000
0110
0000
0000
0000
,  // measure 61
0100
1000
0000
0000
1001
0000
0000
0000
0001
0100
0010
1000
0001
1000
0200
0000
,  // measure 62
0000
0000
0000
0000
1300
0000
0000
0000
0100
1000
0100
0010
0001
1000
0020
0000
,  // measure 63
0000
0000
0000
0000
0000
0000
0000
0000
0000
0000
0000
0000
0130
0000
0000
0000
0000
0000
0000
0000
0000
0000
0000
0000
0001
0000
0000
0000
0100
0000
0010
0000
0000
1000
0000
0000
0001
0000
0000
0000
0000
0000
0000
0000
0000
0000
0000
0000
,  // measure 64
0001
0010
1000
0010
0100
1000
0002
0203
,  // measure 65
0310
0000
0010
0000
0100
0010
1000
0001
1000
0010
1000
0010
0200
0000
0000
0000
,  // measure 66
0300
0000
0000
0010
0000
0000
0100
0000
0000
0001
0000
0000
1000
0000
0001
0000
0010
0000
0100
0000
1000
0000
0010
0000
,  // measure 67
0100
0000
0000
0000
0001
0000
0000
0000
1000
0000
0000
0000
0001
0000
0000
0000
0010
0000
0000
0000
0100
0000
0000
0000
1000
0000
0000
0100
0000
0000
0000
0000
0000
0000
0000
0000
0011
0000
0000
0000
0000
0000
0000
0000
0000
0000
0000
0000
,  // measure 68
0010
0100
0000
0000
1100
0000
0000
0000
1000
0100
0000
0000
0011
0000
0000
0000
,  // measure 69
0010
0100
0000
0000
1001
0000
0000
0000
0001
1000
0010
1000
0200
0000
0000
0000
,  // measure 70
0300
0000
0010
0100
1000
0000
0010
0000
0100
0001
0100
0000
0010
1000
0010
0000
,  // measure 71
1000
0001
1000
0000
0001
0010
0001
0000
1000
0100
0010
0000
0100
0010
0001
0000
,  // measure 72
0001
1000
0010
0000
0100
0010
1000
0000
0001
0100
0010
0000
1000
0100
0010
0000
,  // measure 73
0100
0000
0000
1000
0000
0000
0010
0000
0000
0000
0000
0000
0100
0000
0000
0001
0000
0000
0010
0000
0000
0000
0000
0000
1000
0000
0100
0000
0010
0000
0100
0000
1000
0000
0010
0000
0100
0000
0001
0000
0010
0000
0100
0000
0010
0000
0001
0000
,  // measure 74
0100
0010
1000
0001
0010
0100
0010
0001
1000
0010
1000
0100
1000
0001
0010
0100
1000
0001
0010
0100
1000
0001
0010
0100
,  // measure 75
0010
0001
1000
0100
0010
0100
1000
0001
0010
0100
1000
0001
1001
0000
0000
0000
0000
0000
0000
0000
0000
0000
0000
0000
1000
0000
0000
0000
0010
0000
0000
0000
0100
0000
0000
0000
0001
0000
0000
0000
0010
0000
0000
0000
0100
0000
0000
0000
,  // measure 76
1100
0000
0000
0011
0000
0000
0001
0010
0100
0010
0001
1000
,  // measure 77
1010
0101
0011
1100
,  // measure 78
1010
0000
0000
1000
0001
0100
0010
1000
0001
0100
0010
1000
,  // measure 79
0001
0100
0010
1010
0000
1000
0010
0100
0001
0011
0000
0010
,  // measure 80
0100
1000
0001
1001
0000
0001
0100
0010
1000
1010
0000
1000
,  // measure 81
0100
0010
0001
0011
0000
0001
0100
0010
1000
1100
0000
1000
,  // measure 82
0100
0010
0001
1001
0000
0001
0100
0010
1000
1100
0000
1000
,  // measure 83
0100
0010
0001
1000
0001
0010
0200
0000
0310
0001
1000
0010
,  // measure 84
0200
0000
0310
1000
0010
0100
0002
0000
0103
0010
1000
0001
,  // measure 85
2000
0000
3001
0010
0100
1000
0010
0000
0100
0010
1000
0001
,  // measure 86
0100
0000
0010
1000
0001
0010
0100
1000
0100
0010
0100
1000
,  // measure 87
0010
0100
0001
1001
0000
1000
0000
0001
0000
1001
0000
1000
,  // measure 88
0000
0001
0000
1001
0000
0000
0220
0000
0000
0000
0000
0000
,  // measure 89
0000
0000
0000
0000
0000
0330
0000
0000
;

//---------------dance-single - ----------------
#NOTES:
     dance-single:
     :
     Medium:
     10:
     0.719115,0.889137,0.426220,0.382128,0.448266,575.000000,58.000000,52.000000,0.000000,0.000000,0.000000,0.719115,0.889137,0.426220,0.382128,0.448266,575.000000,58.000000,52.000000,0.000000,0.000000,0.000000:
1000
0011
0100
1010
,
1000
0000
0001
0000
0100
0001
0010
0100
1000
0000
0000
0000
0100
0000
0000
1000
,
1001
0100
0001
0011
,
1100
1000
0010
0110
,
0101
0011
0110
1100
,
1010
0101
1001
0110
,
1001
0001
0100
1010
,
0101
0001
0010
1100
,
0011
0101
1010
1100
,
0110
0011
1010
0101
,
0001
0100
0010
1000
0001
0100
0010
1000
0001
0100
0010
1000
,
0001
0000
1000
0100
0010
0100
0000
0100
,
0010
0001
1000
0001
1000
0000
0001
0000
,
0010
0100
1000
0010
1000
0000
0010
0100
,
0010
0000
0100
0001
0100
0000
0001
1000
,
0010
1000
0001
0010
0100
1000
0000
1000
,
0001
1000
0001
0010
0100
1000
0000
0001
,
0100
0010
1000
0100
1000
0000
0100
0010
,
0100
0000
0010
0001
0010
0000
0001
0100
,
0010
1000
0001
0100
1000
0100
0000
0010
,
1000
0001
0010
0100
1000
0000
0100
0000
,
0001
0000
0100
0010
0001
0000
0010
0100
,
1000
0000
0001
0100
0010
0000
0100
0010
,
1000
0000
0001
0010
0100
1000
0000
1000
,
0001
1000
0001
0010
0100
1000
0000
0001
,
0100
0010
1000
0010
0100
0000
0010
1000
,
0001
0000
0010
1000
0100
0000
0010
0001
,
1000
0100
1000
0000
0100
0000
0010
0000
,
0001
1000
0100
0010
,
0001
0000
1000
0100
0010
0001
1000
0100
,
0010
0000
0000
0001
0000
0000
1000
0000
0100
0000
0010
0000
0001
0000
0000
0000
0000
0000
0001
0000
0010
0000
0100
0000
,
1000
0001
0010
0200
0000
0000
2300
0000
0000
3020
0000
0000
,
0032
0023
0230
0320
,
2030
3002
0023
0032
,
2003
3002
0203
0302
,
2003
3200
0302
0203
,
2300
3020
0032
0023
,
0230
0320
2030
3002
,
0023
0000
0000
0000
0000
0000
0130
0000
0000
1001
0000
0000
1000
0000
0001
0000
1000
0000
0001
0000
1000
0000
0001
0000
,
1000
0000
1000
0100
0000
0100
1000
0000
1000
0100
0000
0100
,
0010
0000
0010
0100
0000
0100
0010
0000
0010
0100
0000
0010
,
0001
0000
0001
0010
0000
0010
0001
0000
0001
0010
0000
0010
,
0001
0000
0001
1000
0000
1000
0010
0000
0010
0100
0000
0100
,
0002
0000
0000
0013
0000
0100
2000
0000
0000
3010
0000
1000
,
0002
0000
0000
0103
0000
0001
2000
0000
0000
3100
0000
1000
,
0020
0000
1030
0200
0000
1300
0002
0000
0000
0103
0000
0000
,
1001
0000
0001
0100
0000
0010
1000
0000
1000
0100
0000
0010
,
0001
0010
0001
1000
,
0100
0010
0100
1000
,
0100
0000
1000
0000
0001
0000
1000
0100
,
1000
0010
0100
0001
1000
0010
1000
0001
,
0100
0000
0001
1000
0010
0000
0000
0000
,
0100
0000
0010
1000
0001
0000
0000
0000
,
1000
0000
0001
0100
0010
0100
0001
1000
,
0100
1000
0010
0100
0010
1000
0001
0000
,
1000
0010
1000
0010
1000
0010
1000
0000
0000
0000
0000
0000
0001
0100
0001
0100
0001
0100
0010
0100
0010
0100
0010
0100
,
0010
1000
0010
1000
0010
1000
0001
1000
0001
1000
0001
1000
0001
0000
0010
0000
0100
0000
1000
0000
0010
0000
1001
0000
,
0000
0000
0000
0000
0000
0000
0000
0000
0000
0000
0000
0000
0000
0000
0000
0000
0000
0000
0000
0000
0000
0000
0000
0000
0001
0000
0000
0000
0000
0000
0000
0000
1000
0000
0000
0000
0000
0000
0000
0000
0010
0000
0000
0000
0000
0000
0000
0000
0000
0000
0000
0000
0000
0000
1000
0000
0000
0000
0000
0000
0000
0000
0000
0000
0000
0000
0000
0000
0000
0000
0000
0000
0000
0000
0000
0000
0000
0000
0000
0000
0000
0000
0000
0000
0000
0000
0000
0000
0000
0000
0000
0000
0000
0000
0000
0000
1000
0000
0000
0000
0000
0000
0000
0000
0000
0000
0000
0000
0000
0000
0000
0000
0000
0000
0000
0000
0000
0000
0000
0000
0001
0000
0000
0000
0000
0000
0000
0000
0000
0000
0000
0000
0000
0000
0000
0000
0000
0000
0000
0000
0000
0000
0000
0000
0020
0000
0000
0000
0000
0000
0000
0000
0000
0000
0000
0000
0000
0000
0000
0000
0000
0000
0000
0000
0000
0000
0000
0000
0000
0000
0000
0000
0000
0000
0000
0000
0000
0000
0000
0000
0000
0000
0000
0000
0000
0000
0000
0000
0000
0000
0000
0000
,
0030
0100
0010
0001
1000
0010
0100
0001
,
0010
0100
0010
0001
1002
0000
0103
0000
,
2001
3100
2010
3010
,
0201
0000
0301
0000
0001
1000
0100
0020
,
0000
0000
0130
0000
0010
0001
1000
0200
,
0000
0000
0310
0000
0100
1000
0010
0000
,
0000
0100
0001
1000
0100
0010
0100
0010
,
0000
0001
0010
0100
0010
0001
1000
0000
,
0000
0001
1000
0010
1000
0001
0010
0100
,
0010
0001
1000
0010
0210
0000
0301
0000
,
2010
3100
0021
0130
,
2100
0000
3001
0000
1000
0001
0020
0000
,
0030
0100
0010
0001
0100
1000
0100
0010
,
1000
0001
0010
0100
1000
1000
0010
0000
,
0100
0100
0001
0000
1000
1000
0001
0010
,
0100
0100
0010
0001
1001
1000
0100
1100
,
0101
0001
0010
1100
0110
0011
1100
0101
,
0002
0203
2300
3001
1001
0000
0000
0000
0001
0000
0000
0000
0100
0000
0000
0000
,
1010
0101
0001
0010
,
1100
0110
0011
1100
,
0101
1010
0101
1001
,
0110
0000
0000
0001
0000
1000
0010
0000
0010
0100
0000
0100
,
0001
0000
0001
0010
0000
0010
0100
0000
0100
1000
0000
1000
,
0001
0000
0001
0100
0000
0100
0010
0000
1000
0010
0000
0100
,
0001
0000
0001
0010
0000
0100
1000
0000
1000
0001
0000
0100
,
0010
0000
1000
0001
0010
0100
1000
0000
0001
1000
0010
0100
,
0001
0000
0010
0100
1000
0010
0100
0000
0010
1000
0001
0010
,
0100
0000
1000
0100
0010
0001
1000
0000
0001
0010
0100
1000
,
0001
0000
0100
0010
1000
0001
0010
0100
0010
0001
0100
0010
,
1000
0001
1000
0010
0000
0100
0000
0010
0000
0100
0000
0010
,
0000
0100
0000
0010
0000
0000
2002
0000
0000
0000
0000
0000
,
0000
0000
0000
0000
0000
3003
0000
0000
;

//---------------dance-single - ----------------
#NOTES:
     dance-single:
     :
     Easy:
     7:
     0.535399,0.552800,0.558495,0.418871,0.022046,377.000000,76.000000,57.000000,0.000000,0.000000,0.000000,0.535399,0.552800,0.558495,0.418871,0.022046,377.000000,76.000000,57.000000,0.000000,0.000000,0.000000:
1000
0010
1000
0001
,
0100
0001
1000
0010
0100
0000
0001
0000
,
1001
0000
0000
0110
,
0110
0000
0000
0101
,
1010
1010
0011
0011
,
1001
0000
0110
0110
,
1001
0000
0000
0101
,
0101
0000
0000
1100
,
1100
0010
0011
0010
,
0110
0100
0110
0010
,
1001
0110
1001
0110
,
1001
0000
0001
0100
0010
1000
0000
0001
,
1000
0100
1000
0010
,
0100
0001
0001
1000
,
1000
0001
0100
0010
,
1000
0000
0001
0010
0100
1000
0000
0000
,
0000
0000
0001
0010
0100
1000
0000
0000
,
0000
0001
1000
0010
,
1000
0001
0100
0010
,
1000
0001
0200
0000
0000
0000
0000
0000
,
0310
2000
0000
3020
,
0000
0230
0000
0302
,
0000
2000
0000
0000
,
3003
0000
0001
0010
0100
1000
0000
0000
,
0000
0000
0001
0010
0100
1000
0000
0000
,
0000
0001
0100
0010
,
1000
0001
0010
0100
,
1000
0001
0100
0010
,
1000
0001
0100
0010
,
1000
0000
0001
0100
0001
0100
0010
0100
,
0010
1000
0020
0000
0000
0000
0130
0000
,
0001
2000
3100
2000
,
3001
0200
0310
0200
,
0301
0200
0310
2000
,
3010
0200
0310
2000
,
3001
2000
3100
0020
,
0031
0020
0130
0020
,
0031
2000
3100
0020
,
0031
0000
0001
1000
1001
0000
0110
0000
,
0201
0301
2010
3010
,
2100
3100
0021
0031
,
1002
0103
2001
3100
,
2001
3010
1002
0013
,
0021
0130
2100
3010
,
0201
0310
2010
3001
,
0001
0100
0010
1000
,
0011
0110
1100
0110
,
1001
0001
0100
0001
,
1000
0100
1000
0001
,
0100
0000
0001
0000
1000
0000
0001
0100
,
0010
0100
0001
1000
0001
0010
0100
1000
,
0100
0000
1000
0001
1000
0000
0000
0000
,
0001
0000
0100
0010
0100
0000
0000
0000
,
0010
0000
0100
0001
1000
0100
1000
0001
,
0100
0001
0010
0100
1000
0001
1000
0000
,
0002
0000
0000
0000
0000
0003
0000
0000
2000
0000
0000
0000
3002
0000
0000
0000
,
0203
0000
0000
0320
0000
0000
0130
0001
0100
0010
1000
0001
,
0000
0000
1000
0001
1000
0000
0000
0000
1000
0000
0001
0000
0020
0000
0000
0000
,
0000
0130
1000
0010
0100
0000
0001
0000
,
0010
0000
0100
0000
1000
0010
1000
0000
,
0010
0100
0010
0000
0100
0001
0100
0000
,
0001
1000
0001
0000
1000
0000
0010
0200
,
0000
0000
0301
0000
1000
0000
0001
0020
,
0000
0130
0010
0001
,
0000
0000
1000
0000
0001
0100
0001
0100
,
0000
0000
0000
0000
0001
1000
0020
0000
,
0000
0130
0001
1000
0001
0000
1000
0000
,
0100
0010
0001
0010
,
0100
1000
0100
0001
,
0100
0000
1000
0000
0010
1000
0010
0000
,
0000
0100
0001
1000
0010
0000
0100
0000
,
0001
1000
1001
0001
,
0101
0100
1010
0101
,
0011
0000
1100
0000
1001
0000
0000
0101
,
0101
0000
0000
1100
1000
0100
0001
0100
,
2000
0000
0001
3001
1001
0000
0000
0000
0000
0000
0000
0000
0000
0000
0000
0000
,
0101
1010
0000
0000
,
1100
0011
1100
0110
,
0011
1001
0000
0101
,
1010
1002
0103
2001
,
3100
2010
3010
0201
,
0301
0021
0130
2100
,
3010
1002
0013
0210
,
1300
0000
1000
0100
0020
0000
0031
0100
,
0020
0000
0130
0001
2000
0000
3001
0010
,
0200
0000
1300
0010
0200
0000
0310
1000
,
0002
0000
0013
0100
1000
0100
0001
0100
,
1000
0001
0101
0000
0000
0000
1100
0000
,
0000
0101
1001
0000
;

//---------------dance-single - ----------------
#NOTES:
     dance-single:
     :
     Beginner:
     4:
     0.243554,0.357694,0.169018,0.014697,0.000000,207.000000,23.000000,2.000000,0.000000,0.000000,0.000000,0.243554,0.357694,0.169018,0.014697,0.000000,207.000000,23.000000,2.000000,0.000000,0.000000,0.000000:
1000
0010
1000
0100
,
1000
0001
0010
0001
,
1001
0000
0000
0010
,
1001
0000
0000
0100
,
1001
1001
0110
0110
,
0010
0000
0100
0100
,
1001
0000
0000
0010
,
1001
0000
0000
0100
,
1001
1001
0110
0110
,
0010
0000
0100
0100
,
0001
0001
0001
0001
,
0001
1000
0000
0000
,
1000
1000
0000
0001
,
0000
0100
0000
0010
,
0000
1000
0000
0001
,
0000
1000
0000
0000
,
0000
1000
0000
0000
,
0000
0100
0000
0010
,
0000
0001
0000
0010
,
0000
0100
0000
0000
,
1000
1000
0000
0001
,
0000
0100
0000
0010
,
0000
1000
0000
0010
,
0000
0100
0000
0000
,
0000
0001
0000
0000
,
0000
1000
0000
0001
,
0000
0100
0000
0010
,
0100
1001
0000
0000
,
0000
0000
0000
0000
,
0000
0110
0000
0000
,
0000
0100
0000
0000
,
0000
0001
0000
1000
,
0000
0010
0000
1000
,
0000
0001
0000
0100
,
0000
0001
0000
1000
,
0000
0001
0000
1000
,
0000
0010
0000
0100
,
0000
0001
0000
1000
,
0000
0001
0000
0000
,
1000
0000
1000
0000
,
0001
0000
0100
0000
,
0001
0000
0010
0000
,
0001
0001
1000
1000
,
0010
0000
0100
0000
,
0001
0000
0010
0000
,
0001
0000
1000
0000
,
0001
0010
0100
1000
,
1001
0000
0001
0000
,
0100
0000
0001
0000
,
1000
0000
0100
0000
,
1000
1000
0010
0100
,
0001
0001
1000
0000
,
1000
1000
0100
0000
,
0100
0000
0010
0000
,
0001
0000
1000
0000
,
0020
0030
0100
0001
,
0010
0100
1000
0000
,
0000
0001
1000
0010
,
0000
1000
0001
0000
,
0100
0000
0010
0000
,
0100
0000
0001
0000
,
1000
0000
0001
0001
,
0001
1000
0001
0001
,
0001
0010
0001
0000
,
0100
0000
0020
0000
,
0000
0030
0100
0010
,
0000
0100
0010
0000
,
1000
0000
0001
0000
,
0100
0000
0010
0000
,
1000
0000
0100
0010
,
0000
0010
0100
0000
,
1000
0000
0001
0100
,
0001
1000
0100
0010
,
0001
1000
1001
0000
,
0001
0000
1000
0001
,
0100
0110
0000
0000
,
0010
1001
0000
0000
,
0100
1001
1001
0110
,
0110
0100
0000
0010
,
0010
1000
0000
0010
,
0000
0100
0000
0001
,
0000
1000
0000
0001
,
0000
0010
0000
0001
,
0000
1000
0000
0001
,
0000
0100
0000
0010
,
0000
1000
0000
0001
,
0000
1000
0000
0001
,
0000
1000
0000
0001
,
0000
1000
1001
0000
;
