#VERSION:0.83;
#TITLE:Zenith;
#SUBTITLE:;
#ARTIST:Sanxion7;
#TITLETRANSLIT:;
#SUBTITLETRANSLIT:;
#ARTISTTRANSLIT:;
#GENRE:;
#ORIGIN:;
#CREDIT:;
#BANNER:Zenith.png;
#BACKGROUND:Zenith-bg.png;
#PREVIEWVID:;
#JACKET:Zenith-jacket.png;
#CDIMAGE:;
#DISCIMAGE:;
#LYRICSPATH:;
#CDTITLE:;
#MUSIC:Zenith.ogg;
#OFFSET:-1.143001;
#SAMPLESTART:79.536011;
#SAMPLELENGTH:12.799995;
#SELECTABLE:YES;
#BPMS:0.000=150.000,
264.000=110.000,
267.000=68.000;
#STOPS:;
#DELAYS:;
#WARPS:;
#TIMESIGNATURES:0.000=4=4;
#TICKCOUNTS:0.000=4;
#COMBOS:0.000=1;
#SPEEDS:0.000=1.000=0.000=0;
#SCROLLS:0.000=1.000;
#FAKES:;
#LABELS:0.000=Song Start;
#BGCHANGES:;
#KEYSOUNDS:;
#ATTACKS:
;

//---------------dance-single - ----------------
#NOTEDATA:;
#CHARTNAME:;
#STEPSTYPE:dance-single;
#DESCRIPTION:;
#CHARTSTYLE:;
#DIFFICULTY:Hard;
#METER:8;
#RADARVALUES:0.462642,0.562227,0.343210,0.000000,0.017601,368.000000,329.000000,39.000000,0.000000,0.000000,0.000000,0.000000,0.000000,0.000000,0.462642,0.562227,0.343210,0.000000,0.017601,368.000000,329.000000,39.000000,0.000000,0.000000,0.000000,0.000000,0.000000,0.000000;
#CREDIT:;
#NOTES:
0000
0000
0000
0000
,
0000
0000
0000
0000
,
0000
0000
0000
0000
,
0000
0000
0000
0000
,
1000
0000
0000
0000
,
0000
0000
0000
0000
0100
0000
0010
0001
,
0010
0000
0000
0000
,
0000
0000
0001
0000
,
1000
0000
0100
0000
,
1000
0000
0000
0000
0001
0000
0000
1000
,
0100
0000
0010
0000
,
0100
0000
0010
0001
,
1000
0000
0000
0000
0010
0000
0000
0100
,
0001
0000
0010
0100
,
1000
0001
0100
0010
,
1000
0100
0010
0100
,
1001
0000
0000
0000
1000
0000
0001
1000
0100
0000
0000
0000
0010
0000
0000
0000
,
0001
0100
0110
0101
,
0011
0001
1100
1000
,
0101
0001
0011
0001
,
1000
0100
1000
0010
0100
0000
0101
0000
,
0011
1000
1100
0101
,
1100
0100
0010
0001
,
1001
0000
1000
0000
0010
0000
0100
0001
,
1001
0000
0001
0100
0101
0000
0100
0010
,
0110
0000
0010
1000
1010
0000
1000
0100
,
1100
0000
0100
0010
0110
0000
0010
0001
,
0011
0000
0001
0000
0010
0001
0100
1000
,
0100
0000
0000
0000
0010
0000
1000
0001
0100
0000
0000
0000
0010
0000
0100
0001
,
1000
0000
0001
0000
0010
0100
0010
0000
,
1000
0100
0010
0001
0010
0100
1000
0100
,
0010
0100
1000
0100
0010
0001
1000
0100
,
1000
0000
0010
1000
0000
0001
0100
0000
,
0010
1000
0000
0100
0001
0010
0100
1000
,
0001
0000
0010
0001
0000
1000
0100
0000
,
0010
0001
0000
0100
1000
0010
0100
0001
,
1000
0000
0010
1000
0000
0100
0001
0000
,
1000
0010
0000
0100
0001
0010
0100
1000
,
0001
0000
0010
0001
0000
1000
0100
0000
,
0001
0010
0000
0100
1000
0010
1000
0001
,
0100
0010
0100
0010
1000
0001
1000
0001
,
0100
0010
0100
0010
1000
0001
1000
0001
,
1000
0100
0010
0100
1000
0001
0010
0100
,
1000
0001
0100
0010
0100
0001
0010
0001
,
1000
0100
0010
0001
0010
0100
0010
0001
,
1000
0100
0001
0010
,
1000
0100
0010
0100
1000
0001
0010
0100
,
1000
0100
0001
0010
,
1000
0001
0100
0001
0010
0100
1001
0110
,
1001
0000
0101
0000
0001
0100
0010
1000
,
0000
1010
0000
0101
0000
1010
0000
1000
,
0100
0000
0000
0000
1000
0100
1000
0010
,
0000
0000
0101
0000
0000
0000
0011
0000
0000
0000
0001
0000
1000
0100
1000
0000
,
0001
0100
0001
0010
0000
0000
0001
0100
,
0000
0000
0001
1000
0000
0100
0000
1001
,
0000
0000
0000
1100
0000
0000
0000
0101
,
0000
0000
0000
1000
0010
0000
0011
0000
,
0001
0010
0000
1100
0000
1000
0010
0001
,
0000
0100
0010
0100
0001
0010
0000
0100
,
1000
0010
0100
0001
0000
0101
0000
1010
,
0000
1100
0000
0110
0000
0100
0010
0001
,
1000
0001
1000
0001
0100
0010
0100
0010
,
1000
0010
1000
0010
0100
0001
0100
0001
,
1000
1000
0010
0010
0100
0100
0001
0001
,
1000
0100
0010
0001
1000
0100
0010
0001
,
1001
0000
1000
0010
,
0100
0000
0000
0001
,
0000
0010
0000
0000
;

//---------------dance-single - ----------------
#NOTEDATA:;
#CHARTNAME:;
#STEPSTYPE:dance-single;
#DESCRIPTION:;
#CHARTSTYLE:;
#DIFFICULTY:Medium;
#METER:6;
#RADARVALUES:0.333153,0.532636,0.290409,0.000000,0.000000,265.000000,232.000000,33.000000,0.000000,0.000000,0.000000,0.000000,0.000000,0.000000,0.333153,0.532636,0.290409,0.000000,0.000000,265.000000,232.000000,33.000000,0.000000,0.000000,0.000000,0.000000,0.000000,0.000000;
#CREDIT:;
#NOTES:
0000
0000
0000
0000
,
0000
0000
0000
0000
,
0000
0000
0000
0000
,
0000
0000
0000
0000
,
1000
0000
0000
0000
,
0000
0000
0000
0000
0100
0000
0010
0001
,
0010
0000
0000
0000
,
0000
0000
0100
0000
,
1000
0000
0010
0000
,
0100
0000
0000
0000
0001
0000
0000
0010
,
0100
0000
1000
0000
,
0010
0000
0100
0001
,
1000
0000
0000
0000
0100
0000
0000
1000
,
0010
0000
0100
0010
,
1000
0100
0010
0001
,
0010
0100
0010
0001
,
1001
0000
0001
0100
0001
0000
0000
0000
,
0000
0000
0100
0010
,
1000
0000
0010
0100
0001
0000
0000
0000
,
1000
0000
0010
0000
,
0100
0010
0100
0001
1000
0000
0100
0000
,
0010
0000
0100
1000
,
0010
0000
0000
0000
,
0100
0000
0000
0000
,
0101
0000
1010
0000
,
1100
0000
1001
0000
,
0011
0000
1100
0000
,
1010
0000
0000
0000
1000
0010
0100
0001
,
1000
0000
0000
0001
0010
0000
0000
0001
,
0010
0000
0000
0000
0100
0100
0100
0000
,
1000
0100
0010
0001
,
1000
0100
0010
0001
1000
0100
0010
0001
,
1001
0000
0000
0110
0000
0000
1001
0000
,
0000
0110
0000
0000
0101
0000
0000
0000
,
1010
0000
0000
0101
0000
0000
1010
0000
,
0000
0101
0000
0000
1001
0000
0000
0000
,
1100
0000
0000
0011
0000
0000
1100
0000
,
0000
0011
0000
0000
1100
0000
0000
0000
,
1010
0000
0000
0110
0000
0000
0101
0000
,
0000
0011
0000
0000
0110
0000
0000
0000
,
1000
1000
0100
0100
,
1000
1000
0010
0010
,
0100
0010
1000
0001
,
0010
0100
0010
0001
,
1000
0100
0010
0001
,
1000
1000
1000
1000
,
0001
0010
0100
1000
,
0001
0001
0010
0010
,
0001
0100
0010
1000
0001
0100
0010
0010
,
0110
0000
0000
0000
0100
0010
0100
0001
,
0000
1000
0000
0100
0000
1000
0000
0001
,
0001
0000
0000
0000
1000
0100
1000
0010
,
0000
0100
0000
0010
0000
0100
0010
1000
,
0001
0100
0001
1000
0000
0000
0100
1000
,
0000
0000
0100
1000
0000
0010
0000
0100
,
0000
0000
0000
0001
0000
0000
0000
0010
,
0000
0000
0100
1000
,
0001
0100
0000
0010
0000
0000
1000
0010
,
0000
0100
0010
1000
0001
1000
0000
0001
,
0010
0100
1000
0100
0000
1000
0000
0010
,
0000
0100
0000
0001
0000
0100
0000
0010
,
1000
0001
1000
0001
1000
0001
1000
0001
,
1000
0001
1000
0001
1000
0001
1000
0001
,
0101
1010
1100
0011
,
1000
0100
0010
0001
1000
0100
0010
0001
,
1000
0000
0001
0100
,
0010
0000
0000
1000
,
0000
0100
0000
0000
;

//---------------dance-single - ----------------
#NOTEDATA:;
#CHARTNAME:;
#STEPSTYPE:dance-single;
#DESCRIPTION:;
#CHARTSTYLE:;
#DIFFICULTY:Easy;
#METER:3;
#RADARVALUES:0.222521,0.295909,0.052802,0.035201,0.000000,177.000000,171.000000,6.000000,4.000000,0.000000,0.000000,0.000000,0.000000,0.000000,0.222521,0.295909,0.052802,0.035201,0.000000,177.000000,171.000000,6.000000,4.000000,0.000000,0.000000,0.000000,0.000000,0.000000;
#CREDIT:;
#NOTES:
0000
0000
0000
0000
,
0000
0000
0000
0000
,
0000
0000
0000
0000
,
0000
0000
0000
0000
,
1000
0000
0000
0000
,
0000
0000
0010
0100
,
0100
0000
0000
0000
,
0000
0000
0010
0000
,
1000
0000
0100
0000
,
0010
0000
0100
0000
,
1000
0000
0001
0000
,
0100
0000
0001
0010
,
0100
0000
0010
0000
,
0001
0000
1000
0001
,
0100
0001
0010
0001
,
1000
0100
0010
0001
,
1001
0000
0001
0000
,
0000
0000
0100
0001
,
0010
0000
0001
0000
,
1000
0000
0010
0000
,
0100
0010
1000
0001
,
1000
0000
0100
1000
,
0100
0000
0000
0000
,
0010
0000
0000
0000
,
0001
0000
0100
0000
,
0010
0000
1000
0000
,
0010
0000
0100
0000
,
0010
0000
1000
0100
,
0010
0000
0100
0000
,
1000
0000
0001
1000
,
1000
0100
0010
0001
,
1000
0100
0010
0001
,
1000
0000
0000
1000
0000
0000
1000
0000
,
0000
1000
0000
0000
1000
0000
0000
0000
,
0001
0000
0000
0001
0000
0000
0001
0000
,
0000
0001
0000
0000
0001
0000
0000
0000
,
0100
0000
0000
0100
0000
0000
0100
0000
,
0000
0100
0000
0000
0100
0000
0000
0000
,
0010
0000
0000
0010
0000
0000
0010
0000
,
0000
0010
0000
0000
0010
0000
0000
0000
,
2000
3000
0020
0030
,
0200
0300
0002
0003
,
1000
0010
0100
0001
,
0100
0010
1000
0001
,
1000
0100
0010
0001
,
1001
0000
0000
0000
,
1000
0100
0010
0001
,
1001
0000
0000
0000
,
0001
0100
0010
0110
,
1001
0000
1000
0000
,
0001
1000
0010
1000
,
0001
0000
0100
0001
,
0010
0001
1000
0100
,
1000
0100
0000
1000
,
0000
0010
0000
0100
,
0001
0000
0010
0000
,
0001
0000
1000
0001
,
0100
0001
0010
0001
,
1000
0100
0100
0000
,
1000
0010
0000
0100
,
0001
0010
0001
1000
,
0001
0001
0010
0010
,
0100
0100
1000
1000
,
0001
0010
0100
1000
,
1000
0100
0010
0001
,
1001
0000
0001
1000
,
0010
0000
0000
0100
,
0000
0001
0000
0000
;

//---------------dance-single - ----------------
#NOTEDATA:;
#CHARTNAME:;
#STEPSTYPE:dance-single;
#DESCRIPTION:;
#CHARTSTYLE:;
#DIFFICULTY:Beginner;
#METER:1;
#RADARVALUES:0.106860,0.177545,0.079202,0.000000,0.000000,85.000000,76.000000,9.000000,0.000000,0.000000,0.000000,0.000000,0.000000,0.000000,0.106860,0.177545,0.079202,0.000000,0.000000,85.000000,76.000000,9.000000,0.000000,0.000000,0.000000,0.000000,0.000000,0.000000;
#CREDIT:;
#NOTES:
0000
0000
0000
0000
,
0000
0000
0000
0000
,
0000
0000
0000
0000
,
0000
0000
0000
0000
,
0000
0000
0000
0000
,
0000
0000
0000
0000
,
0000
0000
0000
0000
,
0000
0000
0000
0000
,
1000
0000
0000
0000
,
0001
0000
0000
0000
,
1000
0000
0000
0000
,
0010
0000
0000
0000
,
0100
0000
0000
0000
,
0010
0000
0000
0000
,
1000
0000
0000
0000
,
0001
0000
0000
0000
,
0110
0000
0100
0000
,
0000
0000
0010
0000
,
1000
0000
0000
0000
,
0001
0000
0000
0000
,
0100
0100
0100
0000
,
0010
0000
1000
0000
,
0001
0000
0000
0000
,
0100
0000
0000
0000
,
0010
0000
0000
0000
,
0010
0000
0000
0000
,
1000
0000
0000
0000
,
0001
0000
1000
0000
,
0001
0000
0000
0000
,
0100
0000
0000
0000
,
0010
0000
0000
0000
,
0100
0000
0000
0000
,
1001
0000
0000
0000
,
0000
0000
0000
0000
,
0110
0000
0000
0000
,
0000
0000
0000
0000
,
1001
0000
0000
0000
,
0000
0000
0000
0000
,
0110
0000
0000
0000
,
0000
0000
0000
0000
,
1000
0000
1000
0000
,
0100
0000
0100
0000
,
0010
0000
0010
0000
,
0001
0000
0001
0000
,
0100
0000
0000
0000
,
1001
0000
0000
0000
,
0010
0000
0000
0000
,
0110
0000
0000
0000
,
0010
0000
0000
0100
,
1001
0000
0000
0000
,
1000
0000
1000
0000
,
0001
0000
0000
0000
,
0100
0000
0100
0000
,
0010
0000
0000
0000
,
1000
0000
0001
0000
,
0100
0000
0000
0000
,
0010
0000
0000
0000
,
1000
0000
0000
1000
,
0000
0000
1000
0000
,
0001
0000
0000
0001
,
0001
0000
1000
0000
,
0010
0000
0010
0000
,
0100
0000
0100
0000
,
0001
0000
1000
0000
,
0010
0000
0100
0000
,
1001
0000
0000
0000
,
0000
0000
0000
0010
,
0000
0100
0000
0000
;

//---------------dance-single - ----------------
#NOTEDATA:;
#CHARTNAME:;
#STEPSTYPE:dance-single;
#DESCRIPTION:;
#CHARTSTYLE:;
#DIFFICULTY:Challenge;
#METER:11;
#RADARVALUES:0.805852,1.006090,0.572017,0.114403,0.805224,641.000000,576.000000,65.000000,13.000000,0.000000,0.000000,0.000000,0.000000,0.000000,0.805852,1.006090,0.572017,0.114403,0.805224,641.000000,576.000000,65.000000,13.000000,0.000000,0.000000,0.000000,0.000000,0.000000;
#CREDIT:;
#NOTES:
// measure 0
0000
0000
0000
0000
,  // measure 1
0000
0000
0000
0000
,  // measure 2
0000
0000
0000
0000
,  // measure 3
0000
0000
0000
0000
,  // measure 4
0101
0000
0000
0000
,  // measure 5
0000
0000
0000
0000
0011
0000
0001
1000
,  // measure 6
0001
0000
0000
0000
,  // measure 7
0000
0000
0110
0000
,  // measure 8
1001
0000
0001
0000
1100
0100
1000
0001
,  // measure 9
0010
0000
0000
0000
0100
0000
0000
0000
1001
0000
0000
0001
0010
0000
0001
0000
,  // measure 10
1001
0000
0001
0000
0101
0100
0010
1000
,  // measure 11
1100
0000
0000
0000
0010
0000
0000
0000
1100
0000
0000
0001
1000
0000
0001
0000
,  // measure 12
0011
0000
0100
0000
0110
0010
0001
1000
,  // measure 13
1100
0000
0000
0000
0010
0000
0001
0000
0101
0000
0000
0001
1000
0000
0010
0000
,  // measure 14
0011
1010
1100
0101
,  // measure 15
0011
0000
1010
0000
1100
0100
0010
0100
,  // measure 16
1001
0000
1000
0000
0010
0000
1000
0001
0100
0000
0001
0000
0010
0000
0000
0000
,  // measure 17
0100
0000
1000
0000
0010
0000
0000
0100
0001
0000
0000
0001
1000
0000
0000
1000
,  // measure 18
0100
0000
0010
0000
0001
1000
0000
0001
0010
0000
0001
1000
0000
1000
0001
0000
,  // measure 19
0100
0010
0100
0000
0001
0100
0000
0100
0010
0000
0100
0001
0000
0001
0010
0000
,  // measure 20
0100
1000
0100
0001
0101
0000
0110
0000
,  // measure 21
1100
0000
1000
0001
0011
0000
1010
0000
,  // measure 22
1001
0000
1000
0000
1000
0001
0000
1000
0100
0000
1000
0001
0000
0001
1000
0000
,  // measure 23
0010
0100
0010
0000
1000
0010
0000
0010
0100
0000
0010
1000
0000
1000
0100
0000
,  // measure 24
1100
0000
0000
0001
0100
0000
0010
0000
1010
0000
0000
1000
0001
0000
0010
0000
,  // measure 25
0110
0000
0000
0100
0010
0000
0001
0000
0101
0000
0000
0001
1000
0000
0010
0000
,  // measure 26
1010
0000
0000
1000
0001
0000
0010
0000
0110
0000
0000
0100
1000
0000
0010
0000
,  // measure 27
1010
0000
0000
0100
0001
0000
0010
0000
0011
0000
0001
0000
1000
0000
0100
0000
,  // measure 28
1100
0000
0000
0000
1001
0000
0001
1000
0010
0000
0000
0000
1001
0000
1000
0001
,  // measure 29
0100
0000
1001
0000
0010
0100
0010
0000
,  // measure 30
1000
0010
1000
0010
0100
0010
0100
0001
0100
0001
0010
0001
0010
0100
0010
0100
,  // measure 31
1000
0100
1000
0001
1000
0001
0100
0001
0100
0010
0100
0010
1000
0010
1000
0001
,  // measure 32
1001
0000
1000
0001
0010
0000
1001
0000
0001
1000
0010
0000
1001
0000
1000
0001
,  // measure 33
0010
0000
1001
0000
0001
1000
0010
0000
0100
0001
0010
0001
1000
0010
0100
0001
,  // measure 34
1001
0000
0001
1000
0100
0000
1001
0000
1000
0001
0100
0000
1001
0000
0001
1000
,  // measure 35
0100
0000
1001
0000
1000
0001
0100
0000
0010
1000
0100
1000
0001
0100
0010
1000
,  // measure 36
0001
0010
0100
1000
0001
0000
1000
0100
0010
0001
1000
0000
0001
0010
0100
1000
,  // measure 37
0001
0000
1000
0100
0010
0001
1000
0000
0001
0100
0010
1000
0100
0010
0001
1000
,  // measure 38
0001
0100
0010
1000
0001
0000
1000
0010
0100
0001
1000
0000
0001
0100
0010
1000
,  // measure 39
0001
0000
1000
0010
0100
0001
1000
0000
0001
0100
0010
1000
0001
0010
0100
0010
,  // measure 40
0001
0010
0001
0010
0001
0010
0001
0010
0001
1000
0001
1000
0001
1000
0001
1000
,  // measure 41
0010
1000
0010
1000
0010
1000
0010
1000
0010
0100
0010
0100
0010
0100
0010
0100
,  // measure 42
0010
1000
0010
1000
0001
0010
0001
0010
0100
1000
0100
1000
0001
1000
0001
1000
,  // measure 43
0001
0100
0001
0100
0010
0100
0010
1000
0010
1000
0100
0010
0100
1000
0100
0010
,  // measure 44
0001
1000
0010
1000
0001
0100
0001
0010
0001
1000
0100
1000
0010
0100
0001
0010
,  // measure 45
0001
0100
1000
0001
,  // measure 46
1000
0010
0100
0001
0010
0001
0100
0010
1000
0100
0010
0001
0010
0100
0010
0001
,  // measure 47
1000
0100
0001
0010
,  // measure 48
1000
0102
0013
2100
3010
0210
0302
2003
,  // measure 49
3010
0000
0100
0001
0010
0000
0100
0000
1000
0000
0100
0000
0001
0000
0100
0000
,  // measure 50
0010
0001
0100
1000
0100
0010
1000
0001
,  // measure 51
0011
0000
0001
0000
1000
1000
0001
0011
,  // measure 52
0000
0000
0110
0000
0000
0000
1100
0000
0000
0000
1001
0000
0001
0100
0001
1000
,  // measure 53
0100
0001
0100
0020
0000
0130
1000
0020
,  // measure 54
0000
0031
0010
0200
0000
0302
0000
1003
,  // measure 55
0000
1000
0001
0021
0000
0031
1000
1020
,  // measure 56
0000
1030
0001
0011
0201
0000
0320
0000
,  // measure 57
1030
0001
0010
0000
0001
0000
1000
0000
0001
0000
0010
0000
0001
1000
0001
0000
,  // measure 58
1000
0000
0100
0010
0001
1000
0001
0100
0010
1000
0100
0000
0010
0000
0001
0000
,  // measure 59
1000
0001
0010
0100
0010
0001
1000
0000
0010
0000
0101
0000
0000
0000
0011
0000
,  // measure 60
0000
1010
0000
1100
0000
0110
0010
0001
,  // measure 61
1000
0001
1000
0001
0100
0010
0100
0010
1000
0010
1000
0010
0100
0001
0100
0001
,  // measure 62
0010
0100
0010
0100
1000
0001
1000
0001
1000
0010
1000
0010
0100
0001
0100
0001
,  // measure 63
0010
0100
1000
0100
0010
1000
0010
0100
0001
0010
0001
1000
0010
0100
0001
0010
,  // measure 64
0100
1000
0100
0010
0100
1000
0001
0100
0001
0010
0100
1000
0100
0010
0100
1000
,  // measure 65
0001
0000
0100
1000
,  // measure 66
0010
0000
0000
0000
0000
0000
0000
0000
0000
0000
0000
0000
0000
0000
0000
0000
0000
0000
0000
0000
0000
0000
0000
0000
0000
0000
0000
0000
0000
0000
0000
0000
0000
0000
0000
0000
0000
0000
0000
0000
0000
0000
0000
0000
0000
0000
0000
0001
1000
0000
0000
0000
0000
0000
0000
0000
0000
0000
0000
0000
0000
0000
0000
0000
,  // measure 67
0000
0010
0000
0000
;
