#VERSION:0.83;
#TITLE:雪月夜;
#SUBTITLE:;
#ARTIST:Ryu*;
#TITLETRANSLIT:Yukizukiyo;
#SUBTITLETRANSLIT:;
#ARTISTTRANSLIT:;
#GENRE:;
#ORIGIN:;
#CREDIT:;
#BANNER:Yukizukiyo-bn.png;
#BACKGROUND:Yukizukiyo-bg.png;
#PREVIEWVID:;
#JACKET:Yukizukiyo-jacket.png;
#CDIMAGE:;
#DISCIMAGE:;
#LYRICSPATH:;
#CDTITLE:;
#MUSIC:Yukizukiyo.ogg;
#OFFSET:-1.552000;
#SAMPLESTART:83.626122;
#SAMPLELENGTH:12.385498;
#SELECTABLE:YES;
#BPMS:0.000=155.020;
#STOPS:135.500=1.548;
#DELAYS:;
#WARPS:;
#TIMESIGNATURES:0.000=4=4;
#TICKCOUNTS:0.000=4;
#COMBOS:0.000=1;
#SPEEDS:0.000=1.000=0.000=0;
#SCROLLS:0.000=1.000;
#FAKES:;
#LABELS:0.000=Song Start;
#BGCHANGES:;
#KEYSOUNDS:;
#ATTACKS:
;

//---------------dance-single - ----------------
#NOTEDATA:;
#CHARTNAME:;
#STEPSTYPE:dance-single;
#DESCRIPTION:;
#CHARTSTYLE:;
#DIFFICULTY:Hard;
#METER:8;
#RADARVALUES:0.531043,0.615028,0.298470,0.280381,0.167324,411.000000,378.000000,33.000000,31.000000,0.000000,0.000000,0.000000,0.000000,0.000000,0.531043,0.615028,0.298470,0.280381,0.167324,411.000000,378.000000,33.000000,31.000000,0.000000,0.000000,0.000000,0.000000,0.000000;
#CREDIT:;
#NOTES:
0000
0000
0000
0000
,
0000
0000
0000
0000
,
0000
0000
0000
0000
,
0000
0000
0000
0000
,
0001
0100
0001
1000
,
0100
0000
0100
0010
0001
0000
1000
0001
,
0100
0001
0010
0100
,
2000
0000
0002
0000
,
3003
0000
0000
0000
0000
0000
0000
0000
0000
0000
1000
0100
1000
0000
0001
0000
,
0100
0010
1000
0010
0100
0010
1000
0010
,
0100
0000
0000
0001
0000
0000
0010
0000
0100
0000
1000
0000
0001
0000
0100
0000
,
0001
0010
0100
0010
0001
0010
0100
0010
,
0001
0000
0000
1000
0000
0000
0010
0000
0100
0000
0001
0000
1000
0000
0001
0000
,
0010
0100
1000
0100
0001
0100
1000
0100
,
0010
0000
0000
0001
0000
0000
0100
0000
0010
0000
0001
0000
0010
0000
1000
0000
,
0001
0100
1000
0100
0001
0100
1000
0100
,
0010
0000
1000
0000
0001
0100
0001
0100
0001
0000
1000
0100
1000
0000
0010
0000
,
0100
0001
0000
0011
0000
0101
0000
0001
,
1000
0010
0000
1010
0000
1000
0010
0100
,
0001
1000
0000
1100
0000
1010
0000
1000
,
0001
0010
0000
0110
0000
0010
0001
0010
,
0100
0010
0000
0011
0000
0101
0000
0001
,
1000
0010
0000
0110
0000
0100
0010
1000
,
0001
1000
0000
1100
0000
1010
0000
1000
,
0001
0000
0100
0000
0000
0000
0010
0000
0000
0000
0100
0010
0100
0000
0001
0000
,
1001
0000
0000
0000
0001
0010
0100
1000
,
0100
0010
0100
1000
0001
0010
0100
0010
,
1001
0000
0000
0000
1000
0100
0010
0001
,
0010
0100
0010
0001
0010
0100
1000
0001
,
1001
0000
0000
0000
1000
0100
0010
0100
,
1000
0001
0010
0100
0010
0001
0010
0100
,
1001
0000
0000
0000
0001
0100
0010
1000
,
0000
0101
0000
1100
0000
0101
0000
1100
,
0100
0000
0000
1000
0000
0000
0001
0000
0010
0000
0100
1000
0000
0001
0000
0000
,
2000
0000
3020
0000
0130
0001
0010
0100
,
2000
0000
3200
0000
1300
0010
0100
0001
,
2000
0000
3200
0000
0310
0001
0010
0100
,
2000
0000
3200
0000
1300
0010
0100
0001
,
2000
0000
3002
0000
1003
0001
0010
0001
,
2000
0000
3002
0000
1003
0100
1000
0001
,
0200
0000
0302
0000
1003
0010
1000
0001
,
0020
0000
0032
0000
1003
0100
0010
0001
,
1000
0010
1000
0100
,
1000
0000
0010
0100
0001
0000
0010
0100
,
1000
0100
1000
0010
,
0100
0001
0010
0001
,
1000
0001
0100
1000
,
0100
0000
0001
0010
1000
0000
0010
0100
,
1000
0100
0010
0001
,
2000
0000
3020
0000
,
0030
0110
0000
0110
0000
0110
0000
0110
,
0100
0000
0000
0010
0000
0000
1000
0000
0001
0000
1000
0100
1000
0000
0010
0000
,
0100
0000
0001
0000
1000
0000
0000
0010
0000
0000
1000
0000
0100
0000
0010
0000
,
0100
0000
0000
0010
0000
0000
0001
0000
0100
0000
0000
0010
0000
0000
0100
0000
,
0001
0000
1000
0000
0100
0000
0000
1000
0000
0000
0010
0000
0100
0000
0001
0000
,
1000
0000
0000
1000
0000
0000
0002
0000
0000
0000
1003
0100
1000
0000
0100
0000
,
0001
0000
0100
0000
0010
0000
0000
0100
0000
0000
0100
0000
0001
0000
1000
0000
,
0001
0000
0000
0010
0000
0000
0001
0000
1000
0000
0000
0100
0000
0000
0010
0000
,
0200
0000
0000
0310
0000
0000
0002
0000
0000
1003
0000
0000
0010
0000
0100
0000
,
1001
0000
0000
0110
0000
0000
1002
0000
0000
0000
1003
0100
1000
0000
0010
0000
,
0100
0000
0010
0000
1000
0000
0000
0100
0000
0000
0010
0000
0001
0000
1000
0000
,
0020
0000
0000
0130
0000
0000
0001
0000
2000
0000
0000
3001
0000
0000
1000
0000
,
0001
0000
0100
0000
0001
0000
0000
0100
0000
0000
0010
0000
0100
0000
0001
0000
,
1000
0000
0000
0010
0000
0000
0200
0000
0000
0000
0000
0000
0310
0000
1000
0000
,
0100
0000
0010
0000
0001
0000
0000
1000
0000
0000
0010
0000
1000
0000
0100
0000
,
2000
0000
0000
3010
0000
0000
0100
0000
0002
0000
0000
0013
0000
0000
0100
0000
,
1001
0000
0000
0101
0000
0000
1001
0000
0000
1100
0000
0000
0001
0000
1000
0000
,
1100
0000
0000
0011
0000
0000
2002
0000
0000
0000
0000
0000
0000
0000
0000
0000
,
3003
0000
0000
0000
;

//---------------dance-single - ----------------
#NOTEDATA:;
#CHARTNAME:;
#STEPSTYPE:dance-single;
#DESCRIPTION:;
#CHARTSTYLE:;
#DIFFICULTY:Medium;
#METER:6;
#RADARVALUES:0.387623,0.584277,0.162802,0.461271,0.036178,300.000000,282.000000,18.000000,51.000000,0.000000,0.000000,0.000000,0.000000,0.000000,0.387623,0.584277,0.162802,0.461271,0.036178,300.000000,282.000000,18.000000,51.000000,0.000000,0.000000,0.000000,0.000000,0.000000;
#CREDIT:;
#NOTES:
0000
0000
0000
0000
,
0000
0000
0000
0000
,
0000
0000
0000
0000
,
0000
0000
0000
0000
,
1000
0100
1000
0010
,
0100
0000
0001
0100
0010
0000
0100
0010
,
0001
0010
1000
0100
,
2000
0000
0002
0000
,
3003
0000
0000
0000
,
0000
1000
0000
1000
0000
1000
0000
1000
,
0010
0100
0001
0100
,
0000
0010
0000
0010
0000
0010
0000
0010
,
0100
0001
1000
0100
,
0000
1000
0000
1000
0000
1000
0000
1000
,
0100
1000
0010
0100
,
0000
0010
0000
0010
0000
0010
0000
0010
,
0100
0001
1000
1000
0001
0100
0010
0000
,
1000
0010
0000
0100
0000
0001
0000
0010
,
0100
0010
0000
0100
0000
1000
0100
0010
,
0001
1000
0000
0001
0000
0100
0000
0001
,
0100
0010
0000
1000
0000
0010
0100
0001
,
1000
0100
0000
1000
0000
0010
0000
0100
,
0001
0010
0000
0100
0000
1000
0100
0010
,
0100
1000
0000
0100
0000
1000
0000
0010
,
0100
0001
0000
1000
0000
0001
0100
0010
,
1001
0000
2000
3200
,
0320
0000
0032
0000
0023
0000
0130
1000
,
1001
0000
0002
0023
,
0230
0320
0032
0023
,
0130
0000
2000
3200
,
0320
0230
2300
3020
,
0130
0000
0020
0230
,
0302
2003
3020
0230
,
0301
0000
0000
0000
,
2000
3200
0320
0130
,
0020
0032
2003
3001
,
0200
0320
0230
1300
,
0200
2300
3020
0130
,
0002
0000
0203
0000
0310
1000
0010
0100
,
0002
0000
0203
0000
0310
1000
0010
0100
,
0002
0000
0203
0000
0310
1000
0001
0100
,
0020
0000
2030
0000
3010
0100
0001
1000
,
0100
1000
0010
0100
,
0001
0000
0010
0100
1000
0000
1100
0000
,
1001
0001
0100
0010
,
0110
0000
0000
0000
0010
0000
0000
0000
0110
0000
0000
0110
0000
0000
0110
0000
,
0110
0101
1010
0011
,
1100
0000
1000
0100
0010
0000
0010
0100
,
1000
1100
0101
1010
,
1002
0000
0200
0000
,
0303
0100
0000
0100
0000
0100
0000
0100
,
0001
1000
0001
1000
0001
0000
0000
0000
,
1000
0000
0010
0000
0100
0000
0001
0100
,
0010
1000
0010
0001
,
0010
0000
0100
0001
1000
0000
0100
0000
,
0010
0000
0000
0001
0000
0000
1000
0000
0000
0000
0000
0000
0001
0000
0010
0000
,
0100
0000
0010
0000
0001
0000
0100
0010
,
1000
0001
0010
0001
,
0100
0010
1000
0001
,
1000
0000
0000
0100
0000
0000
0020
0000
0000
0000
0000
0000
0130
0000
1000
0000
,
0001
0000
1000
0000
0100
0000
1000
0010
,
0100
0010
1000
0010
,
0100
0000
0001
0000
0010
0000
0100
0010
,
0001
0000
0000
1000
0000
0020
0000
0000
0000
0000
0000
0000
1030
0000
0100
0000
,
0010
0000
0100
0000
1000
0000
0010
0100
,
0001
1000
0100
1000
,
0010
0000
0000
0100
0000
0000
0001
0000
0000
0010
0000
0000
0100
0000
1000
0000
,
0010
0000
0000
0100
0000
0000
2002
0000
0000
0000
0000
0000
0000
0000
0000
0000
,
3003
0000
0000
0000
;

//---------------dance-single - ----------------
#NOTEDATA:;
#CHARTNAME:;
#STEPSTYPE:dance-single;
#DESCRIPTION:;
#CHARTSTYLE:;
#DIFFICULTY:Easy;
#METER:4;
#RADARVALUES:0.251955,0.430520,0.180891,0.189935,0.000000,195.000000,175.000000,20.000000,21.000000,0.000000,0.000000,0.000000,0.000000,0.000000,0.251955,0.430520,0.180891,0.189935,0.000000,195.000000,175.000000,20.000000,21.000000,0.000000,0.000000,0.000000,0.000000,0.000000;
#CREDIT:;
#NOTES:
0000
0000
0000
0000
,
0000
0000
0000
0000
,
0000
0000
0000
0000
,
0000
0000
0000
0000
,
1000
0100
0010
0100
,
1000
0001
0100
0010
,
1000
0100
1000
0010
,
0200
0000
0002
0000
,
0303
0000
0000
0000
,
0001
1000
0001
1000
,
0010
0000
0100
0000
,
0001
0100
0001
0100
,
0010
0000
1000
0000
,
0100
1000
0100
1000
,
0100
0000
0010
0000
,
0001
1000
0001
1000
,
1001
0010
1001
0000
,
1000
0000
0100
0000
,
1000
0000
0010
0100
,
0010
0000
0100
0000
,
0001
0000
1000
0100
,
1000
0000
0010
0000
,
0100
0000
0001
1000
,
0001
0000
0010
0000
,
0110
0000
0100
0000
,
1001
0000
2000
0000
,
0000
0000
0000
3010
,
0101
0000
0002
0000
,
0100
0000
0100
0100
,
0103
0000
0020
0000
,
0100
0000
1000
0000
,
0230
0000
0001
0000
,
0010
0000
0302
0000
,
1003
0000
0000
0000
,
0002
0000
0100
0000
,
2003
0000
0100
0000
,
3002
0000
0100
0000
,
2003
0000
0100
0000
,
3002
0000
0010
0000
,
2003
0000
0010
0000
,
3002
0000
0010
0000
,
2003
0000
0010
0000
,
3001
0100
0001
1000
,
0100
1000
0010
0110
,
0110
0010
0100
0001
,
1001
1000
1001
1001
,
1001
0001
0100
0010
,
1000
0010
0100
0001
,
1000
0100
0010
0100
,
2000
0000
0002
0000
,
3003
0000
0000
0000
,
0000
0000
0000
0000
,
0001
0100
0001
1000
,
0100
0000
1000
0000
,
0010
0100
0010
1000
,
0002
0000
0000
1003
,
0100
1000
0010
0100
,
0001
0010
0100
1000
,
1001
0000
0010
0000
,
1001
0110
1001
0000
,
0001
1000
0100
1000
,
0010
0010
1000
0001
,
1000
0100
0010
0100
,
0010
0010
0002
0013
,
0100
1000
0100
1000
,
0010
0100
0001
1000
,
1001
0000
0110
0000
,
1001
1001
2002
0000
,
3003
0000
0000
0000
;

//---------------dance-single - ----------------
#NOTEDATA:;
#CHARTNAME:;
#STEPSTYPE:dance-single;
#DESCRIPTION:;
#CHARTSTYLE:;
#DIFFICULTY:Beginner;
#METER:1;
#RADARVALUES:0.125331,0.276763,0.081401,0.072356,0.000000,97.000000,88.000000,9.000000,8.000000,0.000000,0.000000,0.000000,0.000000,0.000000,0.125331,0.276763,0.081401,0.072356,0.000000,97.000000,88.000000,9.000000,8.000000,0.000000,0.000000,0.000000,0.000000,0.000000;
#CREDIT:;
#NOTES:
0000
0000
0000
0000
,
0000
0000
0000
0000
,
0000
0000
0000
0000
,
0000
0000
0000
0000
,
0001
0000
0000
0000
,
1000
0000
0000
0000
,
0010
0000
0000
0000
,
0100
0000
0010
0000
,
0000
0000
0000
0000
,
1001
0000
0000
0000
,
1000
0000
0000
0000
,
0100
0000
0000
0000
,
1000
0000
0000
0000
,
0001
0000
0000
0000
,
0010
0000
0000
0000
,
0001
0000
0000
0000
,
1001
0000
0010
0000
,
0001
0000
0000
0000
,
1000
0000
0000
0000
,
0001
0000
0000
0000
,
0100
0000
0000
0000
,
0010
0000
0000
0000
,
1000
0000
0000
0000
,
0001
0000
0000
0000
,
1001
0000
0000
0000
,
0110
0000
0100
0000
,
0000
0000
0000
0001
,
0001
0000
0000
0000
,
1000
0000
0001
0000
,
0100
0000
0000
0000
,
0010
0000
0000
0000
,
1000
0000
1000
0000
,
0001
0000
0100
0000
,
0010
0000
0000
0000
,
2000
0000
0000
3000
,
0002
0000
0000
0003
,
2000
0000
0000
3000
,
0002
0000
0000
0003
,
0020
0000
0000
0030
,
0200
0000
0000
0300
,
0020
0000
0000
0030
,
0200
0000
0000
0300
,
1001
0000
0000
0000
,
0000
0000
0000
1000
,
1000
0000
0000
0000
,
0001
0000
1000
0000
,
0010
0000
0100
0000
,
0001
0000
1000
0000
,
0010
0000
0100
0000
,
0001
0000
1000
0000
,
0000
0000
0000
0000
,
0000
0000
0000
0000
,
1001
0000
0001
0000
,
0100
0000
0000
0000
,
0010
0000
1000
0000
,
0001
0001
0001
0000
,
1000
0000
0010
0000
,
1000
0000
0000
0000
,
0100
0000
0010
0000
,
0001
0001
0001
0000
,
0100
0000
0000
0000
,
0010
0000
1000
0000
,
0001
0000
0000
0000
,
1000
1000
1000
0000
,
0001
0000
0100
0000
,
0010
0000
0000
0000
,
0110
0000
1001
0000
,
0010
0010
0010
0000
,
1001
0000
0000
0000
;

//---------------dance-single - ----------------
#NOTEDATA:;
#CHARTNAME:;
#STEPSTYPE:dance-single;
#DESCRIPTION:;
#CHARTSTYLE:;
#DIFFICULTY:Challenge;
#METER:10;
#RADARVALUES:0.759741,0.898348,0.253247,0.542672,0.841142,588.000000,560.000000,28.000000,60.000000,0.000000,0.000000,0.000000,0.000000,0.000000,0.759741,0.898348,0.253247,0.542672,0.841142,588.000000,560.000000,28.000000,60.000000,0.000000,0.000000,0.000000,0.000000,0.000000;
#CREDIT:;
#NOTES:
// measure 0
0000
0000
0000
0000
,  // measure 1
0000
0000
0000
0000
,  // measure 2
0000
0000
0000
0000
,  // measure 3
0000
0000
0000
0000
,  // measure 4
0101
0001
0010
0001
,  // measure 5
1000
0000
0000
0000
0100
0000
0010
0000
0001
0000
1000
0001
1000
0000
0001
0000
,  // measure 6
0100
0010
1000
0100
,  // measure 7
0020
0000
0032
0000
,  // measure 8
0003
0000
0000
0000
0000
0000
0000
0000
0000
0000
1000
0001
1000
0000
0001
0000
,  // measure 9
0100
0000
0010
1000
0000
0000
1000
0100
0000
0000
0010
0001
0000
0000
0001
0100
,  // measure 10
0010
0000
0100
0001
0000
0000
1000
0001
0100
0000
0010
1000
0000
0000
0100
0000
,  // measure 11
0010
0000
0001
0010
0000
0000
0100
1000
0000
0000
1000
0010
0000
0000
0100
0001
,  // measure 12
1000
0000
0001
0100
0000
0000
0100
0010
1000
0000
0001
0010
0000
0000
0100
0000
,  // measure 13
1000
0000
0100
0010
0000
0000
0001
0100
0000
0000
0010
1000
0000
0000
0100
0010
,  // measure 14
0001
0000
1000
0001
0000
0000
0100
0001
0010
0000
0100
1000
0000
0000
0100
0000
,  // measure 15
0010
0000
0100
1000
0000
0000
0100
0010
0000
0000
0010
0001
0000
0000
0001
0100
,  // measure 16
0010
0000
1000
0000
0001
0100
0001
0100
0001
0000
1000
0001
1000
0000
0100
0000
,  // measure 17
0010
0012
0000
0100
0000
0013
0000
0001
,  // measure 18
1000
1200
0000
0010
0000
1300
0100
1000
,  // measure 19
0001
0201
0000
0010
0000
0001
0000
0310
,  // measure 20
1000
1200
0000
0010
0000
1300
0100
0010
,  // measure 21
0100
2100
0000
0010
0000
3100
0000
1000
,  // measure 22
0001
0021
0000
0100
0000
0031
0010
0001
,  // measure 23
1000
1020
0000
0100
0000
1000
0000
0130
,  // measure 24
0001
0000
0021
0000
0000
0000
0100
0000
0000
0000
0031
1000
0001
0000
0100
0000
,  // measure 25
1001
0000
0000
0000
0000
0000
0000
0000
0001
0100
0010
1000
0100
1000
0001
0010
,  // measure 26
0001
1000
0100
1000
0010
0100
0001
0010
0001
1000
0100
0010
0001
1000
0010
0100
,  // measure 27
0001
0000
0000
0000
0000
0000
0000
0000
1000
0001
0010
0001
1000
0010
1000
0001
,  // measure 28
0100
0001
0100
0010
1000
0100
1000
0001
0010
0100
1000
0010
0100
0001
0010
0001
,  // measure 29
0010
0000
0100
0000
1000
0000
0010
0000
0100
0001
1000
0100
0010
0001
1000
0010
,  // measure 30
0100
0000
0001
0000
0010
0000
0001
0000
1000
0010
1000
0100
0010
0001
0100
0010
,  // measure 31
1000
0000
0001
0100
0001
0000
0100
0010
0100
0000
0010
1000
0010
0000
1000
0001
,  // measure 32
1000
0100
0010
0001
0100
0010
1000
0001
0010
0100
1000
0001
0100
0001
1000
0100
,  // measure 33
0020
0000
0000
0000
0000
0000
0000
0030
,  // measure 34
0001
0100
0001
1000
0001
0010
0001
1000
0002
0000
0023
0000
0230
0000
0320
0000
,  // measure 35
0031
0100
0001
1000
0001
0010
0001
1000
0200
0000
0320
0000
0230
0000
2300
0000
,  // measure 36
3001
0010
0001
1000
0001
0100
0001
0010
0002
0000
0203
0000
0320
0000
2030
0000
,  // measure 37
3100
0010
0001
0010
0100
1000
0100
0001
0200
0000
2300
0000
3020
0000
0230
0000
,  // measure 38
0301
1000
0100
0010
0100
1000
0001
0010
0200
0000
2300
0000
3200
0000
0302
0000
,  // measure 39
0103
0010
0001
0100
0010
1000
0001
0010
0200
0000
2300
0000
3200
0000
0302
0000
,  // measure 40
0103
1000
0010
0100
0001
0010
0100
1000
0020
0000
0032
0000
0023
0000
2030
0000
,  // measure 41
3010
1000
0010
0100
0001
0100
0001
0010
0001
1000
0100
0010
0001
0010
0100
1000
,  // measure 42
0001
0100
0001
1000
,  // measure 43
0100
0000
0010
0100
1000
0000
1100
0100
,  // measure 44
0110
0010
0001
0100
,  // measure 45
0110
0000
0000
0000
0010
0000
0000
0000
1010
0000
0000
0101
0000
0000
0011
0000
,  // measure 46
0110
0000
0100
0000
1000
0100
0000
0100
1000
0000
0010
0000
0100
0001
0000
0001
,  // measure 47
0100
0000
0010
0000
1000
0001
0000
0001
1000
0000
0100
0000
0010
0001
0000
0001
,  // measure 48
0010
0000
0100
1000
0010
0000
0100
0001
0010
0000
0100
1000
0001
0000
0100
0010
,  // measure 49
1000
0000
0000
0001
0000
0000
1000
0000
0000
0001
0000
0000
1000
0000
0000
0001
0000
0000
1000
0000
0000
0001
0000
0000
0100
0000
0010
0000
0100
0000
0020
0000
0000
0000
0000
0000
0130
0000
0010
0000
0100
0000
0020
0000
0000
0000
0000
0000
,  // measure 50
0030
0110
0000
1001
0000
0110
0000
1001
,  // measure 51
0001
0000
0100
0000
0010
0000
1000
0000
0100
0000
1000
0001
1000
0000
0010
0000
,  // measure 52
0100
0000
0001
0000
0010
0100
0000
0010
0000
0000
0100
0000
1000
0000
0010
0000
,  // measure 53
0200
0000
0000
0301
0000
0000
0010
0000
0200
0000
0000
1300
0000
0000
0100
0010
,  // measure 54
0001
0000
1000
0000
0010
0100
0000
0001
0000
0000
1000
0000
0100
1000
0010
0100
,  // measure 55
0002
0000
0000
0023
0000
0000
0230
0000
0000
0000
1300
0001
1000
0100
0010
0001
,  // measure 56
0100
0000
0001
0000
0010
0001
0000
0100
0000
0000
0010
0000
1000
0000
0100
0000
,  // measure 57
2000
0000
0000
3010
0000
0000
0001
0000
0010
0200
0000
0001
0000
0000
0310
1000
,  // measure 58
0200
0000
0000
0301
0000
0000
0200
0000
0000
0310
0000
0000
0100
0000
1000
0000
,  // measure 59
1020
0000
0000
0001
0000
0000
2030
0000
0000
0000
3001
1000
0001
0010
0100
1000
,  // measure 60
0010
0000
1000
0000
0100
0010
0000
0100
0000
0000
0010
0000
0001
0000
0100
0000
,  // measure 61
0020
0000
0000
1030
0000
0000
0100
0000
0020
0000
0000
0031
0000
0000
0010
0100
,  // measure 62
1000
0000
0001
0000
0100
0010
0000
1000
0000
0000
0001
0000
0010
0001
0100
0010
,  // measure 63
2000
0000
0000
3200
0000
0000
0320
0000
0000
0000
0031
1000
0001
0010
0100
1000
,  // measure 64
0010
0000
1000
0000
0100
1000
0000
0010
0000
0000
0100
0000
0001
0000
0010
0000
,  // measure 65
0002
0000
0000
0103
0000
0000
1000
0000
0100
0020
0000
1000
0000
0000
0130
0001
,  // measure 66
1001
0000
0000
0101
0000
0000
0011
0000
0000
1100
0000
0000
1010
0000
0101
0000
,  // measure 67
0001
0000
1000
0001
0000
0001
0100
0010
1000
0100
1000
0001
1000
0001
0100
0001
,  // measure 68
0020
0000
0030
0000
;
