#TITLE:Xuxa;
#SUBTITLE:-BVG Euro Arrange-;
#ARTIST:☺;
#TITLETRANSLIT:;
#SUBTITLETRANSLIT:;
#ARTISTTRANSLIT:Smiley;
#GENRE:;
#CREDIT:;
#BANNER:Xuxa BVG euro arrange.png;
#BACKGROUND:Xuxa BVG euro arrange-bg.png;
#LYRICSPATH:;
#CDTITLE:;
#MUSIC:Xuxa BVG euro arrange.ogg;
#OFFSET:-4.549003;
#SAMPLESTART:12.049004;
#SAMPLELENGTH:12.000000;
#SELECTABLE:YES;
#BPMS:0.000000=160.000000
;
#STOPS:84.000000=0.375000,
85.000000=0.375000,
298.000000=0.375000,
299.000000=0.375000
;
#BGCHANGES:;
#KEYSOUNDS:;
#ATTACKS:;

//---------------dance-single - ----------------
#NOTES:
     dance-single:
     :
     Hard:
     8:
     0.566618,0.583694,0.356888,0.121666,0.170333,489.000000,445.000000,44.000000,15.000000,0.000000,0.000000,0.566618,0.583694,0.356888,0.121666,0.170333,489.000000,445.000000,44.000000,15.000000,0.000000,0.000000:
0000
0000
0000
0000
,
1000
0010
0000
0010
0000
0100
0000
0100
,
0000
0001
0000
1000
0000
0001
0000
1000
,
0100
0010
0000
0010
0000
0100
0000
0100
,
0110
0000
0000
0000
1001
0000
0000
0000
0000
0000
1000
0001
1000
0000
0001
0000
,
1000
0010
0100
0001
0100
0010
1000
0100
,
0000
1000
0001
0001
0000
0100
0101
0000
,
0100
0010
1000
0001
0010
0001
1000
0100
,
0000
0000
0010
0000
0000
0000
0010
0000
0100
0000
0000
1000
0000
0000
0001
0000
,
0100
0001
0010
0001
1000
0100
1000
0001
,
0000
1000
0000
1000
0010
0000
0101
0000
,
0001
0010
0001
1000
0100
1000
0010
0100
,
0000
0000
0010
0000
0000
0100
0000
0000
0001
0000
0000
0010
0000
0000
0001
0000
,
1000
0100
0001
0100
0010
0001
1000
0010
,
0000
0100
0001
0100
0000
0010
1001
0000
,
1000
0100
0001
0100
0010
0001
1000
0100
,
0000
0000
1000
0000
0000
0000
0001
0000
0100
0000
0000
0100
0000
0000
0010
0000
,
1000
0001
0010
0001
1000
0010
1000
0001
,
0000
0010
0000
0100
1000
0000
0011
0000
,
0001
0010
1000
0010
0100
0001
0100
1000
,
0000
0000
0100
0000
0000
0010
0000
0000
0001
0000
0000
1000
0000
0000
0010
0000
,
1001
0000
0000
0000
0110
0000
0000
0000
1001
0000
0000
0000
0010
0100
0010
0100
,
0020
0030
1000
0001
,
0010
0001
0000
1000
0000
0000
0010
0000
0100
0000
0000
0000
0001
0000
0000
0000
,
0010
0100
0000
1000
0000
0001
1000
0000
0010
0000
0000
0000
0100
0000
0000
0000
,
0001
1000
0000
0001
0000
0010
0001
0000
0100
0000
0000
0000
0010
0000
0000
0000
,
1000
0100
0010
0001
1000
0000
0010
0000
,
0100
0001
0000
0010
0001
0000
1000
0001
1000
0000
0000
0000
0100
0000
0000
0000
,
0010
0001
0000
0001
0100
0000
0010
0000
1000
0000
0000
0000
0100
0000
0000
0000
,
1000
0100
0001
0100
0010
0000
0100
0000
0010
0000
0000
0000
0001
0000
0000
0000
,
0010
0001
0010
0100
1001
1000
0001
0100
,
0010
1000
0100
1000
0001
0010
0100
0010
,
0001
1000
1010
0000
0101
0100
0001
0010
,
0001
1000
0100
0010
0100
1000
0001
0010
,
0001
0100
0101
0000
1100
0100
1000
0001
,
0010
0001
0100
0010
1000
0100
1000
0010
,
0100
0001
0011
0000
1010
0000
1000
1001
,
0000
0001
0010
0000
0110
0000
1001
0000
,
0101
0000
0011
0000
1100
0100
1000
0001
,
0200
0000
0301
0010
0200
0000
1300
0100
,
0002
0000
0203
0000
0310
0010
0001
1000
,
0010
0000
0000
1000
0000
0000
0001
0000
1000
0000
0010
0000
1000
0000
0010
0000
,
0200
0000
0310
1000
,
0001
0010
0011
0001
,
1001
1000
1010
0010
,
0100
0000
0000
0000
0001
0000
0000
0000
1000
0000
0000
0100
0000
0000
2000
0000
,
0002
3003
1001
0001
,
1100
0001
1010
1000
,
0001
0100
1010
0100
,
0101
0001
0011
1100
,
2002
0000
0000
0000
0000
0000
0000
0000
3003
0000
0001
0000
0000
1000
0000
0000
,
0010
0000
0000
1000
0000
0000
0100
0000
0000
0000
1000
0000
0000
1000
0000
0000
,
0010
0000
0000
0010
0000
0000
0100
0000
0000
0000
0010
0000
0000
1000
0000
0000
,
0010
0000
0000
0100
0000
0000
0001
0000
0000
0000
0010
0000
0000
0010
0000
0000
,
0100
0000
0000
0100
0000
0000
1000
0000
0100
0000
0010
0000
0000
0000
0100
0000
,
0000
1000
0000
0001
0000
0101
0000
1010
,
0000
1001
0000
1100
0200
0000
2300
0000
,
3010
0100
0002
0000
2003
0000
3100
0010
,
0001
0010
0100
1000
0001
0100
0010
1000
,
0010
0100
0001
0010
0000
0001
1000
1000
,
0000
0010
1010
0000
0010
0100
0001
1000
,
0100
1000
0001
0010
0000
0100
0000
0100
,
0010
0000
0000
0001
0000
0000
1000
0000
0010
0000
1000
0000
0100
0000
1000
0000
,
0001
0010
0001
1000
0000
0001
0000
0001
,
0100
0000
1010
0000
1000
0100
1000
0001
,
0010
0000
0001
0000
0100
0000
0010
0000
0000
0000
0100
0000
0000
0010
0000
0000
,
1000
0000
0000
0100
0000
0000
1000
0000
0001
0000
0010
0000
1000
0000
0010
0000
,
0100
1000
0001
0100
0000
0010
1000
0010
,
0000
0100
1001
0000
0001
0010
1000
0010
,
0100
1000
0001
0010
0000
0001
0000
1000
,
0010
0000
0000
0010
0000
0000
0100
0000
0001
0000
1000
0000
0100
0000
1000
0000
,
0001
0100
0001
1000
0000
0100
0000
0010
,
0001
0000
1100
0000
1000
0100
0001
0100
,
0010
0000
1000
0000
0010
0000
0001
0000
0000
0000
0010
0000
0000
0100
0000
0000
,
1000
0000
0000
0001
0000
0000
0100
0000
1001
0000
0000
0000
0110
0000
0000
0000
,
1001
0000
0000
0000
0100
0010
0100
0010
0200
0000
0000
0000
0300
0000
0000
0000
;

//---------------dance-single - ----------------
#NOTES:
     dance-single:
     :
     Medium:
     5:
     0.403237,0.430090,0.462332,0.170333,0.000000,348.000000,291.000000,57.000000,21.000000,0.000000,0.000000,0.403237,0.430090,0.462332,0.170333,0.000000,348.000000,291.000000,57.000000,21.000000,0.000000,0.000000:
0000
0000
0000
0000
,
1001
0001
0010
0001
,
1000
1000
1000
1000
,
0001
0100
0010
1000
,
1100
1100
0000
0100
,
1000
1100
1000
0110
,
0100
0010
1000
0001
,
0010
1001
0010
1100
,
1000
0100
1000
1000
,
0001
1010
0010
1001
,
0001
0100
0001
0001
,
0010
0011
1000
1100
,
1000
0010
0100
0001
,
1000
0101
0001
1100
,
1000
0001
0100
0010
,
1000
1010
0010
0110
,
0100
0001
0010
0010
,
0100
0110
0010
0011
,
0001
1000
0010
0010
,
1000
1001
0001
0101
,
0001
0100
0010
1000
,
1001
0000
0110
0000
1001
0000
0100
0100
,
0200
0300
1000
0100
,
1000
0010
0100
0001
,
0010
0100
0010
0000
0001
0000
1000
0000
,
0001
0100
0001
0000
0100
0000
0010
0000
,
1000
0100
0010
0001
1000
0000
0001
0000
,
0100
0001
0100
0000
0010
0000
0100
0000
,
0010
1000
0010
0000
0100
0000
0001
0000
,
1000
0100
0010
0000
0100
0000
1000
0000
,
0001
0010
0100
1000
1002
0000
0103
0000
,
0001
0100
0010
1000
,
0010
0110
1002
1003
,
0100
1000
0010
0100
,
0001
0011
1200
1300
,
0100
1000
0010
0100
,
0001
0000
0101
0000
1001
0000
0000
1010
,
0000
0000
1001
0110
,
0101
1010
1000
0100
,
0020
0130
2000
0000
,
3002
0203
0301
0010
,
0001
1000
0200
2300
,
0020
3030
0010
1000
,
0010
0100
0002
1003
,
0200
2300
3010
0100
,
0001
0010
0100
0010
,
0001
0000
1001
0000
,
0110
0000
1010
0000
,
0000
0000
0101
0000
,
0011
0000
0000
0000
1200
0000
1000
2000
,
0000
3300
1000
0000
,
0001
0000
0100
0000
,
0001
0000
0010
0000
,
0001
0000
1000
0000
,
0100
0000
1000
0001
,
0100
0001
0010
0001
,
1000
0100
0020
0230
,
1300
0100
0002
0000
0203
0000
0310
0001
,
0010
0100
1000
0100
1000
0000
0010
0000
,
0100
0001
1000
0010
,
0010
0100
0001
1001
,
1000
1100
0100
1000
,
0010
0010
0100
0101
,
0001
1001
0001
1000
,
0100
0100
1000
1010
,
0010
0110
0100
0001
,
1000
0100
1000
1010
,
0010
0110
0100
0001
,
0010
0001
1000
1001
,
0001
1001
0001
0100
,
0001
0001
1000
1100
,
1000
1010
0010
0100
,
0001
0001
0100
0110
,
0010
1010
1000
0001
,
0010
0001
1001
0110
,
1001
0000
0010
0010
0020
0000
0030
0000
;

//---------------dance-single - ----------------
#NOTES:
     dance-single:
     :
     Easy:
     4:
     0.276936,0.367432,0.097333,0.048667,0.000000,239.000000,227.000000,12.000000,6.000000,0.000000,0.000000,0.276936,0.367432,0.097333,0.048667,0.000000,239.000000,227.000000,12.000000,6.000000,0.000000,0.000000:
0000
0000
0000
0000
,
1000
0000
0001
0000
,
0100
0000
0010
0000
,
1000
0000
0001
0000
,
1001
1001
0000
0000
,
0001
1000
0010
1000
,
0000
0001
0000
1000
,
0001
0100
0001
1000
,
0100
0000
1000
0000
,
0010
0100
0001
0100
,
0000
0010
0000
1000
,
0100
1000
0010
0100
,
0000
0010
0000
1000
,
0001
0010
0001
1000
,
0100
0000
1000
0000
,
0010
1000
0001
0100
,
0001
0000
1000
0000
,
0010
0100
0001
1000
,
0000
0100
0000
1000
,
0001
1000
0010
1000
,
0001
0000
1000
0000
,
0010
0000
0100
0000
0010
0000
1000
0001
,
1000
0000
0001
0100
,
0001
1000
0001
0010
,
0001
0001
1000
0100
,
1000
1000
0001
1000
,
0001
0010
0100
0010
,
0100
0100
0010
0001
,
0100
0100
0010
1000
,
0010
0010
1000
0001
,
0010
0100
1002
0103
,
0001
0010
0001
0100
,
0010
1010
0101
0001
,
0010
0001
1000
0100
,
1000
1010
0101
0001
,
0010
0001
1000
0100
,
1000
0000
1001
0000
0101
0000
0000
0001
,
0000
0000
1000
0100
,
0010
0001
1000
0000
,
0001
0000
0100
0000
,
0001
0000
0010
0000
,
0001
0000
1000
1000
,
2000
3000
0001
0000
,
0010
0000
0001
0000
,
1000
0010
1000
0000
,
0100
0000
0010
0001
,
0020
0030
0001
0000
,
1000
0000
0010
0000
,
0000
0000
0100
0000
,
0010
0000
1000
1000
,
2000
3000
0001
0000
,
1000
0000
0010
0000
,
1000
0000
0001
0000
,
0100
0000
0010
0000
,
1000
0010
0100
0001
,
0010
0001
1000
0100
,
1000
0001
1001
0100
,
1001
0010
2002
0000
,
0000
3003
1000
0001
,
0100
0001
0000
1000
,
0000
0001
1000
0010
,
1000
0001
0010
0000
,
0001
0000
0100
0010
,
1000
0010
0000
0100
,
0000
0001
0010
0001
,
0100
0010
0000
0100
,
0000
0001
1000
0100
,
1000
0001
0010
0000
,
0001
0000
0100
0001
,
1000
0010
1000
0000
,
0001
0000
0100
0010
,
1000
0001
0000
0010
,
0000
0001
1000
0001
,
0100
0001
1000
0000
,
0001
0000
0100
0010
,
0100
0000
0001
1000
0001
0000
0000
0000
;

//---------------dance-single - ----------------
#NOTES:
     dance-single:
     :
     Beginner:
     1:
     0.106603,0.215045,0.032444,0.000000,0.000000,92.000000,88.000000,4.000000,0.000000,0.000000,0.000000,0.106603,0.215045,0.032444,0.000000,0.000000,92.000000,88.000000,4.000000,0.000000,0.000000,0.000000:
0000
0000
0000
0000
,
0010
0000
0000
0000
,
0100
0000
0000
0000
,
0001
0000
0000
0000
,
1000
1000
0000
0000
,
0010
0000
0000
0000
,
1000
0000
0000
0000
,
0010
0000
0000
0000
,
0100
0000
0000
0000
,
0100
0000
0000
0000
,
0001
0000
0000
0000
,
0100
0000
0000
0000
,
0010
0000
0000
0000
,
1000
0000
0000
0000
,
0001
0000
0000
0000
,
0100
0000
0000
0000
,
0001
0000
0000
0000
,
0010
0000
0000
0000
,
0100
0000
0000
0000
,
0010
0000
0000
0000
,
0001
0000
0000
0000
,
1000
0001
1000
0001
,
1001
0000
0001
0000
,
0000
0000
0100
0000
,
0000
0000
0001
0000
,
0000
0000
1000
0000
,
0000
0000
0010
0000
,
0000
0000
1000
0000
,
0000
0000
0001
0000
,
0000
0000
1000
0000
,
0000
0000
0110
0000
,
0000
0000
0000
0000
,
0000
0010
0010
0000
,
0000
0000
0000
0000
,
0000
1000
1000
0000
,
0000
0000
0000
0000
,
0000
0001
0001
0000
,
0000
0000
0001
0000
,
1000
0000
0010
0000
,
0000
0000
1000
0000
,
0000
0000
0100
0000
,
0000
0000
1000
1000
,
1000
0000
0001
0000
,
0000
0000
0100
0000
,
0000
0000
0010
0000
,
0000
0000
1000
0000
,
0001
0000
1000
0000
,
0001
0000
0010
0000
,
0000
0000
0001
0000
,
1000
0000
0010
0000
,
0000
0000
0100
0000
,
0000
0000
0000
0000
,
0000
0000
0000
0000
,
0000
0000
0000
0000
,
0000
0000
0010
0000
,
0000
0000
1000
0000
,
0000
0000
0001
0000
,
1000
0000
0110
0000
,
0000
0000
0100
0000
,
0000
0000
0010
0000
,
0000
0000
0100
0000
,
0000
0000
0001
0000
,
0000
0000
1000
0000
,
0000
0000
0010
0000
,
0000
0000
1000
0000
,
0000
0000
0001
0000
,
0000
0000
0010
0000
,
0000
0000
0001
0000
,
0000
0000
1000
0000
,
0000
0000
0010
0000
,
0000
0000
0100
0000
,
0000
0000
0010
0000
,
0000
0000
1000
0000
,
0000
0000
0001
0000
,
0000
0000
0100
0010
,
0100
0010
0100
1001
;

//---------------dance-single - ----------------
#NOTES:
     dance-single:
     :
     Challenge:
     11:
     0.749696,0.983470,0.243333,0.235222,0.689443,647.000000,617.000000,30.000000,29.000000,0.000000,0.000000,0.749696,0.983470,0.243333,0.235222,0.689443,647.000000,617.000000,30.000000,29.000000,0.000000,0.000000:
// measure 0
0000
0000
0000
0000
,  // measure 1
1000
0010
1000
0010
0100
0001
0100
0001
,  // measure 2
0010
0100
0010
0100
0010
0100
0010
0100
,  // measure 3
0010
0001
1000
0001
0100
0010
0100
0010
,  // measure 4
0110
0000
0000
0000
1001
0000
0000
0000
0000
0000
0010
0100
0010
0000
1000
0000
,  // measure 5
1001
0000
0001
0100
0001
0000
0001
1000
0001
0000
0001
0010
0001
0000
1000
0000
,  // measure 6
0000
0100
0010
0010
0000
0100
0010
0000
,  // measure 7
1001
0000
1000
0100
1000
0000
1000
0001
1000
0000
1000
0010
1000
0000
0001
0000
,  // measure 8
0000
0000
1000
0000
0000
0000
0001
0000
0100
0000
0010
0100
0000
0100
0001
0000
,  // measure 9
0010
0000
0100
0010
0100
0000
0010
0001
0010
0000
0100
0010
0100
0000
0001
0000
,  // measure 10
0000
1000
0000
0001
0100
0000
0001
0000
,  // measure 11
1000
0000
0010
1000
0010
0000
0100
0010
0100
0000
0010
1000
0010
0000
0100
0000
,  // measure 12
0000
0000
0010
0000
0000
1000
0000
0000
1001
0000
0000
0001
0000
0000
0010
0000
,  // measure 13
0100
0000
0010
0001
0100
0000
0010
1000
0100
0000
0010
0001
0100
0000
0010
0000
,  // measure 14
0000
1000
0001
1000
0000
0001
1000
0000
,  // measure 15
0100
0000
0010
0100
1000
0000
0010
0100
0001
0000
0010
0100
1000
0000
0001
0000
,  // measure 16
0000
0000
1000
0000
0000
0000
1000
0000
0001
0000
0100
0001
0000
0001
0010
0000
,  // measure 17
0100
0000
1000
0010
0100
0000
0010
0100
0001
0000
1000
0001
0010
0000
0001
0000
,  // measure 18
0000
1000
0000
0010
0100
0000
0100
0000
,  // measure 19
0010
0000
0100
0001
0010
0000
0100
1000
0010
0000
0100
0001
0010
0000
0100
0000
,  // measure 20
0000
0000
0010
0000
0000
0001
0000
0000
1000
0000
0000
0100
0000
0000
1000
0000
,  // measure 21
1002
0003
0000
0000
0120
0030
0000
0000
1001
0000
0000
0000
0001
0100
0010
1000
,  // measure 22
0001
0000
0000
0000
0000
0000
0000
0000
0000
0000
0000
0000
0000
0000
0000
0200
0020
0330
0000
0000
0000
0000
0000
0000
0000
0000
0000
0000
0000
0000
0000
0000
1000
0000
0000
0000
0000
0000
0000
0000
0000
0000
0000
0000
0000
0000
0000
0000
0001
0000
0000
0000
0000
0000
0000
0000
0000
0000
0000
0000
0000
0000
0000
0000
,  // measure 23
0100
0001
0000
0010
0000
0100
0010
0000
0001
0000
0000
0000
1000
0000
0000
0000
,  // measure 24
0001
1000
0000
0010
0000
1000
0100
0000
0010
0000
0000
0000
0100
0000
0000
0000
,  // measure 25
1000
0100
1000
0001
0100
0000
0001
0000
0010
0000
0000
0000
0001
0000
0000
0000
,  // measure 26
1000
0100
0010
0001
1000
0000
0001
0000
,  // measure 27
0100
0001
0000
0001
0010
0000
0100
1000
0100
0000
0000
0000
1000
0000
0000
0000
,  // measure 28
0001
0100
0001
0000
0100
0010
0100
0000
0001
0000
0000
0000
1000
0000
0000
0000
,  // measure 29
0100
1000
0000
1000
0010
0000
0100
0000
0001
0000
0000
0000
0010
0000
0000
0000
,  // measure 30
0100
0000
0010
0000
0001
0000
1000
0000
1001
0000
0001
0100
0010
1000
0001
0010
,  // measure 31
0001
0100
0010
1000
0100
1000
0010
0100
0001
0010
0100
0010
0001
1000
0010
0100
,  // measure 32
0001
1000
0100
0010
0100
0000
0000
0000
1001
0000
1000
0010
1000
0100
1000
0001
,  // measure 33
0010
0001
0100
0001
0010
0100
1000
0010
0100
0001
0010
0001
0100
0010
1000
0100
,  // measure 34
0010
0100
1000
0001
0100
0000
0000
0000
1001
0000
0001
0100
0001
0010
0001
0100
,  // measure 35
0010
1000
0100
1000
0010
0100
0001
0010
0100
0010
0001
0100
0010
1000
0100
0010
,  // measure 36
0001
0010
0100
0000
1100
0000
1000
0000
1001
0000
0000
0000
0001
0000
1001
0000
,  // measure 37
0000
1000
0010
0100
0101
0000
0011
0000
,  // measure 38
0010
0100
1000
0000
0100
1000
0010
0000
0100
0001
0100
0001
0010
0000
0001
0000
,  // measure 39
2000
0000
0000
0000
3001
0000
0100
0000
0020
0000
0000
0000
0130
0000
0010
1000
,  // measure 40
0200
0000
0000
0000
0010
0000
0000
0000
1300
0001
0100
0001
1000
0000
0100
0000
,  // measure 41
0020
0000
0000
0032
0000
0000
0203
0000
0310
1000
0001
0100
0010
1000
0001
1000
,  // measure 42
0020
0000
0000
0000
0000
0000
0000
0000
0130
0001
0100
0010
1000
0000
0001
0000
,  // measure 43
2000
0000
0000
0000
3100
0000
1000
0000
0020
0000
0000
0000
0130
0000
0001
0100
,  // measure 44
0020
0000
0000
0000
2030
0000
0000
0000
3100
1000
0100
1000
0001
0000
0100
0000
,  // measure 45
0020
0000
0000
1030
0000
0000
0100
0000
0020
0000
0000
0031
0000
0000
0010
0000
,  // measure 46
0200
0000
0000
0000
0000
0000
0300
0000
1001
0001
1000
0001
1000
0000
0000
0000
,  // measure 47
1001
1000
0001
1000
0001
0000
0000
0000
0110
0000
0000
0000
1000
0000
0010
0100
,  // measure 48
0002
0000
0000
0000
0023
0000
0000
0030
1001
1000
0001
1000
0001
0000
0000
0000
,  // measure 49
1001
0001
1000
0001
1000
0000
0000
0000
0001
0100
0010
1000
0001
0100
0010
1000
,  // measure 50
0002
0000
0000
0000
0000
0000
0000
0000
0003
0000
1000
0000
0000
1000
0000
0000
,  // measure 51
0100
0000
0000
1000
0000
0000
0010
0000
0000
0000
0100
0000
0000
0100
0000
0000
,  // measure 52
0001
0000
0000
0100
0000
0000
0010
0000
0000
0000
1000
0000
0000
1000
0000
0000
,  // measure 53
0001
0000
0000
0010
0000
0000
0001
0000
0000
0000
0100
0000
0000
0100
0000
0000
,  // measure 54
0010
1000
0010
1000
0001
0100
0001
0100
0010
0000
1000
0000
0010
0000
1000
0000
,  // measure 55
0001
0100
0001
0100
0001
1000
0001
1000
,  // measure 56
0001
1000
0001
1000
0200
0000
2300
0000
,  // measure 57
3010
0000
0100
0000
0002
0000
0000
0000
0023
0000
0000
0000
0130
0010
0001
1000
,  // measure 58
0010
0100
0010
0100
0001
1000
0001
0000
1001
0000
1000
0010
1000
0000
1000
0001
,  // measure 59
1000
0000
1000
0100
1000
0000
0001
0000
0000
0000
0010
0000
0100
0000
0100
0000
,  // measure 60
0000
0000
0010
0000
0100
0000
0000
0000
1001
0000
0001
0010
0001
0000
0001
1000
,  // measure 61
0001
0000
0001
0100
0001
0000
1000
0000
0000
0000
0001
0000
0000
0000
1000
0000
,  // measure 62
0010
0000
0100
0010
0000
0010
1000
0000
0100
0000
0010
0100
0010
0000
0100
1000
,  // measure 63
0100
0000
0010
0100
0010
0000
0001
0000
0000
0000
0001
0000
0000
0000
1000
0000
,  // measure 64
0010
0000
0000
0000
1000
0000
0000
0000
0001
0000
0100
0001
0100
0000
0010
0100
,  // measure 65
0010
0000
0100
0001
0100
0000
0010
0000
0000
0000
0100
0000
0000
0001
0000
0000
,  // measure 66
1001
0000
0000
1000
0000
0000
0100
0000
0010
0000
0100
1000
0010
0000
0100
0001
,  // measure 67
0010
0000
0100
1000
0010
0000
0100
0000
0000
0000
0001
0000
1000
0000
0001
0000
,  // measure 68
0000
0000
1000
0000
0001
0000
0000
0000
0010
0000
0100
0010
0001
0000
0100
0010
,  // measure 69
1000
0000
0100
0010
0001
0000
1000
0000
0000
0000
0001
0000
0000
0000
0001
0000
,  // measure 70
1000
0000
0010
1000
0000
1000
0100
0000
0010
0000
0001
0100
0010
0000
0100
0010
,  // measure 71
1000
0000
0001
1000
0100
0000
1000
0000
0000
0000
0001
0000
0000
0000
0100
0000
,  // measure 72
0010
0000
0000
0000
0010
0000
0000
0000
0100
0000
0010
1000
0100
0000
0010
0001
,  // measure 73
0100
0000
0010
1000
0100
0000
0010
0000
0000
0000
0100
0000
0000
1000
0000
0000
,  // measure 74
0001
0000
0000
0010
0000
0000
0001
0000
2001
3000
0000
0000
0210
0300
0000
0000
,  // measure 75
1001
0000
0000
0000
0000
0000
0000
0000
0000
0000
0000
0000
0000
0000
0000
0000
1001
0000
0000
0000
0000
0000
0000
0000
0110
0000
0000
0000
0000
0000
0000
0000
1001
0000
0000
0000
0000
0000
0000
0000
0000
0000
0000
0000
0000
0000
0000
0000
0020
0200
0330
0000
0000
0000
0000
0000
0000
0000
0000
0000
0000
0000
0000
0000
;
