#TITLE:X;
#SUBTITLE:;
#ARTIST:D.J. Amuro;
#TITLETRANSLIT:;
#SUBTITLETRANSLIT:;
#ARTISTTRANSLIT:;
#GENRE:;
#CREDIT:;
#BANNER:X.png;
#BACKGROUND:X-background.png;
#LYRICSPATH:;
#CDTITLE:;
#MUSIC:X.ogg;
#OFFSET:0.517000;
#SAMPLESTART:86.150330;
#SAMPLELENGTH:18.666672;
#SELECTABLE:YES;
#DISPLAYBPM:*;
#BPMS:0.000000=45.000000
,8.000000=90.000000
,10.000000=180.000000
,152.500000=90.000000
,152.750000=270.000000
,153.500000=180.000000
,169.000000=90.000000
,185.000000=180.000000
;
#STOPS:104.250000=0.333000
;
#BGCHANGES:;
#KEYSOUNDS:;
#ATTACKS:;

//---------------dance-single - ----------------
#NOTES:
     dance-single:
     :
     Hard:
     12:
     0.885234,1.075806,0.307807,0.000000,0.733067,765.000000,727.000000,38.000000,0.000000,0.000000,0.000000,0.885234,1.075806,0.307807,0.000000,0.733067,765.000000,727.000000,38.000000,0.000000,0.000000,0.000000:
// measure 0
0000
0000
0000
0000
,  // measure 1
0000
0000
0000
0000
,  // measure 2
1000
0100
0010
0001
0010
0100
0010
0001
0010
0100
1000
0001
1001
0000
0000
0000
0001
0000
0000
0000
1000
0000
0000
0000
0100
0000
0000
0000
0010
0000
0001
0000
,  // measure 3
0000
0001
0100
0000
0010
0000
1000
0000
0010
0000
1000
0000
0100
0000
0010
0100
,  // measure 4
0000
0100
1000
0000
0001
0000
0100
0000
0010
0000
1000
0000
0100
0000
0010
0001
,  // measure 5
0000
0001
0100
0000
0010
0000
1000
0000
0001
0000
0100
0000
0001
0000
1000
0100
,  // measure 6
0000
0100
1000
0000
0001
0010
0100
0010
0001
0000
0100
0000
0010
0000
1000
0001
,  // measure 7
0000
0001
0010
0000
0100
0000
0010
0000
0001
0000
1000
0000
0010
0000
0100
0001
,  // measure 8
0000
0001
0010
0000
0100
0000
1000
0000
0001
0000
0010
0000
0100
0000
0010
0000
,  // measure 9
0001
0000
1000
0000
0100
0000
0010
0000
0100
0010
0001
1000
0100
0010
0100
1000
,  // measure 10
0001
0010
0100
0010
0001
0100
0010
1000
0100
0010
0001
0000
0100
0000
0010
1000
,  // measure 11
0100
0000
0010
0000
0001
0010
0100
0010
0001
1000
0010
0000
0100
0000
0010
1000
,  // measure 12
0100
0000
0010
0000
0001
0010
0100
0010
0001
1000
0100
0000
1000
0000
0010
0100
,  // measure 13
0001
0000
0010
0000
0100
0010
0001
1000
0010
0100
0001
0000
0010
0000
0001
1000
,  // measure 14
0100
0000
0010
0000
0100
0010
0001
1000
0100
1000
0010
0000
0100
0000
0001
1000
,  // measure 15
0010
0000
0100
0000
0001
1000
0100
1000
0001
1000
0100
0000
0010
0000
0001
1000
,  // measure 16
0100
0000
0010
0000
0001
0100
0010
1000
0001
0000
1000
0000
0100
0000
0010
0000
,  // measure 17
0001
0000
0010
0000
0100
0000
0010
0000
0001
0010
0100
1000
0100
0010
0100
1000
,  // measure 18
0100
0010
0001
0010
0100
0010
0001
0000
1001
0000
0010
0100
0010
0000
1001
0000
,  // measure 19
0100
0010
0100
0000
1001
0000
0010
0100
0010
0000
1001
0000
0100
0010
0100
0000
,  // measure 20
0001
0000
0010
0000
0100
0000
0010
0000
0110
0000
0001
1000
0001
0000
0110
0000
,  // measure 21
1000
0001
1000
0000
0110
0000
0001
1000
0001
0000
0110
0000
1000
0001
1000
0000
,  // measure 22
0001
0000
0010
0000
0100
0000
1000
0000
0101
0000
0010
1000
0100
0000
0011
0000
,  // measure 23
0010
0100
1000
0000
1100
0000
1000
0010
0100
0000
0011
0000
0010
0100
1000
0000
,  // measure 24
0001
0000
0000
0010
0000
0000
1000
0000
0000
0010
0000
0000
0100
0000
0010
0000
0001
0000
0100
0000
1000
0000
0100
0000
,  // measure 25
0010
0000
0000
0000
1000
0000
0000
0000
0001
0000
0000
0000
0010
0000
0000
0100
0000
0000
1000
0000
0000
0001
0000
0000
0100
0000
0000
0010
0000
0000
0100
0000
0000
0010
0000
0000
0100
0000
0000
0010
0000
0000
0100
0000
0000
0010
0000
0000
,  // measure 26
0100
0010
0000
0000
1000
0000
0100
0000
1000
0000
0001
0000
0100
0000
0001
0000
,  // measure 27
0010
0100
0000
0010
0000
0100
0000
0010
,  // measure 28
0100
1000
0001
0100
0001
1000
0100
1000
,  // measure 29
0010
0100
0000
0001
0000
0010
0000
0100
,  // measure 30
0010
0001
1000
0100
1000
0001
0010
0001
,  // measure 31
1000
0100
0000
1000
0000
0010
0000
0100
,  // measure 32
0001
0000
0010
0000
0001
0000
1000
0001
0100
0000
0010
0000
1000
0000
1000
0000
,  // measure 33
0100
0010
0001
0001
1000
0100
0010
0100
,  // measure 34
1000
0001
0010
0100
0010
0001
1000
0010
,  // measure 35
0100
0010
0000
1000
0000
0010
0000
1000
,  // measure 36
1000
0001
0010
0100
0010
0001
1000
0001
,  // measure 37
0010
0100
0000
0010
0000
0001
0000
1000
,  // measure 38
0010
1000
0000
0101
0001
0010
0001
1000
,  // measure 39
0100
0010
0000
0100
0000
1000
0000
0010
,  // measure 40
0100
0000
0001
0000
1000
0001
1000
0001
1000
0001
1000
0001
0100
0010
0100
0010
,  // measure 41
0100
0010
0100
0010
0100
0001
0100
0010
0100
0010
1000
0100
1000
0100
0010
0001
,  // measure 42
0100
0010
1000
0001
1000
0000
0001
0010
0001
0000
0001
0010
0100
0000
0010
0100
,  // measure 43
1000
0001
0100
0100
0010
0000
0010
1000
0100
0000
0100
0010
0001
0001
1000
0010
,  // measure 44
0100
0100
0010
1000
0100
0000
0010
0001
0100
0000
0010
1000
0100
0000
0010
0010
,  // measure 45
0100
0100
1000
0001
1000
0000
0001
1000
0010
0000
0100
0010
1000
0100
0001
0100
,  // measure 46
1000
0010
1000
0001
1000
0000
1000
0000
0001
0000
0010
0000
0100
0000
0100
0000
,  // measure 47
0010
0010
0100
1000
0010
1000
0001
0001
,  // measure 48
1000
1000
0010
0010
0100
0001
0100
0100
,  // measure 49
0010
0010
1000
1000
0001
1000
0000
0000
,  // measure 50
0001
0000
0010
0100
1000
1000
0100
1000
,  // measure 51
0001
0001
0100
0010
1000
0100
0000
0000
,  // measure 52
0010
0001
1000
1000
0001
0001
0100
0100
,  // measure 53
0010
0000
0010
0000
1000
0000
1000
0000
0100
0000
0100
0000
1000
0100
0010
0001
,  // measure 54
1001
0000
0000
0000
0001
0000
1000
0000
0100
0000
0010
0001
0000
0001
0100
0000
,  // measure 55
0010
1000
1100
0000
0100
0000
1000
0000
,  // measure 56
0001
0000
0000
0000
1000
0000
0001
0000
0100
0000
0010
0100
0000
0100
0010
0000
,  // measure 57
1000
0100
1000
0001
0010
1001
0000
0001
,  // measure 58
0100
0000
0001
0000
1000
0000
0001
0000
0010
0000
0100
1000
0000
1000
0010
0000
,  // measure 59
0100
0001
0010
1000
0010
0100
1000
0001
,  // measure 60
0100
0010
0100
0001
1000
0000
0001
0010
0001
0000
0000
0000
0100
0000
0010
0000
,  // measure 61
1000
0010
0100
0001
1000
0000
0001
0100
1000
0000
1000
0100
0001
0000
0001
0010
,  // measure 62
1000
0010
0001
1000
0001
0000
0100
0000
0010
0000
1000
0001
0000
0001
1000
0000
,  // measure 63
0100
0000
0010
0000
0001
0000
0100
0000
1000
0000
0010
0100
0000
0100
0010
0000
,  // measure 64
1000
0000
0001
0000
0010
0000
0001
0000
1000
0000
0001
0010
0000
0010
0100
0000
,  // measure 65
1000
0000
0010
0000
0100
0000
0001
0000
0010
0000
0001
1000
0000
1000
0001
0000
,  // measure 66
1000
0000
0000
0100
0000
0000
0010
0000
0000
0001
0010
0001
1000
0000
0000
0001
0000
0000
0010
0000
0000
0000
0000
0000
,  // measure 67
0010
0000
0000
0100
0000
0000
0000
0000
0000
0100
0000
0000
1000
0000
0000
0000
0000
0000
0001
0000
1000
0000
0010
0000
,  // measure 68
1000
0100
0010
0011
0000
0000
0000
0000
0000
0000
0000
0000
,  // measure 69
1000
0100
1000
0001
1000
0000
0000
0000
0100
0000
0000
0000
0001
0000
0000
0000
,  // measure 70
0010
0000
1001
1000
1001
0001
1001
1000
,  // measure 71
1001
0001
1001
1000
1001
0001
1001
0001
,  // measure 72
0010
0100
0110
0100
0110
0010
0110
0010
,  // measure 73
0110
0100
0110
0010
0110
0010
0100
1000
,  // measure 74
0001
0000
0100
0000
0001
0010
0100
1000
0001
1000
0001
0010
0100
1000
0001
1000
,  // measure 75
0001
0010
0100
1000
0001
0010
0100
1000
0001
1000
0001
0010
0100
1000
0001
1000
,  // measure 76
0001
0010
0100
1000
1001
0000
0001
0100
0010
0000
1010
0000
1000
0100
0010
0000
,  // measure 77
0011
0000
0010
0100
1000
0000
1100
0000
0010
0001
0100
0000
0101
0000
0000
1100
,  // measure 78
0000
1001
0000
0000
0000
0000
0000
0000
;

//---------------dance-single - ----------------
#NOTES:
     dance-single:
     :
     Medium:
     10:
     0.663058,0.759392,0.234905,0.000000,0.348308,573.000000,544.000000,29.000000,0.000000,0.000000,0.000000,0.663058,0.759392,0.234905,0.000000,0.348308,573.000000,544.000000,29.000000,0.000000,0.000000,0.000000:
0000
0000
0000
0000
,
0000
0000
0000
0000
,
1000
0100
0010
0001
0010
0100
1001
0000
0001
0000
0100
0000
0000
0000
0100
0000
,
0001
0000
0001
0010
0100
1000
0000
1000
,
0100
0000
1000
0100
0010
0001
0000
0001
,
1000
0000
1000
0100
0010
0001
0000
0001
,
0100
0000
0100
0010
1000
0100
0000
0010
,
0001
0000
0010
0100
1000
0001
0000
0001
,
0100
0000
0100
0010
1000
0100
0010
0001
,
1000
0000
0100
0000
0010
0000
0100
0000
1100
0000
0000
0010
0000
0000
0100
0000
,
1001
0000
0000
0000
0001
1000
0001
1000
0001
0000
0010
0000
0000
0000
0100
0000
,
1000
0000
1000
0010
0100
0001
0000
0100
,
0010
0000
1000
0001
0010
0100
0000
0010
,
0001
0000
0010
0100
1000
0010
0000
0100
,
0010
0000
0100
0001
0010
0100
0000
0100
,
1000
0000
1000
0100
0001
0100
0000
0010
,
0100
0000
1000
0010
0001
0100
1000
0100
,
0010
0001
0100
0010
1000
0100
0010
0001
,
1000
0000
0100
0000
0010
0000
0100
0000
1000
0000
0001
1000
0001
0000
1000
0000
,
0001
1000
0001
0000
1000
0000
0001
1000
0001
0000
1000
0000
0001
1000
0001
0000
,
0000
0000
0000
0000
0000
0000
0000
0000
0100
0000
0010
0100
0010
0000
0100
0000
,
0010
0100
0010
0000
0100
0000
0010
0100
0010
0000
0100
0000
0010
0100
0010
0000
,
0000
0000
0000
0000
0000
0000
0000
0000
1000
0000
0001
1000
0001
0000
1000
0000
,
0001
1000
0001
0000
0100
0000
0010
0100
0010
0000
0100
0000
0010
0100
0010
0000
,
1000
0000
0000
0100
0000
0000
0001
0000
0000
0100
0000
0000
1000
0000
0010
0000
0100
0000
0001
0000
0010
0000
0001
0000
,
0100
0000
0000
0000
0010
0000
0000
0000
1000
0000
0000
0000
0001
0000
0000
0010
0000
0000
0100
0000
0000
1000
0000
0000
0400
0000
0000
0040
0000
0000
0000
0000
0000
0000
0000
0000
0000
0000
0000
0000
0000
0000
0000
0000
0000
0000
0000
0000
,
0000
0330
0000
0000
0001
0000
0100
0000
0001
0000
1000
0000
0001
0000
0010
0000
,
0001
1000
0000
0100
0000
0010
0000
0100
,
1000
0010
0100
0001
0100
0010
0100
1000
,
0100
0010
0000
1000
0000
0100
0000
0010
,
0001
0010
0100
1000
0100
0010
0100
0001
,
0100
0010
0000
0100
0000
1000
0000
0010
,
0100
0000
0001
0000
1000
0000
0000
0001
0100
0000
0010
0000
1000
0000
0000
0100
,
0010
0000
0001
0000
1001
0000
0000
0010
0000
0000
0100
0000
1001
0000
0000
0000
,
0000
0000
1000
0100
1000
0001
1000
0010
,
1000
0001
0000
0010
0000
0100
0000
0010
,
0100
1000
0010
0100
0010
0001
0010
1000
,
0010
0100
0000
0001
0000
0010
0000
0100
,
0010
0001
0000
1100
0100
0010
0001
1000
,
0001
0100
0000
0001
0000
0010
0000
0001
,
0100
0000
0010
0000
1000
0000
0000
0001
0010
0000
0001
0000
1000
0000
0000
0010
,
1000
0001
1000
0100
1000
0000
0011
0000
,
0101
0000
1001
0001
0010
0001
1100
1000
,
0100
1000
1010
0010
1000
0010
0110
0100
,
0001
0010
0110
0100
1000
0100
1100
1000
,
0001
0000
1000
0000
0101
0000
0001
0000
0100
0000
0001
0000
1000
0001
0010
0001
,
1000
0100
0010
0100
1000
0000
0000
0001
1000
0000
0000
1000
0001
0000
0000
0001
,
1000
0000
0000
0010
0100
0000
0000
0100
0010
0000
0000
0010
0100
0000
0000
0100
,
0010
0000
0000
1000
0010
0000
0000
0010
1000
0000
0000
1000
0010
0000
0000
0010
,
1000
0000
0000
0001
0100
0000
0000
0100
0001
0000
0000
0001
0100
0000
0000
0100
,
0001
0000
0001
0010
0100
0010
0001
1000
,
0010
0100
0001
0001
1000
0010
0000
0000
,
0100
0010
0100
0100
0001
0010
0100
0100
,
1000
0000
0100
0000
0010
0000
0010
0000
0100
0000
1000
0000
0001
0100
0010
1000
,
0001
0000
0000
0000
1000
0000
0001
0000
0010
0000
0000
0100
0000
0000
0010
0000
,
1001
0000
0000
0000
0001
0000
1000
0000
0010
0000
0000
0100
0000
0000
0001
0000
,
0011
0000
0000
0000
0010
0000
0001
0000
0100
0000
0000
0010
0000
0000
1000
0000
,
1100
0000
0100
0010
0001
0100
0010
1000
,
0001
0000
0010
0000
0100
0000
1000
0000
0100
0000
0000
0010
0000
0000
0001
0000
,
1001
0000
0000
0000
0100
0000
0010
0000
1000
0000
0000
0100
0000
0000
1000
0000
,
1001
0001
0010
0000
0100
0000
0000
0010
,
0001
0000
1000
0000
0001
0000
0000
1000
0010
0000
0000
0100
0001
0000
0000
0001
,
0010
0100
1000
0001
1000
0000
0010
0000
1000
0000
0100
0000
0000
0000
0010
0000
,
0001
0100
0101
0000
0000
0000
0000
0001
,
0010
0010
0001
1000
0000
1001
0000
0100
,
0001
0010
0000
0100
0000
0000
0000
0010
,
0100
0000
0010
0000
0001
0000
1000
0001
1000
0000
0010
0000
1000
0000
0000
0000
,
0001
0000
0000
1000
0000
0000
0000
0000
0000
1000
0000
0000
0100
0000
0000
0000
0000
0000
0010
0000
0001
0000
0100
0000
,
0010
1000
0001
0100
0000
0000
0000
0000
0000
0000
0000
0000
,
0001
0100
0110
0000
0101
0000
0011
0000
,
1100
0000
0000
1000
0001
0000
0000
0001
0100
0000
0000
0100
0010
0000
0000
0010
,
1000
0000
0000
1000
0100
0000
0000
0100
0010
0000
0000
0010
0001
0000
0010
0000
,
1000
0000
0010
0000
0100
0000
0000
0010
0001
0000
0000
0001
0100
0000
0000
0100
,
0010
0000
0000
0010
1000
0000
0000
1000
0001
0000
0000
0001
0010
0000
1000
0000
,
0010
0100
0010
0001
0001
0100
0010
0010
,
0100
0001
1000
0100
0100
1000
0001
0001
,
0010
0000
0100
0000
1000
0000
0001
0100
0010
0000
1000
0000
0001
1000
0100
0000
,
0010
0000
0001
0100
0010
0000
0100
0000
0001
0010
0100
0000
1001
0000
0000
0101
,
0000
0011
0000
0000
0000
0000
0000
0000
;

//---------------dance-single - ----------------
#NOTES:
     dance-single:
     :
     Easy:
     8:
     0.452453,0.601185,0.372608,0.032401,0.020250,391.000000,345.000000,46.000000,4.000000,0.000000,0.000000,0.452453,0.601185,0.372608,0.032401,0.020250,391.000000,345.000000,46.000000,4.000000,0.000000,0.000000:
0000
0000
0000
0000
,
0000
0000
0000
0000
,
1000
0100
0010
0001
1000
0100
0010
0000
0100
0000
0000
0000
0000
0000
1000
0000
,
0000
0000
0010
0000
0100
0000
0000
0001
,
0000
1000
0001
0000
0010
0000
0000
0100
,
0000
0000
0010
0000
0001
0000
0000
0100
,
0000
0010
1000
0001
0010
0000
0000
0100
,
0000
0000
0010
0000
0001
0000
0000
1000
,
0000
0010
0100
0000
0010
0000
1000
0000
,
0001
0000
1000
0000
0001
0010
0100
1000
,
0100
0010
0100
1000
0001
0000
0000
0100
,
0000
0000
0010
0000
1000
0000
0000
0100
,
0000
0010
0100
0000
1000
0000
0000
0010
,
0000
0000
1000
0000
0001
0000
0000
0010
,
0000
0000
0100
1000
0010
0000
0000
0100
,
0000
0000
0001
0000
0010
0000
0000
0001
,
0000
1000
0010
0000
1000
0000
0100
0000
,
0010
0000
0001
0000
1000
0100
0010
0100
,
1000
0001
0010
0100
1001
0000
1000
1001
,
0000
0001
1001
0000
1000
1001
0000
0000
,
0000
0000
0000
0000
0110
0000
0010
0110
,
0000
0100
0110
0000
0010
0110
0000
0000
,
0000
0000
0000
0000
1001
0000
0001
1001
,
0000
0100
0110
0000
0010
0110
0000
0010
,
0100
0010
1000
0001
0020
0000
0230
0000
,
2300
0000
3020
0000
0130
0100
0100
0100
,
0100
0001
0011
0010
,
0110
0100
0010
0001
,
1000
0010
1010
1000
,
1001
0001
0010
0001
,
1000
0100
1100
1000
,
1010
0010
0100
0001
,
0010
0000
0001
0010
0100
0000
0100
1000
,
0010
0000
0100
0010
1000
0001
0100
1000
,
0100
0010
1000
0000
0011
0000
0001
0100
,
0010
0000
1000
0000
1010
0000
1000
0010
,
0100
0000
0001
0000
0011
0000
0010
0100
,
1000
0000
0000
0000
0010
0000
0000
0010
0000
0000
0100
0000
0001
0000
0000
0000
,
0010
0000
0000
0100
1000
0000
0100
0000
,
1000
0000
0001
0010
0000
0100
0000
0010
,
0001
0000
1000
0100
0010
0001
1000
0100
,
0010
0001
0010
1000
0010
0100
1000
0010
,
0001
0010
0100
0000
0000
0000
0010
0000
,
0000
1000
0000
0100
,
0000
1000
0000
0010
,
0000
0100
0000
0001
,
0000
1000
1000
1000
,
1000
0001
0001
0001
,
0001
0100
0100
0100
,
0100
0010
0010
0010
,
1000
0010
0100
0001
,
0010
0001
0001
0000
,
1000
0100
0100
1000
,
1000
0000
0001
0000
0001
0000
0100
0010
,
1001
0000
0001
1000
0000
0100
0000
0000
,
0010
0100
1000
0000
0000
0000
0000
0000
,
0000
0000
0100
0010
0000
0001
0000
0000
,
0100
0010
0000
0100
0000
0000
0000
0010
,
0100
0001
1000
0000
0000
0100
0000
1000
,
0001
0000
0000
0000
0000
0000
0000
0001
,
0100
0100
0001
0000
1000
0000
0000
0001
,
0010
0010
0100
0000
1000
0000
0001
0000
,
1000
0100
0010
0100
0000
1000
0000
0000
,
0001
1000
0000
0000
0000
0000
0000
1000
,
0100
1000
0001
0100
0000
0001
0000
0100
,
0010
0100
0000
0001
0000
0000
0000
1000
,
0100
1000
0001
0010
1000
0010
0100
0000
,
0010
0001
0000
0001
1000
0000
0001
0010
,
0100
1000
1001
0000
0000
0000
0000
0000
,
0010
0100
1000
0000
0010
0000
0100
0000
,
0001
1010
0101
1010
,
0101
1010
0101
1010
,
1001
0011
1100
0011
,
1100
0011
1100
1001
,
0110
0000
0001
0100
0001
0100
0010
0100
,
0010
1000
0001
0100
0001
0100
0010
0100
,
0010
1000
1010
0000
1000
1001
0000
0001
,
0011
0000
0000
0000
0010
0000
0110
0000
0000
0000
0100
0000
1100
0000
0000
0101
,
0000
1001
0000
0000
0000
0000
0000
0000
;

//---------------dance-single - ----------------
#NOTES:
     dance-single:
     :
     Beginner:
     3:
     0.189776,0.346384,0.153903,0.000000,0.000000,164.000000,145.000000,19.000000,0.000000,0.000000,0.000000,0.189776,0.346384,0.153903,0.000000,0.000000,164.000000,145.000000,19.000000,0.000000,0.000000,0.000000:
0000
0000
0000
0000
,
0000
0000
0000
0000
,
0000
0000
1000
0000
,
0000
0000
0010
0000
,
0000
0000
0100
0000
,
0000
0000
0001
0000
,
0000
1000
0001
0000
,
0000
0000
0010
0000
,
0000
0000
0001
0000
,
0000
0000
1000
0000
,
0001
0000
0100
0000
,
0000
0000
0010
0000
,
0000
0000
1000
0000
,
0000
0000
0100
0000
,
0000
0000
1000
0000
,
0000
0000
0001
0000
,
0000
0000
0100
0000
,
0000
0000
0010
0000
,
0100
0000
1001
0000
,
0000
1001
0000
0000
,
0010
0010
0110
0000
,
0000
0110
0000
0000
,
0100
0100
1001
0000
,
0000
0110
0000
0000
,
1001
0000
1000
0000
,
0001
0000
0100
0000
,
0000
0010
0010
0010
,
0000
1000
0000
1000
,
0000
0001
0001
0001
,
0000
0100
0000
0100
,
0000
0010
0010
0010
,
0000
1000
0000
1000
,
0000
1001
0000
0010
,
0000
1001
0000
0100
,
0000
0001
0001
0001
,
1000
0000
0001
0000
,
0100
0010
0010
0010
,
0010
1000
0000
0001
,
0000
0000
1000
0000
,
0001
0000
0100
0000
,
0010
1000
0000
0010
,
0000
0100
0010
1000
,
0001
1000
0000
0010
,
0000
0100
0000
0001
,
0000
1000
0000
0100
,
0000
1000
0000
0001
,
0000
0100
0000
0000
,
0000
0010
0000
0000
,
0000
1000
0000
0000
,
0000
0001
0000
0000
,
0000
0010
0000
0000
,
0000
0001
0000
0000
,
0000
1000
0000
0000
,
0000
0001
0000
0000
,
1001
0010
0000
0000
,
0100
0100
0000
0000
,
0000
1001
0000
0000
,
0000
0010
0000
0000
,
1000
1000
0000
0001
,
0000
0000
0000
0000
,
0100
0100
0000
0000
,
0010
0010
0000
1000
,
0000
0001
0000
1000
,
0000
0010
0000
0000
,
1000
1000
0000
0001
,
0000
0100
0000
0000
,
0000
0010
0100
0100
,
0000
0010
0000
1000
,
1000
1001
0000
0000
,
0000
0001
0000
1000
,
0000
0010
0010
0010
,
0010
0010
0010
0010
,
0010
0100
0100
0100
,
0100
0100
0100
0100
,
0100
1001
0000
0010
,
0000
1001
0000
0100
,
0000
0000
1001
0000
0000
0110
0000
0000
,
1001
0000
0000
0110
0000
0000
1001
0000
;
