#VERSION:0.81;
#TITLE:Witching Hour;
#SUBTITLE:;
#ARTIST:源屋;
#TITLETRANSLIT:;
#SUBTITLETRANSLIT:;
#ARTISTTRANSLIT:Minamotoya;
#GENRE:;
#ORIGIN:;
#CREDIT:;
#BANNER:Witching Hour.png;
#BACKGROUND:Witching Hour-bg.png;
#PREVIEWVID:;
#JACKET:Witching Hour-jacket.png;
#CDIMAGE:;
#DISCIMAGE:;
#LYRICSPATH:;
#CDTITLE:;
#MUSIC:Witching Hour.ogg;
#OFFSET:-5.489998;
#SAMPLESTART:31.465145;
#SAMPLELENGTH:12.514286;
#SELECTABLE:YES;
#BPMS:0.000=175.000,
141.000=87.500,
173.000=175.000;
#STOPS:12.000=1.029,
233.000=1.029;
#DELAYS:;
#WARPS:;
#TIMESIGNATURES:0.000=4=4;
#TICKCOUNTS:0.000=4;
#COMBOS:0.000=1;
#SPEEDS:0.000=1.000=0.000=0;
#SCROLLS:0.000=1.000;
#FAKES:;
#LABELS:0.000=Song Start;
#BGCHANGES:;
#KEYSOUNDS:;
#ATTACKS:
;

//---------------dance-single - ----------------
#NOTEDATA:;
#CHARTNAME:;
#STEPSTYPE:dance-single;
#DESCRIPTION:;
#CHARTSTYLE:;
#DIFFICULTY:Hard;
#METER:9;
#RADARVALUES:0.556104,0.662786,0.598881,0.204496,0.058427,423.000000,82.000000,28.000000,0.000000,0.000000,0.000000,0.000000,0.000000,0.556104,0.662786,0.598881,0.204496,0.058427,423.000000,82.000000,28.000000,0.000000,0.000000,0.000000,0.000000,0.000000;
#CREDIT:;
#NOTES:
0001
0100
0010
1000
0001
0100
0010
1000
,
0001
0010
0100
0010
0001
1000
0100
0010
,
0100
1000
0100
1000
0100
1000
0100
1000
0001
0100
0001
0100
0001
0100
0001
0100
,
0001
0000
1002
0000
0000
1003
0000
0001
,
0000
0100
0000
0001
0010
0100
1000
0000
,
0100
0000
1100
0000
0000
0100
0000
1000
,
0000
0100
0000
1000
0010
0100
0001
0000
,
0011
0000
1001
0000
0000
0001
0000
0010
,
0000
0100
0000
0100
1000
0010
0100
0000
,
0001
0000
1001
0000
0000
0001
0000
0100
,
0000
0010
0000
1000
0100
0001
0100
0010
,
0001
1000
1001
0000
0001
0000
1001
0000
,
1000
1001
0001
1001
,
1000
1010
0010
1010
,
1000
1010
0010
1010
,
1000
0101
0001
0101
,
0100
0101
0001
0101
,
0100
0000
0001
0100
0010
1000
0001
0100
,
0010
1000
0001
0000
0000
1000
0100
0010
,
0001
0010
0100
0010
0000
0100
1000
0000
,
0001
0100
1000
0100
0000
0010
1000
0000
,
0100
0010
0001
1000
0000
0001
0100
0000
,
0010
1000
0001
0010
0000
0100
0010
0000
,
0100
1000
0010
0100
0000
0001
0100
0000
,
0010
1000
0001
0010
0000
0100
0010
0000
,
0100
1000
0010
0100
0000
0001
0010
0000
,
0001
0000
1000
0000
0001
0000
0000
0100
0000
0000
0010
0000
2000
0000
3200
0000
,
0020
0330
0011
0001
1001
0000
0101
0000
,
0001
0100
0010
0100
0001
0000
1001
0000
,
1000
0010
0100
0010
1000
0000
0011
0000
,
0010
0001
0010
0100
1000
0000
1010
1000
,
0002
1003
0100
0010
,
0001
1000
0100
0010
,
0001
0001
1000
0001
0100
0001
1000
0100
,
1000
0001
0100
0001
0010
0001
1000
0010
,
1000
0001
0020
0000
0000
0000
0230
0000
,
0000
2300
0000
3002
,
0000
0023
0000
0230
,
0000
2300
0000
3200
,
2300
3020
0000
0230
,
0000
0302
0000
2003
,
0000
3020
0000
0230
,
0000
0302
0000
0023
,
0230
0310
0010
0100
,
0100
1000
0001
0100
,
0001
1000
0100
0000
1000
0000
0010
0000
,
0100
0001
1000
0100
,
1000
0010
0100
0000
0100
0000
0100
0000
,
0100
0001
0001
1000
,
1000
0100
1000
0000
0100
0000
1000
0000
,
0010
0100
0001
0000
1000
0000
0001
0000
,
1000
0001
0101
0000
0001
0000
1000
0000
,
0100
1000
0010
0100
,
0001
0001
1000
0000
0100
0000
1000
0000
,
0010
0010
0100
0000
0001
0000
0100
0010
,
2000
0000
3001
0010
0100
0100
0010
0001
,
1000
1000
0001
0100
0010
0010
1000
0100
,
0001
0001
0101
0000
1100
0000
1001
0001
,
0001
1000
0001
1000
0001
0000
0000
0000
1001
0000
0000
0000
0101
0000
0000
0000
,
1001
1100
1001
1001
,
0101
0000
0001
0100
0110
0000
0110
0000
,
1010
0011
1001
0101
,
1001
0000
0001
0010
0110
0000
0011
0000
,
0110
0011
1100
1100
,
0011
0000
0001
0010
0110
0000
1001
0000
,
0110
0000
0001
0100
1010
0000
0101
0000
,
1001
0000
0001
0010
0110
0100
0100
0000
,
1100
1001
0101
1010
,
0101
0000
1000
0100
0110
0000
1100
0000
,
0110
0000
0001
0010
0110
0000
1100
0000
,
1010
0000
0010
0100
0110
0000
1010
0000
,
1100
0011
0101
1010
,
1001
0000
0001
0100
0101
0000
1001
0000
,
0101
0000
0000
0000
1000
0000
0001
0000
0011
0000
0000
0110
0000
0000
1100
0000
,
0002
2003
0200
3300
0100
0000
1000
0000
,
0010
0100
0001
1000
,
0001
0000
0010
0100
1000
0000
0100
0000
,
0010
0000
0001
1000
1000
0000
0010
0000
,
0100
0000
0100
0000
0010
0000
1000
0000
0001
0000
0000
1000
0000
0000
0001
0000
,
1001
0000
0000
0000
0000
0000
0000
0000
1000
0000
0000
0100
0000
0000
0010
0000
,
0011
0000
0000
0000
0001
0100
0001
0100
0002
0000
0000
0000
0100
0000
0000
0000
,
0100
0103
1000
0100
,
1000
0001
1001
0000
;

//---------------dance-single - ----------------
#NOTEDATA:;
#CHARTNAME:;
#STEPSTYPE:dance-single;
#DESCRIPTION:;
#CHARTSTYLE:;
#DIFFICULTY:Medium;
#METER:6;
#RADARVALUES:0.400645,0.421773,0.109551,0.182586,0.007303,344.000000,15.000000,25.000000,0.000000,0.000000,0.000000,0.000000,0.000000,0.400645,0.421773,0.109551,0.182586,0.007303,344.000000,15.000000,25.000000,0.000000,0.000000,0.000000,0.000000,0.000000;
#CREDIT:;
#NOTES:
0001
0001
1000
1000
,
0100
0100
0010
0010
,
0001
0100
1000
0100
0010
1000
0001
1000
,
0010
0200
0000
0000
,
0300
0000
0000
0000
0010
0100
0001
0000
,
1000
0200
0000
0300
,
0000
0000
1000
0000
0100
1000
0010
0000
,
0100
0002
0000
0003
,
0000
0000
1000
0000
0001
0100
0001
0000
,
1000
0200
0000
0300
,
0000
1000
0010
0100
,
0001
1001
0001
1000
,
0100
1000
0001
0100
,
0001
1000
0100
1000
,
0001
0100
0001
1000
,
0001
0000
1000
0000
0001
0100
0001
0000
,
0100
0010
0100
0000
0010
1000
0010
0000
,
1000
0001
1000
0001
0010
0100
1000
0100
,
0010
0001
1000
0000
0000
0000
0000
0000
,
0000
0000
0001
0100
0000
0000
1001
0000
,
0000
0001
0000
0100
0000
0000
0110
0000
,
0000
0010
0000
1000
0000
0000
0101
0000
,
0000
0001
0000
1000
0000
0000
1100
0000
,
0000
1000
0000
0100
0000
0000
1010
0000
,
0000
0010
0000
1000
0000
0000
1001
0000
,
0000
0001
0000
0100
0000
0000
1010
0000
,
0000
0000
0010
0000
0100
0000
0000
0100
0000
0000
0100
0000
0010
0000
1000
0000
,
1001
0000
0001
0000
0100
0001
0000
1000
,
0000
0100
1000
0000
0010
0100
0000
0001
,
0000
1000
0001
0000
0100
0001
0000
1000
,
0000
0100
1000
0000
0010
0100
0000
0001
,
0000
1000
0100
0000
1000
0000
0010
0000
,
0100
0001
1000
0010
,
0100
0000
0001
0100
0010
1000
0001
0100
,
0010
1000
0001
1000
0000
0000
0001
0000
,
0000
0100
0020
0000
0000
0000
2030
0000
,
0000
3002
0000
0203
,
0000
0302
0000
0023
,
0000
0032
0000
2003
,
3200
0320
0000
0230
,
0000
2300
0000
3002
,
0000
2003
0000
3200
,
0000
2300
0000
3020
,
0230
0301
0100
0001
,
0100
0010
0100
0010
,
1000
0010
1000
0000
0010
0000
1000
0000
,
0001
1000
0100
0010
,
0001
0010
0001
0000
0010
0000
0100
0000
,
1000
0100
1000
0100
,
0010
0100
0010
0000
0001
0000
0010
0000
,
0001
1000
0100
0010
,
0001
1001
0001
0100
,
0001
0101
0001
1000
,
0100
1000
1100
0000
0100
0000
1000
0000
,
0010
0100
0110
0000
0010
0000
0100
0000
,
0001
1000
0010
0000
1000
0001
0100
0000
,
0001
1000
0100
0000
1000
0001
0100
0000
,
0001
0100
0010
0000
0010
0000
0010
0100
,
0010
0100
0010
0000
0100
0000
0001
0000
,
1000
0100
0001
1000
,
0100
0000
1000
0010
0100
0000
0001
0000
,
1000
0000
0001
0100
0010
0000
0100
0000
,
0010
1000
0002
0000
0103
0000
0001
0000
,
1000
0100
1000
0010
,
0100
0000
0001
0100
0001
0000
0100
0000
,
0010
0000
1000
0010
0100
0000
0010
0000
,
1001
0000
0001
0100
0010
0000
1000
0000
,
0100
0001
0100
1000
,
0010
0000
0100
0001
1000
0000
0100
0000
,
1000
0000
0010
0100
0001
0000
1000
0000
,
0100
0000
0010
0001
0010
0000
0001
0000
,
0100
0010
1000
0001
,
0100
0000
0001
1000
0100
0000
1000
0000
,
0010
0000
0000
0000
0100
0000
0001
0000
1000
0000
0000
0001
0000
0000
0010
0000
,
0100
2000
0002
3003
0001
0000
1000
0000
,
0001
1000
0010
1000
,
0010
0100
0001
0100
,
0001
0100
0010
1000
,
0010
0000
1000
0001
0100
0000
0100
0000
,
0001
0000
1000
0100
,
1000
0000
0100
1000
,
0010
0100
0001
0010
,
0100
1000
1001
0000
;

//---------------dance-single - ----------------
#NOTEDATA:;
#CHARTNAME:;
#STEPSTYPE:dance-single;
#DESCRIPTION:;
#CHARTSTYLE:;
#DIFFICULTY:Easy;
#METER:5;
#RADARVALUES:0.281704,0.271140,0.073034,0.036517,0.000000,255.000000,10.000000,5.000000,0.000000,0.000000,0.000000,0.000000,0.000000,0.281704,0.271140,0.073034,0.036517,0.000000,255.000000,10.000000,5.000000,0.000000,0.000000,0.000000,0.000000,0.000000;
#CREDIT:;
#NOTES:
0001
0000
0100
0000
,
0010
0000
1000
0010
,
2002
0000
0000
0000
,
3003
0001
0000
0000
,
0000
0100
0000
0000
,
0000
0010
0000
0000
,
0000
1000
0000
0000
,
0001
0001
0000
0000
,
0000
1000
0000
0000
,
0000
0100
0000
0000
,
0000
1000
0000
0000
,
0010
0010
0000
0100
,
0000
0001
0000
1000
,
0000
0100
0000
1000
,
0000
0010
0000
0100
,
0001
1000
1000
0001
,
0001
1000
1000
0001
,
0001
2002
0000
0000
,
0000
3003
0000
0000
,
0000
0001
0100
0001
,
0100
0010
0100
0010
,
0100
0010
1000
0010
,
1000
0001
1000
0001
,
1000
0100
0010
0100
,
0010
0001
0010
0001
,
0010
0001
1000
0001
,
1000
1001
0000
0110
,
0000
1001
0001
0001
,
0100
0001
0001
0001
,
1000
0100
0100
0100
,
0010
0100
0100
0100
,
1000
0001
0100
0001
,
0100
0010
0100
0010
,
1000
0010
0100
0001
,
1000
1001
0000
0000
,
0000
1001
0000
0001
,
0000
0010
0000
0100
,
0000
1000
0000
0100
,
0000
0010
0000
0100
,
1000
0010
0000
0100
,
0000
0001
0000
1000
,
0000
0001
0000
0010
,
0000
0100
0000
1000
,
0001
0200
0000
0000
,
0000
0000
0000
0000
,
0300
0010
0000
1000
,
0000
0001
0001
0001
,
0000
1000
0000
0100
,
0000
1000
0000
0010
,
0000
0100
0000
0001
,
0000
1000
0000
0001
,
0000
1001
0001
1000
,
0001
1000
0010
1000
,
0010
0100
0001
0100
,
0001
0010
0100
0010
,
0001
1000
1000
0001
,
0001
0100
0100
0010
,
0010
0100
0010
1000
,
0001
1001
0001
0100
,
0001
0100
0010
0100
,
0010
0000
1000
0010
1000
0000
0010
0000
,
0100
0001
1000
0100
,
0010
0000
0001
0010
0001
0000
0010
0000
,
0100
1000
0100
1000
,
0010
0000
0100
0010
0100
0000
0010
0000
,
1000
0001
0100
0001
,
1000
0000
0100
1000
0010
0000
0100
0000
,
0010
1000
0001
0100
,
0001
0000
1000
0001
1000
0000
0001
0000
,
0010
0100
0010
0010
,
0100
0000
1000
0100
1000
0000
0100
0000
,
0010
0100
0010
0001
,
0010
0000
0001
1000
0001
0000
0100
0000
,
0001
1000
0100
1000
,
0010
0000
0100
0001
1000
0000
1000
0000
,
0001
0001
0100
0100
,
0001
0100
0001
0001
,
1000
0010
0100
0100
,
0100
0001
1000
1000
,
0100
0000
0010
0010
,
0001
0000
1000
0001
,
0100
0010
0100
0000
,
0001
0000
1001
0000
;

//---------------dance-single - ----------------
#NOTEDATA:;
#CHARTNAME:;
#STEPSTYPE:dance-single;
#DESCRIPTION:;
#CHARTSTYLE:;
#DIFFICULTY:Beginner;
#METER:2;
#RADARVALUES:0.138765,0.180760,0.051124,0.000000,0.000000,126.000000,7.000000,0.000000,0.000000,0.000000,0.000000,0.000000,0.000000,0.138765,0.180760,0.051124,0.000000,0.000000,126.000000,7.000000,0.000000,0.000000,0.000000,0.000000,0.000000,0.000000;
#CREDIT:;
#NOTES:
// measure 0
0000
0000
0000
0000
,  // measure 1
0000
0000
0000
0000
,  // measure 2
0000
0000
0000
0000
,  // measure 3
0000
1001
0000
0010
,  // measure 4
0000
0100
0000
0000
,  // measure 5
0000
1001
0000
1000
,  // measure 6
0000
0100
0000
0000
,  // measure 7
1000
1000
0000
0010
,  // measure 8
0000
0100
0000
0000
,  // measure 9
0000
0001
0000
1000
,  // measure 10
0000
0010
0000
0000
,  // measure 11
0000
0100
0000
0010
,  // measure 12
0000
1000
0000
0001
,  // measure 13
0001
0001
0000
1000
,  // measure 14
0000
0010
0000
0100
,  // measure 15
0100
0100
0000
0010
,  // measure 16
0000
1000
0000
0001
,  // measure 17
1000
1001
0000
0000
,  // measure 18
0000
0010
0000
0100
,  // measure 19
0000
1001
0000
0000
,  // measure 20
0000
0001
0000
0000
,  // measure 21
0000
0100
0000
0000
,  // measure 22
0000
0010
0000
0100
,  // measure 23
0000
0001
0000
0000
,  // measure 24
0000
1000
0000
0000
,  // measure 25
0000
0100
0000
0000
,  // measure 26
0000
1000
0000
0010
,  // measure 27
0000
0100
0100
0100
,  // measure 28
0000
0010
0000
0000
,  // measure 29
1000
1000
0000
0000
,  // measure 30
0001
0001
0000
0000
,  // measure 31
0000
0100
0000
0100
,  // measure 32
0000
0100
0000
0100
,  // measure 33
0000
0010
0000
1000
,  // measure 34
0000
0001
0000
0010
,  // measure 35
0000
1001
0000
0000
,  // measure 36
0000
0000
0000
0000
,  // measure 37
0000
0001
0000
0000
,  // measure 38
0000
0000
0000
0000
,  // measure 39
0000
1000
0000
0000
,  // measure 40
0000
0010
0000
0000
,  // measure 41
0000
0100
0000
0000
,  // measure 42
0000
0001
0000
1000
,  // measure 43
0010
0100
0000
0000
,  // measure 44
0000
0000
0000
0000
,  // measure 45
0000
0000
0000
0000
,  // measure 46
0000
0000
0000
0000
,  // measure 47
0000
0000
0000
0000
,  // measure 48
0000
0000
0000
0000
,  // measure 49
0000
0000
0000
0000
,  // measure 50
0000
0000
0000
0000
,  // measure 51
0000
0010
0000
1000
,  // measure 52
0000
0001
0001
0001
,  // measure 53
0000
1000
0000
0000
,  // measure 54
0010
0010
0100
0000
,  // measure 55
0000
0010
0000
1000
,  // measure 56
0000
0100
0000
0010
,  // measure 57
0000
0001
0000
1000
,  // measure 58
0001
1001
0001
0000
,  // measure 59
0001
0000
0100
0000
,  // measure 60
0010
0000
0100
0000
,  // measure 61
0001
0000
1000
1000
,  // measure 62
1000
0000
0100
0000
,  // measure 63
1000
0000
0010
0000
,  // measure 64
0100
0000
0010
0000
,  // measure 65
0100
0000
0001
0000
,  // measure 66
1000
0000
0001
0000
,  // measure 67
1000
0000
0010
0000
,  // measure 68
1000
0001
0001
0000
,  // measure 69
0100
0010
0010
0000
,  // measure 70
0100
0010
0010
0000
,  // measure 71
1000
0000
0100
0000
,  // measure 72
1000
0000
0001
0000
,  // measure 73
0100
0000
0010
0000
,  // measure 74
0100
0000
0001
0000
,  // measure 75
0000
0000
1000
0000
,  // measure 76
0000
0000
0010
0000
,  // measure 77
0000
0000
0000
0000
,  // measure 78
0000
0000
0100
0000
,  // measure 79
0000
0000
0100
0000
,  // measure 80
0000
0000
1001
0000
,  // measure 81
0000
0000
0000
0000
,  // measure 82
0000
0000
0010
0000
;
