#TITLE:White Lovers;
#SUBTITLE:(GB Version);
#ARTIST:Tommy Angel;
#TITLETRANSLIT:;
#SUBTITLETRANSLIT:;
#ARTISTTRANSLIT:;
#GENRE:;
#CREDIT:;
#BANNER:White Lovers (GB Version).png;
#BACKGROUND:White Lovers (GB Version)-bg.png;
#LYRICSPATH:;
#CDTITLE:;
#MUSIC:White Lovers (GB Version).ogg;
#OFFSET:-0.752000;
#SAMPLESTART:65.837204;
#SAMPLELENGTH:14.839638;
#SELECTABLE:YES;
#BPMS:0.000000=125.339996
;
#STOPS:
;
#BGCHANGES:;
#KEYSOUNDS:;
#ATTACKS:;

//---------------dance-single - ----------------
#NOTES:
     dance-single:
     :
     Hard:
     6:
     0.318257,0.367550,0.136197,0.233481,0.024321,229.000000,215.000000,14.000000,24.000000,0.000000,0.000000,0.318257,0.367550,0.136197,0.233481,0.024321,229.000000,215.000000,14.000000,24.000000,0.000000,0.000000:
0000
0000
0000
0000
,
0000
0000
0000
0000
,
1001
0000
0000
0100
,
1001
0000
0110
0000
,
1001
0000
0001
0000
,
0100
0000
0010
1000
,
0002
0000
0000
1000
2000
0000
0000
0000
,
0000
0000
3003
0000
,
0001
1000
0001
1000
0000
0000
0100
0000
,
1000
0001
1000
0001
0000
0000
0001
0000
,
1000
0001
1000
0001
0100
0010
1000
0001
,
0100
0001
0010
0001
,
1000
0001
1000
0001
0000
0000
0100
0000
,
0001
1000
0001
1000
0000
0000
0010
0000
,
1001
0100
1001
0001
,
1000
0100
0010
0001
,
1000
0100
1000
0010
0000
0100
0010
1000
,
0001
0010
0001
0100
0000
0001
0100
0010
,
1000
0000
0100
1000
0000
0010
0000
0000
,
0100
0000
0001
1000
0000
0100
0000
0000
,
1000
0000
0010
1000
0000
0010
0000
0100
,
0010
1000
0001
0010
0000
0100
0010
0001
,
1000
0000
0001
0100
0000
0001
0000
0000
,
1000
0010
0010
0000
0100
0100
0100
0000
,
0001
0100
0010
1000
0000
0000
0000
1000
,
0100
1000
0001
0010
0000
0000
0000
0100
,
0010
0001
0010
0100
0000
0000
0000
0010
,
0100
0001
1000
0001
0000
0000
0000
0001
,
1000
0100
1000
0010
0000
0000
0000
0100
,
0001
0000
0010
0000
0100
0000
0010
0000
0000
0000
0100
0000
0000
1000
0000
0000
,
0010
0100
0001
1000
0000
1001
0000
0001
,
0010
0100
1000
0100
0000
1001
0000
1000
,
0001
0000
0000
0010
0000
0000
0100
0000
1000
0000
0000
0000
0010
0000
0000
0000
,
2002
0000
3003
1000
,
0200
0000
0310
0001
0100
0000
0000
0010
,
2000
3010
0200
0301
,
2000
0000
3000
0001
0200
0000
0300
0010
,
2000
3010
0200
0301
,
1000
0000
0101
0001
0010
0000
0000
0100
,
2000
0000
0000
0000
3000
0000
0000
0000
0100
0000
0000
0010
0000
0000
0001
0000
,
2000
0000
0000
3001
0200
0000
0000
0000
,
0310
0100
0001
1000
,
0001
0000
1001
0001
1000
0000
0000
0100
,
0020
0031
0200
0310
,
0200
0000
0300
0001
0020
0000
0030
0100
,
2000
3001
0020
0130
,
0010
0000
1001
0001
2000
0000
3000
0100
,
0020
0000
0000
0000
0000
0000
0030
0000
0100
0000
0000
0010
0000
0000
0001
0000
,
0200
0000
0300
0010
2000
0000
3000
0000
,
0001
0000
0000
0000
1000
0000
0000
0000
0010
0000
0100
0000
0000
0001
0000
0000
,
1001
0000
0000
0110
0000
0000
0000
0000
;

//---------------dance-single - ----------------
#NOTES:
     dance-single:
     :
     Medium:
     5:
     0.258497,0.348155,0.087555,0.068099,0.019457,186.000000,177.000000,9.000000,7.000000,0.000000,0.000000,0.258497,0.348155,0.087555,0.068099,0.019457,186.000000,177.000000,9.000000,7.000000,0.000000,0.000000:
0000
0000
0000
0000
,
0000
0000
0000
0000
,
1001
0000
0000
0010
,
1001
0000
1000
0000
,
0001
0000
0100
0000
,
0010
0000
0100
0010
,
2000
0000
0000
0001
0002
0000
0000
0000
,
3003
0000
0000
0000
,
0001
0000
0000
1000
0000
0000
0100
0000
,
1000
0000
0000
0010
0000
0000
0100
0001
,
0100
0000
0000
0001
0000
0000
0010
0100
,
1000
0100
1000
0010
,
0100
0000
0000
0001
0000
0000
0010
0100
,
0010
0000
0000
0100
0000
0000
1000
0100
,
0010
0100
1000
0001
,
0200
0000
0000
0300
,
0001
0000
0000
1000
0000
0000
0100
0000
,
1000
1000
0000
0010
0000
0000
0100
0000
,
0001
0000
0000
0010
0000
0100
0000
0000
,
1000
1000
0000
0100
0000
1000
0000
0000
,
0010
0000
0000
0100
0000
0000
0001
0000
,
1000
1000
0000
0001
0000
0000
0100
0000
,
0001
0000
0000
0010
0000
0100
0000
0000
,
1000
0001
0100
0000
0100
0001
1000
0000
,
0001
1000
0001
1000
0000
0000
0000
0000
,
1000
0001
1000
0001
0000
0000
0000
0000
,
0100
0010
0100
0010
0000
0000
0000
0000
,
0010
0100
0010
0100
0000
0000
0000
0000
,
0001
0100
0010
1000
0000
0000
0000
0000
,
1000
0000
0010
0000
0100
0000
0001
0000
0000
0000
1000
0000
0000
0001
0000
0000
,
1000
0100
0010
0001
0000
1001
0000
0000
,
0001
0010
0100
1000
0000
1001
0000
0000
,
0001
0000
0000
1000
0000
0000
0100
0000
0010
0000
0000
0000
0100
0000
0000
0000
,
2002
0000
3003
0010
,
1001
0000
0000
0001
1000
0000
0000
0001
,
0010
0001
0010
0100
,
0010
0000
0000
0001
0100
0000
0000
0100
,
0010
1000
0010
0100
,
0010
0000
1001
0000
1000
0000
0000
0001
,
0001
0000
0000
0000
0000
0000
0000
0000
1000
0000
0000
0001
0000
0000
0010
0000
,
0100
0000
0000
0001
1000
0000
0000
0000
,
0001
0010
0100
0010
,
0001
0000
0000
1000
0100
0000
0000
0100
,
0010
0100
1000
0001
,
1000
0000
0000
0010
1000
0000
0000
1000
,
0001
0010
0001
0100
,
0010
0000
1001
0000
1000
0000
0000
0001
,
0001
0000
1000
0010
,
0100
0000
0000
0010
1000
0000
0000
0000
,
0001
0000
0000
0000
0010
0000
0000
0000
0100
0000
1000
0000
0000
0001
0000
0000
,
0100
0000
0000
2002
0000
0000
0000
0000
,
0000
3003
0000
0000
0000
0000
0000
0000
;

//---------------dance-single - ----------------
#NOTES:
     dance-single:
     :
     Easy:
     2:
     0.158434,0.173652,0.038914,0.058370,0.000000,114.000000,110.000000,4.000000,6.000000,0.000000,0.000000,0.158434,0.173652,0.038914,0.058370,0.000000,114.000000,110.000000,4.000000,6.000000,0.000000,0.000000:
0000
0000
0000
0000
,
0000
0000
0000
0000
,
1000
0000
0000
0010
,
0100
0000
0001
0000
,
1000
0000
0001
0000
,
0100
0000
0010
0100
,
0002
0000
2000
0000
,
3003
0000
0000
0000
,
1000
0000
0000
0001
0000
0000
0000
0000
,
1000
0000
0000
0001
0000
0000
0000
0000
,
1000
0000
0000
0001
0000
0000
0000
0000
,
0100
0010
1000
0100
,
0010
0000
0000
0001
0000
0000
0000
0000
,
0100
0000
0000
0010
0000
0000
0000
0000
,
1000
0000
0001
0000
,
1001
0000
0000
0000
,
1000
0000
0000
0001
,
0100
0000
0000
0010
,
1000
0000
0100
0000
,
1000
0001
1000
0000
,
0010
0000
0100
0000
,
0001
0001
0001
0000
,
1000
0000
0100
0000
,
1001
0000
0110
0000
,
0100
0000
0000
0000
,
0001
0000
0000
0000
,
0010
0000
0000
0000
,
0001
0000
0000
0000
,
1000
0000
0000
0000
,
0100
0000
1000
0000
,
0010
0010
0010
0000
,
0100
0100
0100
0000
,
0010
0000
0100
0000
,
2002
0000
0000
3003
,
0001
0000
0100
0000
,
0010
0100
0001
1000
,
0010
0000
0100
0000
,
0010
1000
0100
1000
,
0001
0000
0100
0000
,
0010
0000
0100
0001
,
1000
0000
0100
0000
,
1000
0100
0010
0100
,
1000
0000
0010
0000
,
0100
0010
1000
0001
,
0010
0000
0100
0000
,
0010
0001
0100
0001
,
1000
0000
0100
0000
,
1000
0000
0001
1000
,
0010
0000
0100
0000
,
0001
0100
0010
1000
,
0200
0000
0000
0020
0000
0000
0000
0000
,
0330
0000
0000
0000
;

//---------------dance-single - ----------------
#NOTES:
     dance-single:
     :
     Beginner:
     1:
     0.073658,0.121605,0.029185,0.000000,0.000000,53.000000,50.000000,3.000000,0.000000,0.000000,0.000000,0.073658,0.121605,0.029185,0.000000,0.000000,53.000000,50.000000,3.000000,0.000000,0.000000,0.000000:
0000
0000
0000
0000
,
0000
0000
0000
0000
,
0000
0000
0000
0000
,
0000
0000
0000
0000
,
1000
0000
0000
0000
,
0001
0000
0000
0000
,
0100
0000
0010
0000
,
0000
0000
0000
0000
,
1000
0000
0000
0000
,
0001
0000
0000
0000
,
0100
0000
0000
0000
,
0010
0000
0000
0000
,
0001
0000
0000
0000
,
1000
0000
0000
0000
,
0100
0000
0010
0000
,
0001
0000
0000
0000
,
1000
0000
0000
0000
,
1000
0000
0000
0000
,
0010
0000
0000
0000
,
0100
0000
0000
0000
,
0001
0000
0000
0000
,
0010
0000
0000
0000
,
0001
0000
0000
0000
,
1000
0000
0000
0000
,
0100
0000
0000
0000
,
0010
0000
0000
0000
,
1000
0000
0000
0000
,
0001
0000
0000
0000
,
0010
0000
0000
0000
,
0100
0000
0000
0000
,
1000
0000
0000
0000
,
0001
0000
0000
0000
,
0100
0000
0010
0000
,
1001
0000
0000
0000
,
1000
0000
0000
0000
,
0100
0000
0000
0000
,
1000
0000
0000
0000
,
0010
0000
0000
0000
,
0100
0000
0000
0000
,
0001
0000
0000
0000
,
1000
0000
0000
0000
,
0100
0000
0010
0000
,
1001
0000
0000
0000
,
0001
0000
0000
0000
,
1000
0000
0000
0000
,
0010
0000
0000
0000
,
0100
0000
0000
0000
,
0001
0000
0000
0000
,
1000
0000
0001
0000
,
0000
0000
0000
0000
,
1001
0000
0000
0000
;

//---------------dance-single - ----------------
#NOTES:
     dance-single:
     :
     Challenge:
     9:
     0.507266,0.598296,0.311308,0.515604,0.345358,365.000000,333.000000,32.000000,53.000000,0.000000,0.000000,0.507266,0.598296,0.311308,0.515604,0.345358,365.000000,333.000000,32.000000,53.000000,0.000000,0.000000:
// measure 0
0000
0000
0000
0000
,  // measure 1
0000
0000
0000
0000
,  // measure 2
1001
0000
0000
0000
0000
0000
0001
1000
0010
0000
0000
0000
0101
0000
0100
0001
,  // measure 3
0020
0130
2000
3001
,  // measure 4
1001
0000
0000
0000
0000
0000
1000
0001
0200
0000
0000
0000
0300
0000
0010
1000
,  // measure 5
0020
0030
0200
0302
,  // measure 6
2003
0000
0000
0100
0200
0000
0000
0000
,  // measure 7
3300
0000
0000
0000
0000
0000
0000
0000
1000
0001
0100
0001
1000
0000
0100
0000
,  // measure 8
1000
0010
0100
0001
1000
0000
0200
0000
0000
0000
0000
0000
0310
0000
0100
0000
,  // measure 9
1000
0010
0100
0001
0010
0000
0200
0000
0000
0000
0000
0000
0310
0000
0001
0000
,  // measure 10
0100
0010
1000
0001
0010
0000
0100
0000
1000
0000
0010
0000
0001
0000
0010
0000
,  // measure 11
2000
3001
0020
0130
,  // measure 12
1000
0100
1000
0001
0100
0000
0020
0000
0000
0000
0000
0000
0130
0000
0001
0000
,  // measure 13
1000
0001
0010
0001
1000
0000
0100
0000
0000
0000
0000
0000
0010
0000
0100
0000
,  // measure 14
1000
0001
0100
0001
0010
0000
0100
0000
1000
0000
0100
0000
0001
0000
0100
0000
,  // measure 15
0020
0001
1000
0031
,  // measure 16
0011
0001
0100
0110
0000
0100
0010
1000
,  // measure 17
1100
1100
0100
0010
0000
0100
1000
0001
,  // measure 18
1001
0000
0001
2001
0000
0100
0000
3000
,  // measure 19
1100
1100
1000
1002
0000
0023
0000
0000
,  // measure 20
0130
1000
0001
1001
0000
1000
0010
0100
,  // measure 21
0101
0101
0001
1001
0000
1000
0100
1000
,  // measure 22
1001
0000
0001
0020
0000
0230
0000
0300
,  // measure 23
1000
1100
0101
0000
1001
0110
1001
0001
,  // measure 24
1000
0000
0001
0100
0001
0000
0100
0001
1000
0100
0010
0000
0000
0000
0100
0000
,  // measure 25
1000
0000
0001
0100
0001
0000
0100
0010
1000
0001
0010
0000
0000
0000
0100
0000
,  // measure 26
1000
0000
0001
0010
0001
0000
0100
0010
1000
0001
0010
0000
0000
0000
0100
0000
,  // measure 27
1000
0000
0100
0000
0001
0000
0100
0010
0001
1000
0010
0000
0000
0000
0100
0000
,  // measure 28
0001
0000
0010
0100
0010
0000
0100
1000
0001
0100
0010
0000
0000
0000
1000
0000
,  // measure 29
0001
0000
0100
0010
0100
0000
0010
1000
0001
0010
0100
0000
0100
1000
0000
1000
,  // measure 30
0001
0100
1000
1200
0000
0320
0000
1030
,  // measure 31
1100
0100
0001
0201
0000
0320
0000
0130
,  // measure 32
0120
0000
0000
1000
0000
0000
0031
0000
0201
0000
0000
0000
0320
0000
0000
0000
,  // measure 33
1030
0100
0010
0001
1000
0100
0010
0001
1000
0000
0000
0000
0002
0000
0000
0000
,  // measure 34
0103
0100
0000
0000
1010
0000
1000
0001
0010
0000
0000
0000
0100
0000
1000
0001
,  // measure 35
0100
0100
0000
0000
0020
0000
0000
0000
1030
0000
0000
0000
0200
0000
0000
0000
,  // measure 36
0310
0010
0000
0000
0001
0000
1000
0001
0200
0000
0000
0000
0301
0000
0010
0100
,  // measure 37
1000
1000
0000
0000
0002
0000
0000
0000
0103
0000
0000
0000
0200
0000
0000
0000
,  // measure 38
0310
0010
0000
0000
1001
0000
1000
0001
0200
0000
0000
0000
0010
0000
0301
1000
,  // measure 39
0002
0000
0000
0000
0103
0000
0000
0000
0020
0000
0000
1030
0000
0000
0001
0000
,  // measure 40
0010
0010
0000
0000
0100
0000
0010
0001
2000
0000
0000
0000
0000
0000
0000
0000
,  // measure 41
3002
0203
2300
3020
,  // measure 42
0031
0001
0000
0000
0101
0000
0001
1000
0100
0000
0000
0000
0010
0000
0001
1000
,  // measure 43
0010
0010
0000
0000
0200
0000
0000
0000
0301
0000
0000
0000
0020
0000
0000
0000
,  // measure 44
0130
0100
0000
0000
1000
0000
0001
1000
0020
0000
0000
0000
1030
0000
0100
0010
,  // measure 45
0001
0001
0000
0000
2000
0000
0000
0000
3010
0000
0000
0000
0020
0000
0000
0000
,  // measure 46
0130
0100
0000
0000
1001
0000
0001
1000
0020
0000
0000
0000
0100
0000
1030
0001
,  // measure 47
2000
0000
0000
0000
3010
0000
0000
0000
0200
0000
0000
0301
0000
0000
1000
0000
,  // measure 48
0100
0100
0000
0000
0010
0000
0100
1000
0002
0000
0000
0000
0000
0000
0000
0000
,  // measure 49
2003
0000
0000
0000
3020
0000
0000
0000
0130
0000
0100
0000
0010
0100
0000
0000
,  // measure 50
1002
0000
0000
2000
0000
0000
0000
0000
,  // measure 51
0000
3003
0000
0000
;
