#TITLE:Want You;
#SUBTITLE:;
#ARTIST:Orbiter;
#TITLETRANSLIT:;
#SUBTITLETRANSLIT:;
#ARTISTTRANSLIT:;
#GENRE:;
#CREDIT:;
#BANNER:Want You-bn.png;
#BACKGROUND:Want You-bg.png;
#LYRICSPATH:;
#CDTITLE:;
#MUSIC:Want You.ogg;
#OFFSET:2.202002;
#SAMPLESTART:48.185001;
#SAMPLELENGTH:19.199989;
#LASTBEATHINT:1.970003;
#SELECTABLE:YES;
#BPMS:0.000000=100.000000
;
#STOPS:
;
#BGCHANGES:;
#KEYSOUNDS:;
#ATTACKS:;

//---------------dance-single - ----------------
#NOTES:
     dance-single:
     :
     Hard:
     6:
     0.268879,0.356859,0.081127,0.251495,0.267720,232.000000,222.000000,10.000000,31.000000,0.000000,0.000000,0.268879,0.356859,0.081127,0.251495,0.267720,232.000000,222.000000,10.000000,31.000000,0.000000,0.000000:
0000
0000
0000
0000
,
0000
0000
0000
0000
,
0000
0000
0000
0000
,
0000
0000
0000
0000
,
0000
0000
0000
0000
0000
0000
1000
0001
,
0120
0000
0000
0000
0030
0000
0100
0001
,
0000
0010
0000
0000
0000
0000
0000
0100
,
1000
0001
0100
0001
0010
0100
1000
0001
,
0000
0000
0000
0000
0100
0000
0010
1000
,
0102
0000
0000
0000
0003
0000
0010
0100
,
0000
0010
0000
0000
0000
0000
0000
0000
,
0001
0100
0010
0100
0001
1000
0100
0010
,
0000
0000
0000
0000
0100
0000
1000
0001
,
0200
0000
0310
0000
1000
0000
0001
0100
,
1000
0000
0000
0000
0100
0000
0000
0000
0010
1000
0010
0100
0000
0000
0010
0000
,
0100
0001
0010
0001
1000
0100
1000
0001
,
0000
0000
0000
0000
0000
0000
0000
0000
0100
0010
1000
0001
0000
0000
0000
0000
,
0020
0000
0130
0000
1000
0000
0001
1000
,
0100
0000
0000
0000
1000
0000
0000
0000
0010
0000
0100
0001
0100
0000
0000
0000
,
0010
0100
0001
0010
1000
0010
0100
1000
,
0000
0000
0000
0000
1000
0200
0320
0230
,
1300
0000
0000
0000
1001
0000
0000
0000
0001
0000
0100
0001
0000
0010
0000
0001
,
0000
1000
0000
0000
0101
0000
0000
0000
0100
0000
0010
1000
0000
0100
0000
1000
,
0001
0000
0000
0000
1100
0000
0000
0000
0100
0000
0010
0100
0000
0010
0000
0001
,
0000
1000
0000
0000
0000
0000
1000
0000
0010
0000
0100
0001
0000
0010
0000
0100
,
1000
0000
0000
0000
1001
0000
0000
0000
0001
0000
0100
0010
0000
1000
0000
0001
,
0000
0010
0000
0000
1001
0000
0000
0000
1000
0000
0100
0010
0000
0100
0000
1000
,
0001
0000
0000
0000
0110
0000
0000
0000
0010
0000
0100
0000
0001
1000
0000
0001
,
0000
0001
0000
0000
0000
0000
0001
0000
1000
0000
0100
0010
0000
0001
0000
1000
,
0010
0000
0100
0000
0001
0100
0000
0020
0000
2030
0000
3001
0000
0000
0000
0000
,
0010
0000
0100
0000
1000
0010
0000
0200
0000
0000
0000
0301
0000
0000
0000
0000
,
0010
0000
0100
0000
1000
0010
0000
0200
0000
0302
0000
0013
0000
0000
0000
0000
,
0100
0000
0010
0000
0001
1000
0000
0020
0000
0000
0000
0130
0000
0000
0000
1001
,
0000
0000
1000
0000
0001
0100
0000
0020
0000
2030
0000
3100
0000
0000
0000
0010
,
0100
0000
1000
0000
0001
0010
0000
0002
0000
0000
0000
0103
0000
0000
0000
0000
,
0010
0000
0100
0000
0001
1000
0000
0020
0000
0230
0000
0301
0000
0000
0000
0000
,
0010
0000
0100
0000
1000
0001
0000
0200
0000
0000
0000
0310
1000
0001
0000
2001
,
0000
0000
0000
0000
0000
0000
3001
0020
,
0000
0000
0000
0000
0130
0000
0010
0002
,
0000
0000
0000
0000
0000
0000
0000
2003
,
0000
0000
3020
0000
,
0230
0000
0000
0000
0320
0000
1030
0002
,
0000
0000
0000
0000
0013
0000
0100
2000
,
0000
0000
0000
0000
3001
0000
0100
0020
,
0000
0000
2030
3002
,
0103
0000
0000
0000
0000
0000
0010
0100
,
0000
0000
0000
0000
0001
0000
1000
0100
,
0000
0000
0000
0000
0000
0000
0000
0010
,
0000
0000
0000
0000
0000
0000
0000
0100
0000
0100
0000
0000
0100
0000
0100
0000
;

//---------------dance-single - ----------------
#NOTES:
     dance-single:
     :
     Medium:
     5:
     0.183116,0.297002,0.081127,0.048676,0.113578,158.000000,148.000000,10.000000,6.000000,0.000000,0.000000,0.183116,0.297002,0.081127,0.048676,0.113578,158.000000,148.000000,10.000000,6.000000,0.000000,0.000000:
0000
0000
0000
0000
,
0000
0000
0000
0000
,
0000
0000
0000
0000
,
0000
0000
0000
0000
,
0000
0000
0000
0000
,
2001
0000
3000
0000
,
0100
0000
0000
0000
,
1000
0000
0010
0000
0100
0001
0010
0100
,
0000
0000
0000
0010
,
1001
0000
1000
0000
,
0001
0000
0100
0000
,
0010
0000
1000
0000
0100
1000
0001
0100
,
0000
0000
0000
0000
0000
0000
0010
0100
,
0010
0000
1000
0000
0010
0000
0100
0001
,
0100
0000
0000
0000
0001
0000
0000
0000
1000
0000
0000
0001
0000
0000
0000
0000
,
0100
0000
0010
0000
1000
0001
0010
0001
,
0000
0000
1000
0001
,
0100
0000
0010
0000
1000
0000
0100
1000
,
0100
0000
0000
0000
1000
0000
0000
0000
0001
0000
0000
0010
0000
0000
0000
0000
,
0001
0000
0100
0000
0010
1000
0010
0100
,
0000
0000
0000
0000
0000
0100
0010
1000
,
1001
0000
0101
0000
0001
0000
1000
0100
,
1000
0000
1010
0000
0010
0000
0100
0001
,
0100
0000
0011
0000
0001
0000
1000
0001
,
1000
0000
1100
0000
1000
0100
0001
0100
,
1000
0000
1010
0000
0010
0100
0001
0000
,
0010
0000
0110
0000
0100
1000
0001
0100
,
0001
0000
0011
0000
0001
1000
0020
0000
,
0130
0000
0000
0000
0100
0010
1000
0001
,
1000
0000
0000
0000
0000
0000
0000
0001
0000
0100
0000
0010
0000
0000
0000
0000
,
0000
0000
0000
0000
0000
0000
0000
0100
0000
0000
0000
0010
0000
0000
0000
0000
,
0000
0000
0000
0000
0000
0000
0000
1000
0000
0010
0000
0100
0000
0000
0000
0000
,
0000
0000
0000
0000
0000
0000
0000
0010
0000
0000
0000
1000
0000
0000
0000
0001
,
0000
1000
0000
0000
0000
0000
0000
0001
0000
0010
0000
0100
0000
0000
0000
0000
,
0000
0000
0000
0000
0000
0000
0000
0010
0000
0000
0000
0001
0000
0000
0000
0000
,
0000
0000
0000
0000
0000
0000
0000
1000
0000
0010
0000
0100
0000
0000
0000
0000
,
0000
0000
0000
0000
0000
0000
0000
0010
0000
0000
0000
0100
0000
0000
0000
0010
,
0000
0000
0000
0000
0000
0000
1000
0100
,
0000
0000
0000
0000
0010
0000
0100
1000
,
0000
0000
0000
0000
0000
0000
0000
0001
,
0000
0000
0100
0000
,
0010
0000
0000
0000
1000
0000
0001
1000
,
0000
0000
0000
0000
0100
0000
0010
0100
,
0000
0000
0000
0000
0000
0000
0010
0001
,
0000
0000
1000
0001
,
0200
0000
0000
0300
,
0020
0000
0000
0030
,
2000
0000
0000
3000
,
0002
0000
0000
0000
0000
0000
0000
1003
0000
0001
0000
0000
1000
0001
0000
0000
;

//---------------dance-single - ----------------
#NOTES:
     dance-single:
     :
     Easy:
     2:
     0.130963,0.198001,0.048676,0.105466,0.000000,113.000000,107.000000,6.000000,13.000000,0.000000,0.000000,0.130963,0.198001,0.048676,0.105466,0.000000,113.000000,107.000000,6.000000,13.000000,0.000000,0.000000:
0000
0000
0000
0000
,
0000
0000
0000
0000
,
0000
0000
0000
0000
,
0000
0000
0000
0000
,
0000
0000
0000
0000
,
1001
0000
0000
1000
,
0000
0000
0000
0000
,
0001
0000
1000
0000
,
0010
0000
0000
0100
,
0001
0000
0000
0010
,
0100
0000
0000
0000
,
1000
0001
0100
0001
,
0010
0000
0000
0100
,
1000
0001
0000
0001
,
0000
0100
0010
0000
,
1000
0001
0000
0100
,
0000
0010
1000
0000
,
0100
1000
0000
0001
,
0000
0100
0010
0000
,
0100
0001
0010
0100
,
1000
0000
0000
0100
,
1000
1001
0001
0010
,
0001
1000
0100
1000
,
0001
0100
0010
1000
,
0010
0100
0001
0010
,
0001
1100
1000
0010
,
0100
0001
0010
0100
,
0010
0001
2000
0000
,
3000
0000
0001
1000
,
0110
1000
0200
0300
,
1000
0001
0020
0030
,
0001
0100
0020
0030
,
1000
0001
0200
0300
,
1001
0000
2000
3000
,
0001
0010
0002
0003
,
0100
0010
2000
3000
,
0010
0100
0002
1003
,
0110
0000
0000
1000
,
0000
0000
0001
1000
,
0000
0000
0000
0000
0000
0000
0000
0100
,
0000
0000
0010
0000
,
0001
0000
0000
0000
1000
0000
0000
0001
,
0000
0000
0000
0000
0001
0000
0000
1000
,
0000
0000
0010
0000
,
0000
0000
0010
1000
,
0002
0000
0000
0003
,
2000
0000
0000
3000
,
0020
0000
0000
0030
,
0200
0000
0000
0000
0000
0000
0000
0000
0000
0000
0000
0000
0000
0300
0000
0000
;

//---------------dance-single - ----------------
#NOTES:
     dance-single:
     :
     Challenge:
     7:
     0.301330,0.416335,0.089240,0.340735,0.316397,260.000000,249.000000,11.000000,42.000000,14.000000,0.000000,0.301330,0.416335,0.089240,0.340735,0.316397,260.000000,249.000000,11.000000,42.000000,14.000000,0.000000:
0000
0000
0000
0000
,
0000
0000
0000
0000
,
0000
0000
0000
0000
,
0000
0000
0000
0000
,
0000
0000
0000
0000
0000
0000
1000
0001
,
0200
0000
0000
0000
0000
0000
0301
0020
,
0000
0200
0000
0000
0000
0000
0330
0100
,
1000
0100
0001
0100
1000
0010
0100
0002
,
0000
0000
0000
0000
2003
0000
3001
1000
,
0200
0000
0000
0000
0000
0000
1300
0020
,
0000
0200
0000
0000
0000
0000
0330
0000
,
0100
0001
0010
0001
0100
0010
1000
0200
,
0000
0000
0320
0031
,
0001
0100
0101
0000
0001
1000
0001
0000
,
1000
0000
0100
0000
1100
0000
0000
0000
1000
0010
1000
0010
0000
0000
0100
0000
,
0001
0010
1000
0010
0001
0100
0010
1000
,
0100
0000
0010
0000
0110
0000
0000
0000
0100
1000
0100
1000
0000
1000
0100
0000
,
0010
0001
0011
0000
0100
0001
0100
0010
,
1000
0000
0001
0000
1001
0000
0000
0000
0001
0000
0001
0010
0001
0000
0010
0000
,
0001
0100
1000
0100
0001
0010
0100
1000
,
0001
0100
0010
0100
0002
00M0
0M00
00M0
,
0013
0000
0010
0000
0011
0000
0000
0000
0001
0000
0100
0001
0000
1000
0000
0100
,
0000
0010
0000
0000
0100
0000
1000
0000
0010
0000
0100
0001
0000
0100
0000
0010
,
0000
0000
1000
0000
0100
0000
0001
0000
0100
0000
1000
0010
0000
0100
0000
0010
,
0000
1000
0000
0000
1001
0000
0001
0000
0010
0000
0001
0100
0000
0100
0000
0010
,
1000
0000
1000
0000
1100
0000
0000
0000
1000
0000
0100
1000
0000
0001
0000
0100
,
0010
0000
0010
0000
0110
0000
0000
0000
0100
0000
0001
1000
0000
0100
0000
0010
,
0001
0000
0001
0000
0101
0000
0000
0000
2000
0000
3200
0000
0320
0032
0000
0203
,
0000
0320
0000
0000
0000
0000
0230
0000
0302
0000
0023
0230
0000
2300
0000
3002
,
1003
0000
0010
0000
1000
0100
0000
0100
0000
0001
0000
0100
0000
1000
0100
0010
,
0001
0000
0100
0010
0100
0010
0000
2000
0000
0000
0000
3002
0000
0003
0400
0000
,
0301
0000
0010
0000
0001
0100
0000
0100
0000
1000
0000
0100
0000
0000
0010
0100
,
0010
0000
1000
0100
1000
0100
0000
0020
0000
0030
0000
0001
1000
1000
0001
0100
,
0000
0M00
0000
0000
0100
0000
0000
0000
1000
0000
0010
0000
0000
0000
0010
0000
0000
0000
0001
0000
0000
0000
0020
0000
0000
0000
0000
0000
0130
0000
0010
0000
,
0100
0100
0010
1000
0010
0100
0000
0002
0000
0003
0000
2000
0000
3000
0400
0000
,
0310
0010
0001
0000
0100
0010
0000
0010
0000
0001
0000
0010
0000
0100
0001
0100
,
0010
0000
1001
0000
0001
0010
0000
0200
0000
0000
0000
0310
0001
0001
0000
2000
,
0000
0000
0000
0000
0000
3000
0010
0200
,
0000
0000
0000
0000
0301
0000
0001
0020
,
0000
0000
0000
0000
0000
0000
0000
2030
,
0000
0000
3020
0000
,
0032
0000
0000
0000
1003
0000
0010
0200
,
0000
0000
0000
0000
0310
0000
0100
0002
,
0000
0000
0000
0000
1003
0000
0001
0020
,
0000
0000
0230
2300
,
3002
0000
0000
0000
0000
0000
00M0
00M0
,
0000
0000
0000
0000
M000
0000
0M00
0M00
,
0000
0000
0000
0000
0000
0000
0000
00M0
,
0000
0000
0000
0000
0000
0000
0000
M000
0000
00M0
0000
0000
M000
0000
00M3
0000
;

//---------------dance-single - ----------------
#NOTES:
     dance-single:
     :
     Beginner:
     1:
     0.074174,0.118040,0.032451,0.000000,0.000000,64.000000,60.000000,4.000000,0.000000,0.000000,0.000000,0.074174,0.118040,0.032451,0.000000,0.000000,64.000000,60.000000,4.000000,0.000000,0.000000,0.000000:
// measure 0
0000
0000
0000
0000
,  // measure 1
0000
0000
0000
0000
,  // measure 2
0000
0000
0000
0000
,  // measure 3
0000
0000
0000
0000
,  // measure 4
0000
0000
0000
0000
,  // measure 5
1001
0000
0000
0000
,  // measure 6
1000
0000
0000
0000
,  // measure 7
0010
0000
0010
0000
,  // measure 8
0010
0000
0000
0000
,  // measure 9
0100
0000
0000
0000
,  // measure 10
0001
0000
0000
0000
,  // measure 11
0010
0000
0010
0000
,  // measure 12
0010
0000
0000
0000
,  // measure 13
1000
0000
0000
0000
,  // measure 14
0001
0000
0100
0000
,  // measure 15
0010
0000
0000
0000
,  // measure 16
1000
0000
0001
0000
,  // measure 17
0100
0000
0000
0000
,  // measure 18
0010
0000
0000
0000
,  // measure 19
0100
0000
0000
0000
,  // measure 20
0001
0000
1000
0000
,  // measure 21
1001
0000
0010
0000
,  // measure 22
0100
0000
0000
0100
,  // measure 23
0000
0000
0010
0000
,  // measure 24
0000
0000
1000
0001
,  // measure 25
1000
0000
0000
0010
,  // measure 26
0000
0000
0000
0100
,  // measure 27
0000
0000
0001
0000
,  // measure 28
0000
0000
1000
0001
,  // measure 29
1001
0000
0010
0000
,  // measure 30
0000
0000
0100
0000
,  // measure 31
0000
0000
1000
0000
,  // measure 32
0000
0000
0001
0000
,  // measure 33
1000
0000
0010
0000
,  // measure 34
0000
0000
0100
0000
,  // measure 35
0000
0000
0001
0000
,  // measure 36
0000
0000
1000
0000
,  // measure 37
1001
0000
0000
1000
,  // measure 38
0000
0000
0001
0001
,  // measure 39
0000
0000
0000
0100
,  // measure 40
0000
0000
0010
0000
,  // measure 41
1000
0000
0001
0000
,  // measure 42
0000
0000
1000
0000
,  // measure 43
0000
0000
0010
0000
,  // measure 44
0000
0000
0100
0000
,  // measure 45
0010
0000
0000
1000
,  // measure 46
0000
0000
0000
0001
,  // measure 47
0000
0000
0000
0000
,  // measure 48
0100
0000
0010
0000
;
