#VERSION:0.82;
#TITLE:Vulkan;
#SUBTITLE:;
#ARTIST:Hommarju;
#TITLETRANSLIT:;
#SUBTITLETRANSLIT:;
#ARTISTTRANSLIT:;
#GENRE:;
#ORIGIN:;
#CREDIT:;
#BANNER:vulkan.png;
#BACKGROUND:vulkan-bg.png;
#PREVIEWVID:;
#JACKET:vulkan-jacket.png;
#CDIMAGE:;
#DISCIMAGE:501-Troilus-and-Criseyde-III-leafy-border-q90-1024x768.jpg;
#LYRICSPATH:;
#CDTITLE:;
#MUSIC:Vulkan.mp3;
#OFFSET:-2.921000;
#SAMPLESTART:12.264853;
#SAMPLELENGTH:10.536586;
#SELECTABLE:YES;
#BPMS:0.000=205.000;
#STOPS:130.000=0.293,
137.000=0.293;
#DELAYS:;
#WARPS:;
#TIMESIGNATURES:0.000=4=4;
#TICKCOUNTS:0.000=4;
#COMBOS:0.000=1;
#SPEEDS:0.000=1.000=0.000=0;
#SCROLLS:0.000=1.000;
#FAKES:;
#LABELS:0.000=Song Start;
#BGCHANGES:;
#KEYSOUNDS:;
#ATTACKS:
;

//---------------dance-single - ----------------
#NOTEDATA:;
#CHARTNAME:;
#STEPSTYPE:dance-single;
#DESCRIPTION:;
#CHARTSTYLE:;
#DIFFICULTY:Hard;
#METER:9;
#RADARVALUES:0.691410,0.820917,0.082733,0.372298,0.285428,530.000000,10.000000,45.000000,0.000000,0.000000,0.000000,0.000000,0.000000,0.691410,0.820917,0.082733,0.372298,0.285428,530.000000,10.000000,45.000000,0.000000,0.000000,0.000000,0.000000,0.000000;
#CREDIT:;
#NOTES:
// measure 0
2002
0000
3003
0000
,  // measure 1
0000
0001
0100
0001
0010
0100
1000
0001
,  // measure 2
0000
0001
0010
0001
1000
0010
0100
0001
,  // measure 3
0000
0001
0010
0100
1000
0001
0100
0000
,  // measure 4
1001
0000
0001
0000
1000
0010
1000
0000
,  // measure 5
0001
0000
1000
0000
0001
0100
0001
0000
,  // measure 6
1000
1000
0001
0001
,  // measure 7
0010
0000
0010
0000
0100
1000
0001
1000
,  // measure 8
0100
0010
0000
0010
0001
0000
1000
0000
,  // measure 9
0100
0000
0000
0010
0000
0000
0001
0000
1000
0000
0000
0000
0001
0000
0000
0000
,  // measure 10
0200
0000
0310
0100
0001
0000
0010
0000
,  // measure 11
0200
0000
0310
0001
1000
0000
1001
0000
,  // measure 12
1000
0010
0000
0100
0001
0000
0010
0000
,  // measure 13
0100
0000
0000
1000
0000
0000
0010
0000
0100
0000
0000
0000
0001
0000
0000
0000
,  // measure 14
1000
0000
0001
1000
0002
0000
0013
0000
,  // measure 15
0100
0000
1000
0001
2000
0000
3100
0000
,  // measure 16
0010
0001
0000
0001
0100
1000
0000
1000
,  // measure 17
0100
0001
0000
0001
0100
0010
1000
0001
,  // measure 18
0010
1000
0000
1000
0010
0001
0000
0001
,  // measure 19
0010
1000
0000
1000
0010
0100
1000
0001
,  // measure 20
0100
0100
0000
0010
1000
1000
0000
0010
,  // measure 21
0100
0100
0000
0010
1000
0100
0010
0100
,  // measure 22
1000
1000
0000
0001
0010
0010
0000
0100
,  // measure 23
0010
0010
0000
0100
0010
0010
0100
1000
,  // measure 24
0001
0100
0000
0010
1000
0000
0001
0000
,  // measure 25
0010
0000
0000
0100
0000
0000
1000
0000
0010
0000
0000
0000
0101
0000
0000
0000
,  // measure 26
0002
0000
1003
0010
0200
0000
0301
0000
,  // measure 27
0020
0000
0130
0010
0002
0000
1003
0000
,  // measure 28
0010
1000
0000
1000
0001
0000
1000
0000
,  // measure 29
0001
0000
0000
1000
0000
0000
0100
0000
0010
0000
0000
0000
0001
0000
0000
0000
,  // measure 30
1000
0010
1000
0010
0100
0001
0100
0001
,  // measure 31
1000
0001
0010
0001
1000
0001
1001
0000
,  // measure 32
1000
0001
0000
0100
0010
1000
0000
0001
1000
0000
0000
0000
0001
1000
0000
0010
,  // measure 33
1000
0000
0100
0000
0010
0001
0000
0010
0100
1000
0001
0000
1000
0010
0000
0100
,  // measure 34
0001
0010
0000
0100
1000
0000
0000
0000
0001
0100
0000
0010
1000
0000
0100
0000
,  // measure 35
0010
0001
0000
0010
0100
1000
0001
1000
0010
0000
0000
0000
0000
0000
0000
0000
,  // measure 36
0000
0000
0000
0000
,  // measure 37
0000
0000
0200
0001
,  // measure 38
0001
0001
0010
0010
,  // measure 39
0310
1000
0100
0010
0002
0000
1000
0000
,  // measure 40
1000
0000
1003
0010
0200
0000
0010
0000
,  // measure 41
0010
0000
0301
0100
0020
0000
0100
0000
,  // measure 42
0100
0100
2030
0001
,  // measure 43
3001
0100
0001
0010
0002
0000
0100
0000
,  // measure 44
0100
0100
0020
0033
,  // measure 45
0010
0000
0000
0100
0000
0000
1000
0000
0002
0000
0000
0000
0010
0000
0000
0000
,  // measure 46
0010
0010
1000
1000
,  // measure 47
1003
0100
0010
0100
0020
0000
0100
0000
,  // measure 48
0100
0000
0130
1000
0002
0000
1000
0000
,  // measure 49
1000
0000
1003
0001
2000
0000
0001
0000
,  // measure 50
0001
0001
3200
0010
,  // measure 51
0310
0001
0010
0100
2000
0000
0000
0000
,  // measure 52
0000
0000
0000
0000
,  // measure 53
3000
0000
1001
0001
,  // measure 54
1000
0010
0100
0010
1000
0000
0001
0000
,  // measure 55
0010
0001
0100
0010
0100
0000
0010
0000
,  // measure 56
0100
0010
1000
0001
0100
0000
0010
0000
,  // measure 57
0100
0010
1000
0000
1001
1000
0001
0010
,  // measure 58
0001
1000
0001
0000
1000
0001
0100
0010
,  // measure 59
1000
0100
0010
0000
0001
0000
0001
0000
,  // measure 60
1000
1000
0010
0010
,  // measure 61
1000
0010
1000
0001
0010
0100
0000
0010
,  // measure 62
0001
0000
0000
0000
0100
0000
0000
0000
0010
0000
0000
1000
0000
0000
0001
0000
,  // measure 63
1000
0000
0100
0000
0020
0000
0031
0100
,  // measure 64
0020
0000
1030
0000
0200
0000
0310
0001
,  // measure 65
0200
0000
0310
0000
1000
0100
0000
1000
,  // measure 66
0010
0000
0000
0000
0100
0000
0000
0000
0010
0000
0000
1000
0000
0000
0001
0000
,  // measure 67
0010
0000
0001
0000
2000
0000
3010
0100
,  // measure 68
0002
0000
1003
0000
0200
0000
0310
0001
,  // measure 69
2000
0000
3001
0000
1000
0100
1000
0100
,  // measure 70
0010
0100
0010
0100
0010
0001
0010
0001
,  // measure 71
1000
0001
1000
0001
0100
0010
0100
0010
,  // measure 72
0100
0001
0100
0001
1000
0001
1000
0001
,  // measure 73
0010
0001
1001
0000
1000
0010
0001
0010
,  // measure 74
1000
0100
0001
0010
1000
0010
0001
0100
,  // measure 75
1000
0010
0001
0100
1000
0100
0010
1000
,  // measure 76
0001
0100
1000
0010
1000
0100
1000
0100
,  // measure 77
0010
0000
0001
0000
1001
0000
0000
0000
1000
0000
0000
0001
0100
0000
0000
0100
,  // measure 78
0010
0000
0000
0010
1000
0000
0000
1000
0001
0000
0000
0001
1000
0000
0000
1000
,  // measure 79
0010
0000
0000
0010
0100
0000
0000
0100
0002
0000
0000
0000
0203
0000
0000
0000
,  // measure 80
0320
2030
0002
0000
,  // measure 81
0000
0000
0000
0000
3003
0000
0000
1000
0010
0000
0000
0010
0100
0000
0000
0100
,  // measure 82
0001
0000
0000
0001
0010
0000
0000
0010
0100
0000
0000
0100
0010
0000
0000
0010
,  // measure 83
0100
0000
0000
0100
1000
0000
0000
0001
0020
0000
0000
0000
0230
0000
0000
0000
,  // measure 84
0320
0032
2000
0000
,  // measure 85
0000
0000
0000
0000
3003
0000
0000
1000
0010
0000
0000
0100
0001
0000
0000
0001
,  // measure 86
0010
0000
0000
0100
1000
0000
0000
1000
0001
0000
0000
0001
1000
0000
0000
1000
,  // measure 87
0010
0000
0000
0010
0100
0000
0000
0100
0001
0000
0000
0001
0010
0000
0000
0010
,  // measure 88
0100
0000
0000
0100
1000
0000
0000
1000
0002
0000
0000
0000
0000
0000
0000
0000
,  // measure 89
0000
0000
0000
0000
0003
0000
0000
1000
0010
0000
0000
0010
0100
0000
0000
0100
,  // measure 90
0001
0000
0000
0001
0010
0000
0000
0010
0100
0000
0000
0100
1000
0000
0000
1000
,  // measure 91
0001
0000
0000
0001
0100
0000
0000
0100
0010
0000
0000
0010
1000
0000
0000
1000
,  // measure 92
0100
0000
0000
0010
0001
0000
0000
0001
0200
0000
0000
0000
0000
0000
0000
0000
,  // measure 93
0000
0300
2002
0000
,  // measure 94
0000
0000
3003
0000
;

//---------------dance-single - ----------------
#NOTEDATA:;
#CHARTNAME:;
#STEPSTYPE:dance-single;
#DESCRIPTION:;
#CHARTSTYLE:;
#DIFFICULTY:Medium;
#METER:7;
#RADARVALUES:0.542491,0.586369,0.082733,0.645316,0.024820,371.000000,10.000000,78.000000,0.000000,0.000000,0.000000,0.000000,0.000000,0.542491,0.586369,0.082733,0.645316,0.024820,371.000000,10.000000,78.000000,0.000000,0.000000,0.000000,0.000000,0.000000;
#CREDIT:;
#NOTES:
// measure 0
1001
0001
0100
0100
,  // measure 1
0010
1000
0001
0001
,  // measure 2
0010
0001
1000
1000
,  // measure 3
0010
0000
0100
0000
0001
0100
0010
0000
,  // measure 4
1001
1000
0010
0100
,  // measure 5
0001
1000
0010
0100
,  // measure 6
0001
0010
0100
1000
,  // measure 7
0100
1000
0010
0100
,  // measure 8
0001
1000
0000
1000
0010
0000
0100
0000
,  // measure 9
0001
0010
0100
0010
,  // measure 10
0002
0000
0000
1003
0020
0000
0000
0130
,  // measure 11
0002
0000
0000
1003
0200
0000
0310
0000
,  // measure 12
0100
1000
0010
0100
,  // measure 13
0001
0001
1000
0100
,  // measure 14
0020
0000
0000
0031
0200
0000
0000
0310
,  // measure 15
2000
0000
0000
3001
0200
0000
0310
0000
,  // measure 16
0100
0001
0000
1000
0001
1000
0000
0001
,  // measure 17
1000
0001
0000
1000
0001
0000
0101
0000
,  // measure 18
0100
0010
0000
0010
1000
0010
0000
1000
,  // measure 19
0100
1000
0000
0100
0010
0000
0011
0000
,  // measure 20
0001
0100
0000
0100
0010
1000
0000
1000
,  // measure 21
0010
0100
0000
0010
1000
0000
1001
0000
,  // measure 22
0001
0010
0000
0100
1000
0010
0000
0100
,  // measure 23
0001
0010
0000
0001
0100
0010
1000
0001
,  // measure 24
0010
0100
0010
0001
,  // measure 25
1000
0000
0010
0100
0001
0000
0010
0000
,  // measure 26
0200
0000
0310
0001
2000
0000
3001
0000
,  // measure 27
0200
0000
0310
1000
0001
0000
1100
0000
,  // measure 28
1000
0010
0100
0001
,  // measure 29
0010
0000
0100
1000
0100
0000
1000
0000
,  // measure 30
0002
0000
0103
0010
2000
0000
3100
0000
,  // measure 31
0020
0000
0000
0000
0031
0000
0100
0000
0020
0000
0000
0000
1030
0000
0000
0001
,  // measure 32
1000
0000
0000
1000
0001
0000
0000
0001
0100
0000
0000
0000
0010
0000
0100
0000
,  // measure 33
0001
0000
0010
0000
0001
0000
1000
0000
0100
0000
0001
0000
0100
0000
0000
1000
,  // measure 34
0010
0000
0000
0010
0100
0000
0000
0000
0010
0000
1000
0000
0001
0000
0010
0000
,  // measure 35
0100
1000
0100
0001
0100
0000
0000
0000
,  // measure 36
0000
0000
0000
0000
,  // measure 37
0000
0000
2000
0000
,  // measure 38
0000
0000
0000
0000
,  // measure 39
0000
3001
0100
0010
0200
0000
0000
0000
,  // measure 40
0000
0000
0000
0310
2000
0000
0000
0000
,  // measure 41
0000
0000
3002
0000
,  // measure 42
0000
0000
2003
0000
,  // measure 43
0000
3010
0100
0001
0020
0000
0000
0000
,  // measure 44
0000
0000
0230
0300
,  // measure 45
0010
0000
0000
0001
0000
0000
1000
0000
0020
0000
0000
0000
0000
0000
0000
0000
,  // measure 46
0000
0000
0000
0000
,  // measure 47
0000
0130
0001
0100
2000
0000
0000
0000
,  // measure 48
0000
0000
0000
3100
0020
0000
0000
0000
,  // measure 49
0000
0000
2030
0000
,  // measure 50
0000
0000
3002
0000
,  // measure 51
0000
0013
0100
1000
0200
0000
0000
0000
,  // measure 52
0000
0000
0000
0000
,  // measure 53
0310
0000
1200
0310
,  // measure 54
0001
0100
0010
1000
,  // measure 55
0001
0010
0100
1000
,  // measure 56
0100
0001
0100
1000
,  // measure 57
0010
0100
0001
1000
,  // measure 58
0010
0100
0010
0000
0100
0000
0001
0000
,  // measure 59
0010
0100
0010
0000
0100
0000
1000
0000
,  // measure 60
0100
0001
0100
0010
,  // measure 61
0001
1000
0001
1000
0010
0000
0100
0000
,  // measure 62
0001
0010
0200
2300
,  // measure 63
3010
0000
0100
0000
0002
0000
1003
0010
,  // measure 64
0200
0000
0301
0000
0020
0000
0130
1000
,  // measure 65
0020
0130
0010
1000
,  // measure 66
0001
0010
0200
2300
,  // measure 67
3010
0000
0100
0000
0002
0000
0013
0100
,  // measure 68
0020
0000
0031
0000
0200
0000
0310
1000
,  // measure 69
0002
0000
0103
0000
0001
1000
0000
1000
,  // measure 70
0000
0010
0000
0010
0000
0100
0000
0100
,  // measure 71
0000
0001
0000
0001
0000
0100
0000
0100
,  // measure 72
0000
0010
0000
0010
0000
1000
0000
1000
,  // measure 73
0000
0001
1001
0000
1000
0100
0000
0100
,  // measure 74
0000
0010
0000
0010
0000
0001
0000
0010
,  // measure 75
0000
1000
0000
0010
0000
0001
0000
0100
,  // measure 76
0000
1000
0000
0100
0010
0100
0001
1000
,  // measure 77
0100
0010
1001
0000
0002
0000
0013
0000
,  // measure 78
2000
3010
0200
1300
,  // measure 79
0020
0130
0002
2003
,  // measure 80
3002
0203
0020
0000
,  // measure 81
0000
0330
2000
3001
,  // measure 82
0020
0031
2000
3100
,  // measure 83
2000
3001
0200
0302
,  // measure 84
2003
3200
2000
0000
,  // measure 85
0000
3300
0002
1003
,  // measure 86
0020
1030
0200
0310
,  // measure 87
0200
1300
0002
0023
,  // measure 88
0230
0320
0002
0000
,  // measure 89
0000
0033
2000
3010
,  // measure 90
2000
3100
2000
3001
,  // measure 91
0020
0031
2000
3100
,  // measure 92
2000
3002
2000
0000
,  // measure 93
0000
3003
0220
0000
,  // measure 94
0000
0000
0330
0000
;

//---------------dance-single - ----------------
#NOTEDATA:;
#CHARTNAME:;
#STEPSTYPE:dance-single;
#DESCRIPTION:;
#CHARTSTYLE:;
#DIFFICULTY:Easy;
#METER:5;
#RADARVALUES:0.355751,0.625460,0.157192,0.140646,0.000000,265.000000,19.000000,17.000000,0.000000,0.000000,0.000000,0.000000,0.000000,0.355751,0.625460,0.157192,0.140646,0.000000,265.000000,19.000000,17.000000,0.000000,0.000000,0.000000,0.000000,0.000000;
#CREDIT:;
#NOTES:
// measure 0
1001
0000
0001
0000
,  // measure 1
1000
0100
1000
0000
,  // measure 2
0010
0000
0100
0000
,  // measure 3
0001
0100
0001
0000
,  // measure 4
1001
0000
1000
0000
,  // measure 5
0010
1000
0010
0000
,  // measure 6
0100
0000
0001
0000
,  // measure 7
1000
0100
1000
0000
,  // measure 8
0100
0000
1000
0000
,  // measure 9
0010
0100
0010
0000
,  // measure 10
0100
0000
0001
0000
,  // measure 11
0100
0000
0010
1000
,  // measure 12
0001
0000
0010
0000
,  // measure 13
0001
1000
0001
0000
,  // measure 14
0100
0000
0001
0000
,  // measure 15
0010
0000
0100
0000
,  // measure 16
1000
0100
1000
0100
,  // measure 17
1000
0100
1000
1000
,  // measure 18
0010
0100
0010
0100
,  // measure 19
0010
0100
0001
0001
,  // measure 20
1000
0001
1000
0001
,  // measure 21
1000
0001
0010
0010
,  // measure 22
0100
1000
0100
1000
,  // measure 23
0100
1000
0100
0100
,  // measure 24
0010
0001
0100
0010
,  // measure 25
1000
1000
0001
0000
,  // measure 26
1000
0000
0010
0000
,  // measure 27
0100
0000
0001
0010
,  // measure 28
0100
0010
0001
1000
,  // measure 29
0001
0001
0001
0000
,  // measure 30
1000
0000
0001
0000
,  // measure 31
0100
0000
0001
0000
,  // measure 32
1001
0110
1001
0101
,  // measure 33
0101
1100
1100
1010
,  // measure 34
0101
0011
1100
0011
,  // measure 35
0101
1010
1001
0000
,  // measure 36
0000
0000
0000
0000
,  // measure 37
0000
0000
0002
0000
,  // measure 38
0000
0000
0000
0000
,  // measure 39
0000
1003
0200
0000
,  // measure 40
0000
0000
0320
0000
,  // measure 41
0000
0000
0032
0000
,  // measure 42
0000
0000
2003
0000
,  // measure 43
0000
3010
0200
0000
,  // measure 44
0000
0000
0000
0300
,  // measure 45
0010
1000
0002
0000
,  // measure 46
0000
0000
0000
0000
,  // measure 47
0000
1003
0200
0000
,  // measure 48
0000
0000
1300
0000
,  // measure 49
0000
0100
0020
0000
,  // measure 50
0000
0000
0032
0000
,  // measure 51
0000
1003
0020
0000
,  // measure 52
0000
0000
0000
0000
,  // measure 53
0130
0000
1001
0001
,  // measure 54
1000
0000
0001
0100
,  // measure 55
0001
0000
0100
0010
,  // measure 56
0100
0000
0010
1000
,  // measure 57
0010
0000
1000
0100
,  // measure 58
0001
0100
0000
0010
,  // measure 59
0001
1000
0010
0001
,  // measure 60
0010
1000
0000
0010
,  // measure 61
0100
0001
1000
0100
,  // measure 62
0001
0100
0010
0001
,  // measure 63
0100
0000
0020
0000
,  // measure 64
1030
0000
0020
0000
,  // measure 65
0130
0001
1000
0100
,  // measure 66
0001
0100
0010
0010
,  // measure 67
0100
0000
0020
0000
,  // measure 68
0031
0000
0002
0000
,  // measure 69
1003
0000
0001
0100
,  // measure 70
0001
0100
0010
0100
,  // measure 71
0010
0100
0010
1000
,  // measure 72
0010
1000
0001
1000
,  // measure 73
0001
0100
0001
0000
0100
0000
0100
0000
,  // measure 74
0010
0010
1000
1000
,  // measure 75
0010
0010
0100
0010
,  // measure 76
1000
0001
0010
0100
,  // measure 77
1000
0001
1000
0000
0010
0000
1000
0000
,  // measure 78
0010
0001
0010
0100
,  // measure 79
0001
0010
0001
1000
,  // measure 80
0001
0100
0001
0000
,  // measure 81
0000
0000
1000
0100
,  // measure 82
0010
0100
1000
0010
,  // measure 83
0100
0001
1000
0100
,  // measure 84
1000
0100
0010
0000
,  // measure 85
0000
0000
0100
0010
,  // measure 86
0001
1000
0010
0100
,  // measure 87
0001
1000
0001
0100
,  // measure 88
0001
0010
0100
0000
,  // measure 89
0000
0000
0010
0001
,  // measure 90
1000
0010
0100
0001
,  // measure 91
1000
0100
1000
0001
,  // measure 92
1000
0010
0100
0000
,  // measure 93
0000
0000
2002
0000
,  // measure 94
0000
0000
3003
0000
;

//---------------dance-single - ----------------
#NOTEDATA:;
#CHARTNAME:;
#STEPSTYPE:dance-single;
#DESCRIPTION:;
#CHARTSTYLE:;
#DIFFICULTY:Beginner;
#METER:3;
#RADARVALUES:0.192649,0.232066,0.049640,0.000000,0.000000,157.000000,6.000000,0.000000,0.000000,0.000000,0.000000,0.000000,0.000000,0.192649,0.232066,0.049640,0.000000,0.000000,157.000000,6.000000,0.000000,0.000000,0.000000,0.000000,0.000000,0.000000;
#CREDIT:;
#NOTES:
// measure 0
1001
0000
0000
0000
,  // measure 1
0001
0000
0000
0000
,  // measure 2
1000
0000
0000
0000
,  // measure 3
0001
0000
0000
0000
,  // measure 4
1001
0000
0000
0000
,  // measure 5
0010
0000
0000
0000
,  // measure 6
0100
0000
0000
0000
,  // measure 7
0010
0000
0000
0000
,  // measure 8
1000
0000
1000
0000
,  // measure 9
0001
0000
0000
0000
,  // measure 10
0100
0000
0000
0000
,  // measure 11
0010
0000
0000
0100
,  // measure 12
0100
0000
0000
0000
,  // measure 13
0001
0000
0000
0000
,  // measure 14
1000
0000
1000
0000
,  // measure 15
0001
0000
0001
0000
,  // measure 16
1000
0000
1000
0000
,  // measure 17
1000
0000
1000
1000
,  // measure 18
0001
0000
0001
0000
,  // measure 19
0001
0000
0001
0001
,  // measure 20
0100
0000
0100
0000
,  // measure 21
0100
0000
0100
0100
,  // measure 22
0010
0000
0010
0000
,  // measure 23
0010
0000
0010
0010
,  // measure 24
0100
0000
0000
0100
,  // measure 25
0000
0000
0000
0010
,  // measure 26
0100
0000
0000
0000
,  // measure 27
0001
0000
0000
1000
,  // measure 28
1000
0000
0000
0000
,  // measure 29
0001
0000
0000
0000
,  // measure 30
0100
0000
0010
0000
,  // measure 31
1000
0000
0001
0000
,  // measure 32
1000
1000
1000
0001
,  // measure 33
0000
1000
0000
0010
,  // measure 34
0010
0010
0100
0000
,  // measure 35
0001
0000
1001
0000
,  // measure 36
0000
0000
0000
0000
,  // measure 37
0000
0000
0001
0000
,  // measure 38
0000
0000
0000
0000
,  // measure 39
0000
1000
0100
0000
,  // measure 40
0000
0000
1000
0000
,  // measure 41
0000
0000
0010
0000
,  // measure 42
0000
0000
0100
0000
,  // measure 43
0000
0001
0001
0000
,  // measure 44
0000
0000
0100
0000
,  // measure 45
0010
0000
1000
0000
,  // measure 46
0000
0000
0000
0000
,  // measure 47
0000
0001
0001
0000
,  // measure 48
0000
0000
0010
0000
,  // measure 49
0000
0001
1000
0000
,  // measure 50
0000
0000
0100
0000
,  // measure 51
0000
1000
1000
0000
,  // measure 52
0000
0000
0000
0000
,  // measure 53
0000
0000
0110
0000
,  // measure 54
0100
0000
0010
0010
,  // measure 55
0010
0000
0100
0000
,  // measure 56
0001
0000
1000
0001
,  // measure 57
1000
0000
1001
0000
,  // measure 58
0001
0000
0000
1000
,  // measure 59
1000
0000
0001
0000
,  // measure 60
0100
0000
0010
0000
,  // measure 61
1000
0000
0010
0000
,  // measure 62
0000
0000
0100
0000
,  // measure 63
0000
0000
0001
0000
,  // measure 64
0000
0000
1000
0000
,  // measure 65
0000
0001
1000
0000
,  // measure 66
0000
0000
0001
0000
,  // measure 67
0000
0000
0100
0000
,  // measure 68
0010
0000
0100
0000
,  // measure 69
0010
0000
1000
0000
,  // measure 70
1000
0000
1000
1000
,  // measure 71
1000
0000
0001
0000
,  // measure 72
1000
0000
0010
0000
,  // measure 73
0100
0010
0100
0000
,  // measure 74
0001
0000
0001
0001
,  // measure 75
0001
0000
1000
0000
,  // measure 76
0001
0000
0100
0000
,  // measure 77
0001
0000
1000
0000
,  // measure 78
0001
0000
0100
0000
,  // measure 79
0001
0000
1000
0000
,  // measure 80
1000
0000
1000
0000
,  // measure 81
0000
0000
0001
0000
,  // measure 82
1000
0000
0100
0000
,  // measure 83
1000
0000
0010
0000
,  // measure 84
0010
0000
0010
0000
,  // measure 85
0000
0000
0100
0000
,  // measure 86
0010
0000
1000
0000
,  // measure 87
0001
0000
1000
0000
,  // measure 88
1000
0000
1000
0000
,  // measure 89
0000
0000
0001
0000
,  // measure 90
0000
0000
1000
0000
,  // measure 91
0000
0000
0010
0000
,  // measure 92
0100
0000
0010
0000
,  // measure 93
0000
0000
1001
0000
;
