#TITLE:Voorpret;
#SUBTITLE:;
#ARTIST:DIM3MSION;
#TITLETRANSLIT:;
#SUBTITLETRANSLIT:;
#ARTISTTRANSLIT:;
#GENRE:;
#CREDIT:;
#BANNER:Voorpret.png;
#BACKGROUND:Voorpret-bg.png;
#LYRICSPATH:;
#CDTITLE:;
#MUSIC:Voorpret.ogg;
#OFFSET:1.788002;
#SAMPLESTART:71.107880;
#SAMPLELENGTH:14.222229;
#LASTBEATHINT:1.728004;
#SELECTABLE:YES;
#BPMS:0.000000=135.000000
;
#STOPS:
;
#BGCHANGES:;
#KEYSOUNDS:;
#ATTACKS:;

//---------------dance-single - ----------------
#NOTES:
     dance-single:
     :
     Hard:
     8:
     0.461467,0.616892,0.186937,0.194414,0.523423,432.000000,407.000000,25.000000,26.000000,0.000000,0.000000,0.461467,0.616892,0.186937,0.194414,0.523423,432.000000,407.000000,25.000000,26.000000,0.000000,0.000000:
// measure 0
0000
0000
0000
0000
,  // measure 1
0000
0000
0000
0000
,  // measure 2
0000
0000
0000
0000
,  // measure 3
0000
0000
0000
0000
,  // measure 4
0000
0000
0000
0000
,  // measure 5
0100
0000
0100
0000
,  // measure 6
0100
0000
0100
0000
,  // measure 7
0100
0000
0100
0000
,  // measure 8
0100
0000
0000
0000
0000
0000
0000
0000
0010
0000
0000
0010
0000
0000
0010
0000
,  // measure 9
0100
1001
0100
1001
,  // measure 10
0100
1001
0100
1001
,  // measure 11
0010
1001
0010
1001
,  // measure 12
0001
1001
0001
1001
,  // measure 13
1000
1001
1000
1001
,  // measure 14
0010
1001
0010
1001
,  // measure 15
0100
1001
0010
1001
,  // measure 16
0001
0000
0000
0000
1001
0000
0000
0000
0010
0000
0000
0010
0000
0000
0010
0000
,  // measure 17
2001
0000
0200
3000
,  // measure 18
2000
0300
0002
3000
,  // measure 19
0200
0003
0020
0300
,  // measure 20
2000
0030
0200
3000
,  // measure 21
2000
0300
0002
3000
,  // measure 22
0020
0003
0002
0030
,  // measure 23
0200
0003
0020
0300
,  // measure 24
2000
0030
0002
3000
,  // measure 25
0103
0010
0100
0000
0001
0000
1000
0000
,  // measure 26
0010
1000
0010
0000
1000
0000
0001
0000
,  // measure 27
0100
0010
0100
0000
0001
0000
0010
0000
,  // measure 28
0001
1000
0001
0000
1000
0000
0100
0000
,  // measure 29
0010
0100
0010
0000
0100
0000
1000
0000
,  // measure 30
0001
0100
0001
0000
0010
0000
0001
0000
,  // measure 31
1000
0001
1000
0000
0010
0000
1000
0000
,  // measure 32
0100
0010
0100
0000
0010
0000
0001
0000
,  // measure 33
1000
0000
0010
0000
0100
0000
0000
0001
0000
1000
0000
0001
0000
0000
0000
0000
,  // measure 34
0001
0000
0100
0000
0010
0000
0000
1000
0000
0001
0000
1000
0000
0000
0000
0000
,  // measure 35
0001
0000
0100
0000
1000
0000
0000
0100
0000
0001
0000
0010
0000
0000
0000
0000
,  // measure 36
1000
0000
0010
0000
0001
0000
0000
0010
0000
0100
0000
1000
0000
0000
0000
0000
,  // measure 37
0001
0100
0001
0100
0010
1000
0010
1000
,  // measure 38
0100
1000
0100
1000
0001
0010
0001
0010
,  // measure 39
0100
1000
0010
0100
0001
0010
1000
0010
,  // measure 40
0001
0000
0100
0000
1000
0000
0100
0000
0010
0000
0000
0010
0000
0000
0010
0000
,  // measure 41
1000
0000
0001
0000
0010
0001
0000
0100
0000
0001
0000
0100
0000
0000
0010
0000
,  // measure 42
1000
0000
0001
0000
1000
0100
0000
1000
0000
0010
0000
1000
0000
0000
0001
0000
,  // measure 43
0010
0000
0001
0000
0100
0010
0000
1000
0000
0001
0000
0100
0000
0000
0010
0000
,  // measure 44
1000
0000
0001
0000
0010
0001
0000
1000
0000
0010
0000
1000
0000
0000
0100
0000
,  // measure 45
0010
0000
0001
0000
1000
0010
0000
0100
0000
0001
0000
0100
0000
0000
0001
0000
,  // measure 46
0010
0000
0100
0000
0010
0001
0000
1000
0000
0010
0000
1000
0000
0000
0100
0000
,  // measure 47
1000
0000
0001
0000
0010
0100
0000
0010
0000
0001
0000
1000
0000
0000
0001
0000
,  // measure 48
1000
0000
0010
0000
0100
0001
0000
0010
0000
0001
0000
1000
0000
0001
0100
0001
,  // measure 49
0100
0000
0010
0000
1000
0100
0000
0010
0000
0010
0000
0010
0000
0000
0100
0000
,  // measure 50
1000
0000
0001
0000
0010
0001
0000
1000
0000
1000
0000
1000
0000
0000
0001
0000
,  // measure 51
0010
0000
0001
0000
0100
0010
0000
0100
0000
0100
0000
0100
0000
0000
0010
0000
,  // measure 52
1000
0000
0100
0000
1000
0001
0000
0010
0000
0001
0000
0010
0000
0000
0001
0000
,  // measure 53
1000
0000
0100
0000
1000
0010
0000
0100
0000
0100
0000
0100
0000
0000
0010
0000
,  // measure 54
0100
0000
0001
0000
1000
0100
0000
0010
0000
0010
0000
0010
0000
0000
0100
0000
,  // measure 55
0010
0000
0001
0000
1000
0010
0000
0100
0000
0100
0000
0001
0000
0000
1000
0000
,  // measure 56
0001
0000
1001
0000
0000
1000
0000
1010
0000
0011
0000
1001
0000
0001
0100
0010
,  // measure 57
1000
0000
0010
0000
0100
0001
0000
0010
0000
0100
0000
0010
0000
0000
0100
0000
,  // measure 58
1000
0000
0001
0000
0010
0001
0000
0100
0000
0010
0000
1000
0000
0001
0100
0010
,  // measure 59
1000
0000
0100
0000
1000
0001
0000
0010
0000
0001
0000
1000
0000
0000
0010
0000
,  // measure 60
0100
0000
0001
0000
0010
0001
0000
1000
0000
0100
0000
1000
0000
0100
1000
0010
,  // measure 61
0100
0000
0001
0000
0010
0001
0000
0100
0000
0001
0000
0010
0000
0000
0100
0000
,  // measure 62
1000
0000
0010
0000
1000
0010
0000
0100
0000
0001
0000
0100
0000
0010
1000
0001
,  // measure 63
0010
0000
0100
0000
0010
0100
0000
1000
0000
0001
0000
1000
0000
0000
0010
0000
,  // measure 64
0100
0000
0101
0000
0000
0001
0000
0011
0000
1010
0000
0011
0000
0001
0010
0001
,  // measure 65
2000
3010
0200
0301
,  // measure 66
0020
0130
2000
3010
,  // measure 67
0200
0301
0002
0013
,  // measure 68
0200
0310
2000
3001
,  // measure 69
0001
0000
1000
0000
0001
0100
0000
0010
0000
0010
0000
1000
0000
0000
0001
0000
,  // measure 70
1000
0000
0100
0000
1000
0010
0000
0100
0000
0100
0000
0001
0000
1000
0001
0100
,  // measure 71
0001
0000
0010
0000
0100
0010
0000
0001
0000
0001
0000
1000
0000
0000
0100
0000
,  // measure 72
0010
0000
0001
0000
0010
1000
0000
1000
0010
0000
0000
0010
0000
0000
0010
0000
,  // measure 73
2002
0000
0000
0000
,  // measure 74
0000
0000
0000
0000
,  // measure 75
3003
0000
0000
0000
;

//---------------dance-single - ----------------
#NOTES:
     dance-single:
     :
     Medium:
     5:
     0.316190,0.476689,0.142072,0.284144,0.164504,296.000000,277.000000,19.000000,38.000000,0.000000,0.000000,0.316190,0.476689,0.142072,0.284144,0.164504,296.000000,277.000000,19.000000,38.000000,0.000000,0.000000:
0000
0000
0000
0000
,
0000
0000
0000
0000
,
0000
0000
0000
0000
,
0000
0000
0000
0000
,
0000
0000
0000
0000
,
1000
0000
1000
0000
,
0001
0000
0001
0000
,
0100
0000
0100
0000
,
0010
0000
0000
0000
0000
0000
0000
0000
1001
0000
0000
1000
0000
0000
1000
0000
,
0001
0010
0001
1000
,
0001
0100
0001
1000
,
0100
1000
0010
0100
,
1000
0010
1000
0001
,
0100
0001
0100
0010
,
1000
0001
1000
0010
,
0100
0010
0100
1000
,
0001
0000
0000
0000
0010
0000
0000
0000
0100
0000
0000
0100
0000
0000
0100
0000
,
0020
0000
0000
0000
,
0002
0000
0000
0030
,
2000
0000
0000
0003
,
0020
0000
0000
3000
,
0200
0000
0000
0030
,
0002
0000
0000
0300
,
2000
0000
0000
0003
,
0200
0000
0000
3000
,
1300
0010
0200
0300
,
0001
0010
0002
0003
,
1000
0001
0020
0030
,
0100
0010
0200
0300
,
1000
0001
0020
0030
,
0001
1000
0200
0300
,
1000
0010
0200
0300
,
0001
1000
0020
0030
,
1000
0100
0020
0130
,
0010
0001
0200
0310
,
1000
0010
0200
0301
,
0010
0100
2000
3001
,
2000
3010
2000
3001
,
0002
0013
0002
1003
,
0002
0103
0020
1030
,
0020
0000
0000
0000
0230
0000
0000
0000
0301
0000
0000
0001
0000
0000
0001
0000
,
1000
1010
0010
0110
,
0100
0101
0001
1001
,
0001
0011
0010
0110
,
0100
1100
1000
1001
,
0001
0101
0100
0110
,
0010
1010
1000
1001
,
1000
1100
0100
0110
,
0010
0011
0001
1001
,
1000
0000
0010
0000
1000
0000
0000
0100
0000
0010
0000
0100
0000
0000
0000
0000
,
0010
0000
0001
0000
0010
0000
0000
0100
0000
0010
0000
0100
0000
0000
0000
0000
,
1000
0000
0001
0000
1000
0000
0000
0010
0000
0100
0000
0010
0000
0000
0000
0000
,
0100
0000
0010
0000
0100
0000
0000
0001
0000
1000
0000
0001
0000
0000
0000
0000
,
1000
0000
0010
0000
0100
0000
0000
0001
0000
0100
0000
0001
0000
0000
0000
0000
,
0100
0000
0010
0000
1000
0000
0000
0001
0000
0010
0000
0001
0000
0000
0000
0000
,
0010
0000
0100
0000
1000
0000
0000
0001
0000
1000
0000
0001
0000
0000
0000
0000
,
1000
0000
0010
0000
0000
0100
0000
0010
0000
1000
0000
0001
0000
1000
0010
0000
,
1000
0001
0010
0001
0000
0001
1000
0001
,
0000
0001
0100
0001
0000
0001
0100
0010
,
1000
0100
1000
0100
0000
0100
0010
0100
,
0000
0100
0001
0100
0000
0100
0010
0001
,
1000
0010
1000
0010
0000
0100
0001
0100
,
0000
0001
0010
0001
0000
0010
0100
1000
,
0001
1000
0010
1000
0000
0001
0100
0001
,
1000
0000
1000
0000
0000
0001
0000
0010
0000
0010
0000
0100
0000
1000
0010
0000
,
2001
0000
0000
0000
0020
0000
0000
3000
,
0200
0000
0000
0030
0002
0000
0000
0300
,
0020
0000
0000
0003
0200
0000
0000
0030
,
2000
0000
0000
0300
0020
0000
0000
3000
,
0130
0000
0010
0000
0100
0000
0000
0010
0000
0010
0000
0010
0000
0000
0000
0000
,
1000
0000
0001
0000
1000
0000
0000
0010
0000
0010
0000
0010
0000
0000
0000
0000
,
1000
0000
0010
0000
0100
0000
0000
0001
0000
0001
0000
1000
0000
0000
0000
0000
,
0100
0000
0010
0000
0001
0000
0000
0000
0010
0000
0000
0010
0000
0000
0010
0000
,
2002
0000
0000
0000
,
0000
0000
0000
0000
,
3003
0000
0000
0000
;

//---------------dance-single - ----------------
#NOTES:
     dance-single:
     :
     Easy:
     2:
     0.147413,0.300221,0.097207,0.209369,0.000000,138.000000,125.000000,13.000000,28.000000,0.000000,0.000000,0.147413,0.300221,0.097207,0.209369,0.000000,138.000000,125.000000,13.000000,28.000000,0.000000,0.000000:
0000
0000
0000
0000
,
0000
0000
0000
0000
,
0000
0000
0000
0000
,
0000
0000
0000
0000
,
0000
0000
0000
0000
,
2002
0000
0000
0000
,
0000
0000
0000
0000
,
0000
0000
0000
0000
,
0000
0000
3003
0000
,
1000
0000
1000
0000
,
1000
0000
1000
0000
,
0010
0000
0010
0000
,
0100
0000
0100
0000
,
0001
0000
0001
0000
,
1000
0000
1000
0000
,
0010
0000
0010
0000
,
0100
0000
0100
0000
,
0020
0000
0000
0030
,
2000
0000
0000
3000
,
0002
0000
0000
0003
,
0020
0000
0000
0030
,
0002
0000
0000
0003
,
2000
0000
0000
3000
,
0020
0000
0000
0030
,
2000
0000
0000
3000
,
0002
0000
0000
0000
,
0200
0000
0000
0000
0000
0000
0000
0303
,
0020
0000
0000
0000
,
2000
0000
0000
0000
0000
0000
0000
3030
,
0002
0000
0000
0000
,
2000
0000
0000
0000
0000
0000
0000
3003
,
0020
0000
0000
0000
,
0200
0000
0000
0000
0000
0000
0000
0330
,
1001
0000
0000
0000
,
0010
0000
0000
0000
,
1001
0000
0000
0000
,
0010
0000
0000
0000
,
1001
0000
0010
0000
,
1001
0000
0010
0000
,
1001
0000
1001
0000
,
1001
0110
1001
0000
,
0001
0100
0000
0010
,
0000
1000
0000
0001
,
0000
0010
0000
0001
,
0000
1000
0000
0010
,
0000
1000
0000
0001
,
0000
0010
0000
0001
,
0000
1000
0000
0010
,
0000
1000
0000
0001
,
1000
0100
0000
1000
,
0000
0010
0000
0100
,
0000
0001
0000
0010
,
0000
0001
0000
1000
,
0000
0010
0000
0100
,
0000
0001
0000
0010
,
0000
0001
0000
1000
,
2002
0000
0000
3003
,
0001
0100
0001
0100
,
0010
1000
0010
1000
,
0001
1000
0001
1000
,
0010
1000
0010
1000
,
0010
0100
0010
0100
,
0001
0100
0001
0100
,
0001
1000
0001
1000
,
0220
0000
0000
0330
,
1002
0000
0000
0000
,
1000
0000
0000
0000
,
2003
0000
0000
0000
,
0001
0000
0000
0000
,
3001
0100
0020
0030
,
1000
0001
0200
0300
,
0010
1000
0002
0003
,
0010
0100
2000
0000
,
3001
0000
0000
0000
;

//---------------dance-single - ----------------
#NOTES:
     dance-single:
     :
     Beginner:
     1:
     0.087593,0.163757,0.067297,0.000000,0.000000,82.000000,73.000000,9.000000,0.000000,0.000000,0.000000,0.087593,0.163757,0.067297,0.000000,0.000000,82.000000,73.000000,9.000000,0.000000,0.000000,0.000000:
0000
0000
0000
0000
,
0000
0000
0000
0000
,
0000
0000
0000
0000
,
0000
0000
0000
0000
,
0000
0000
0000
0000
,
0000
0000
0000
0000
,
0000
0000
0000
0000
,
0000
0000
0000
0000
,
0000
0000
0000
0000
,
1000
0000
0000
0000
,
1000
0000
0000
0000
,
0010
0000
0000
0000
,
0100
0000
0000
0000
,
0001
0000
0000
0000
,
0001
0000
0000
0000
,
1000
0000
0000
0000
,
0010
0000
0100
0000
,
1001
0000
0000
0000
,
1000
0000
0000
0000
,
0001
0000
0000
0000
,
0100
0000
0000
0000
,
0010
0000
0000
0000
,
1000
0000
0000
0000
,
0100
0000
0000
0000
,
1000
0000
0000
0000
,
1001
0000
0000
0000
,
0001
0000
0000
0000
,
1000
0000
0000
0000
,
0010
0000
0000
0000
,
0100
0000
0000
0000
,
0001
0000
0000
0000
,
1000
0000
0000
0000
,
0010
0000
0000
0000
,
0110
0000
0000
0000
,
0100
0000
0000
0000
,
0110
0000
0000
0000
,
0010
0000
0000
0000
,
1001
0000
0000
0000
,
1000
0000
0000
0000
,
0001
0000
1000
0000
,
0001
1000
0010
0000
,
0100
0000
0000
0000
,
0010
0000
0000
0000
,
1000
0000
0000
0000
,
0001
0000
0000
0000
,
0010
0000
0000
0000
,
0001
0000
0000
0000
,
1000
0000
0000
0000
,
0100
0000
0000
1000
,
0001
0000
0000
0000
,
0010
0000
0000
0000
,
0001
0000
0000
0000
,
1000
0000
0000
0000
,
0100
0000
0000
0000
,
1000
0000
0000
0000
,
0010
0000
0000
0000
,
0110
0000
0000
0000
,
1001
0000
0000
0000
,
0001
0000
0000
0000
,
0010
0000
0000
0000
,
0001
0000
1000
0000
,
0100
0000
0000
0000
,
1000
0000
0010
0000
,
0100
0000
0000
0000
,
0001
0000
1000
0000
,
1001
0000
0000
0000
,
0010
0000
0000
0000
,
0100
0000
0000
0000
,
0001
0000
0000
0000
,
1000
0000
0000
0000
,
1000
0000
0000
0000
,
0001
0000
0000
0000
,
0001
0000
0000
0000
,
0110
0000
0000
0000
;
