#TITLE:Viva La Vida;
#SUBTITLE:(Wayne Mont Remix);
#ARTIST:DJ Auzern;
#TITLETRANSLIT:;
#SUBTITLETRANSLIT:;
#ARTISTTRANSLIT:;
#GENRE:;
#CREDIT:;
#BANNER:Viva La Vida (Wayne Mont Remix).png;
#BACKGROUND:Viva La Vida (Wayne Mont Remix)-bg.png;
#LYRICSPATH:;
#CDTITLE:;
#MUSIC:Viva La Vida (Wayne Mont Remix).ogg;
#OFFSET:-6.672000;
#SAMPLESTART:27.680000;
#SAMPLELENGTH:12.000000;
#SELECTABLE:YES;
#BPMS:0.000000=72.000000
,25.000000=144.000000
;
#STOPS:
;
#BGCHANGES:;
#KEYSOUNDS:;
#ATTACKS:;

//---------------dance-single - ----------------
#NOTES:
     dance-single:
     :
     Hard:
     7:
     0.442578,0.392537,0.202429,0.123218,0.070410,315.000000,23.000000,14.000000,0.000000,0.000000,0.000000,0.442578,0.392537,0.202429,0.123218,0.070410,315.000000,23.000000,14.000000,0.000000,0.000000,0.000000:
0001
1000
0001
1000
,
0001
0000
1000
0010
0100
0000
0000
0000
,
0020
1000
0100
0030
,
0200
0001
0010
0300
,
0100
0000
0010
0000
1000
0001
0100
0000
,
0010
0000
1000
0000
0100
0000
0010
0002
0000
0000
0000
0000
0000
0000
0000
0003
,
0000
0000
0000
0001
0010
0100
1100
0000
,
1001
0000
0001
0100
0010
0000
1000
0000
,
0101
0000
0100
0010
1000
0000
0001
0000
,
1100
0000
0100
0010
0001
0000
0001
0100
,
1000
0100
0010
0000
1001
0000
0010
0000
,
1010
0000
0100
0001
0010
0000
0100
0000
,
0011
0000
0100
1000
0010
0000
0100
0000
,
0110
0000
0010
0000
0110
0000
0100
0001
,
1000
0002
0000
0013
0100
0010
0011
0000
,
1100
0000
1000
0010
0100
0000
0101
0000
,
1010
0000
0010
0100
0001
0000
0011
0000
,
0110
0000
0100
1000
0010
0000
1010
0000
,
0101
0000
0000
0000
1000
0000
0010
0000
0100
0000
0000
0010
1000
0000
0000
0000
,
0001
0000
0000
0000
1000
0000
0000
0000
0100
0000
0000
0010
0001
0000
0000
0000
,
0010
0000
0001
0000
1000
0010
1000
0010
,
0100
0010
0100
0001
0100
0001
0010
0100
,
0010
0002
0000
0000
0000
0000
0003
0000
,
0000
0000
0000
1000
0001
0010
0100
0000
,
0100
0100
0000
0010
,
0001
1000
1000
0001
,
0100
0001
0000
0100
,
0100
0000
0010
0000
1000
0000
0001
1000
,
0001
1000
0001
0000
0000
0001
1000
0010
,
1000
0010
1000
0000
0000
0001
0100
0010
,
0100
0010
1000
0001
1000
0001
0010
0001
,
0010
0001
1000
0100
1001
0000
0001
1000
,
0001
0000
0010
0000
0100
0000
0000
0000
0000
0000
1000
0001
1000
0000
0010
0000
,
0100
0001
0010
0100
0010
0001
1000
1000
,
0001
0000
0100
0000
0001
0000
0000
0000
0000
0000
0100
0010
0100
0000
0001
0000
,
1000
0000
0010
0000
0100
0000
0001
0000
1000
0000
0100
0010
0000
0000
0010
0000
,
0010
0000
0100
0000
1000
0000
0000
0000
0000
0000
0001
0100
0001
0000
0100
0000
,
0001
1000
0010
0100
0001
0100
0010
0010
,
1000
0000
0010
0000
1000
0000
0000
0000
0001
0000
0000
1000
0100
0000
0100
0000
,
1000
0001
0200
0000
0300
0100
0001
0100
,
0100
0000
0010
0000
1000
0000
0000
0000
0000
0000
0100
1000
0100
0000
0100
0000
,
0010
0001
0100
0100
0001
0010
1000
0010
,
0100
0000
1000
0000
0001
0000
0000
0000
0000
0000
1000
0010
1000
0000
0010
0000
,
0100
0000
0010
0000
0001
0000
0010
0000
1000
0000
0001
1000
0000
0000
0001
0000
,
1000
0000
1000
0000
0010
0000
0000
0000
0000
0000
0100
0001
0100
0000
0010
0000
,
0100
0001
1000
1000
0001
1000
0100
0100
,
0010
0000
0001
0000
0100
0000
0000
0000
0001
0000
0000
1000
0001
0000
0001
0000
,
0010
0100
1001
0000
0000
0000
0102
0000
,
0103
0210
0310
1020
,
1030
0210
0302
1000
,
1000
1000
0000
2003
,
3100
0000
0200
0000
0320
0000
0031
1000
,
0001
0000
1000
0000
0001
0000
0000
0000
0000
0000
1000
0001
0010
0000
1000
0000
,
0010
0100
0010
0001
0010
0100
1000
0001
,
0010
0000
0100
0000
0010
0000
0000
0000
0100
0000
0000
1000
0010
0000
0100
0000
,
0001
0000
0010
0000
0100
0000
0000
0000
0000
0000
0000
1000
0010
0000
0000
0000
;

//---------------dance-single - ----------------
#NOTES:
     dance-single:
     :
     Medium:
     5:
     0.334448,0.318936,0.202429,0.167224,0.000000,224.000000,23.000000,19.000000,0.000000,0.000000,0.000000,0.334448,0.318936,0.202429,0.167224,0.000000,224.000000,23.000000,19.000000,0.000000,0.000000,0.000000:
0001
0010
0001
1000
,
0001
0000
0010
0100
1000
0000
0000
0000
,
0100
1000
0010
0000
,
0100
0001
1000
0000
,
0100
0000
0010
0000
0100
1000
0001
0000
,
0100
0010
1000
0001
0020
0000
0000
0000
,
0000
0030
0000
0000
0000
0000
0010
0000
,
0110
0000
0100
1000
0010
0000
0100
0000
,
0101
0000
0001
1000
0010
0000
0100
0000
,
0101
0000
0001
1000
0010
0000
0100
0000
,
0110
0010
0110
0100
,
1010
0000
0010
0100
0001
0000
1000
0000
,
1100
0000
1000
0010
0100
0000
0001
0000
,
0101
1000
1100
0101
,
1100
0000
0101
0000
0001
1000
0010
0000
,
0100
0001
0000
0000
1000
0200
0000
0000
,
0000
0000
0300
0000
1000
0010
0100
0000
,
0001
0000
1000
0000
0100
0000
1000
0010
,
0100
0001
1000
0101
,
0001
1000
0100
0110
,
0100
0000
1000
0000
0010
0100
0110
0000
,
0100
1001
0010
1001
,
0110
1001
0110
2002
,
0000
0000
3003
0001
,
0001
0001
0000
1000
,
0001
0100
0001
1000
,
1000
1000
0000
0100
,
1000
0010
0100
0001
,
0001
0001
0000
1000
,
1000
1000
0000
0010
,
0010
0100
0100
0001
,
1000
0000
0010
0100
1001
0000
0001
0100
,
0001
0100
0001
0000
0000
0100
0010
0000
,
1000
0000
0100
0000
0001
0000
0100
1000
,
0100
1000
0100
0000
0000
1000
0010
0000
,
0100
0000
0001
0000
1000
0000
0000
0010
,
0100
0100
0010
0000
0000
0100
0001
0000
,
1000
0000
0100
0000
1000
0000
0010
0100
,
0010
0100
0010
0000
1000
0000
0001
0100
,
0001
0100
0001
0000
0000
0000
1000
0100
,
0010
0001
0010
0000
0000
0100
0010
0000
,
0001
0000
1000
0000
0010
0000
0100
0010
,
1000
0001
0100
0000
0000
0001
1000
0000
,
0100
0000
1000
0000
0010
0000
0000
0100
,
0001
0100
0001
0000
0000
0010
0100
0000
,
1000
0000
0100
0000
1000
0000
0010
0100
,
0010
0100
0010
0000
1000
0000
0001
0100
,
0001
0100
0001
0000
0000
0000
0102
0000
,
0000
0203
0000
0320
,
0000
2030
3200
0020
,
0000
0000
0330
0200
,
0000
2300
3002
0203
,
0000
0001
0000
0302
,
0000
2003
3200
0320
,
0000
0100
0000
0130
,
0010
0002
0000
0003
;

//---------------dance-single - ----------------
#NOTES:
     dance-single:
     :
     Easy:
     3:
     0.259009,0.269869,0.132019,0.114416,0.000000,178.000000,15.000000,13.000000,0.000000,0.000000,0.000000,0.259009,0.269869,0.132019,0.114416,0.000000,178.000000,15.000000,13.000000,0.000000,0.000000,0.000000:
0001
1000
0001
0100
,
0001
1000
0100
0000
,
1000
0010
0100
0000
,
0010
1000
0002
0003
,
1000
0001
0100
0010
,
0100
0001
1000
0000
,
0000
0000
0001
0100
,
0010
1000
0010
0200
,
0000
0300
0010
1000
,
1000
0001
0001
1000
,
0010
0100
0000
0010
,
0100
0001
1000
0200
,
0000
0300
1000
0010
,
0010
0100
0100
0010
,
1000
0001
0100
0001
,
1000
0010
0100
0002
,
0000
0003
0100
0001
,
0010
0100
0010
0001
,
0001
0001
0000
1001
,
0001
1000
0001
1001
,
1000
0001
0100
0110
,
0010
0110
0100
0110
,
1001
0110
2002
3003
,
0000
0000
0001
0100
,
0100
0100
0000
0010
,
1000
0010
1000
0100
,
0100
0100
0000
1000
,
0001
0100
0001
0010
,
0010
0010
0000
0010
,
0010
0010
0000
0010
,
0010
0010
0010
0001
,
1000
0010
0110
0100
,
0010
1000
0000
0010
,
0100
0001
1000
0100
,
1000
0001
0000
0100
,
0001
0010
0100
0000
,
0010
0001
0000
1000
,
0001
0100
0001
1000
,
1000
0100
1000
0010
,
0010
0010
0000
0100
,
0010
1010
0000
0010
,
0100
0001
1000
0100
,
0010
0011
0000
0001
,
0100
0010
1000
0000
,
0010
1001
0000
0001
,
0100
0001
1000
0100
,
0100
1000
0010
1010
,
0101
1001
0000
0002
,
0000
0103
0000
0200
,
0000
0310
2000
0000
,
0000
0000
3000
0002
,
0003
1000
0010
0100
,
0010
1000
0000
0001
,
0010
0100
1000
0200
,
0000
2300
0000
3020
,
0000
0000
0000
0030
;

//---------------dance-single - ----------------
#NOTES:
     dance-single:
     :
     Beginner:
     1:
     0.124475,0.147201,0.052808,0.000000,0.000000,93.000000,6.000000,0.000000,0.000000,0.000000,0.000000,0.124475,0.147201,0.052808,0.000000,0.000000,93.000000,6.000000,0.000000,0.000000,0.000000,0.000000:
// measure 0
0000
0000
0000
0000
,  // measure 1
0000
0000
0000
0000
,  // measure 2
0010
0000
0000
0000
,  // measure 3
0100
0000
0000
0000
,  // measure 4
0001
0000
1000
0000
,  // measure 5
0010
0100
0001
0000
,  // measure 6
0000
0000
0000
1000
,  // measure 7
0000
0000
0000
0001
,  // measure 8
0000
0000
0000
0100
,  // measure 9
0000
0000
0000
0001
,  // measure 10
1000
0001
0000
0010
,  // measure 11
0000
0000
0000
0100
,  // measure 12
0000
0000
0000
0010
,  // measure 13
0000
0001
0000
1000
,  // measure 14
0000
0000
0000
0001
,  // measure 15
0000
0000
0000
1000
,  // measure 16
0000
0000
0000
0010
,  // measure 17
0000
1000
0000
0001
,  // measure 18
0001
0001
0000
1001
,  // measure 19
0000
0000
0000
0110
,  // measure 20
0000
0000
0000
1001
,  // measure 21
0000
0010
0000
0100
,  // measure 22
0100
0100
0000
0000
,  // measure 23
0000
0000
0000
0010
,  // measure 24
0000
0000
0000
1000
,  // measure 25
0000
0000
0000
0001
,  // measure 26
0000
0000
0000
0100
,  // measure 27
0000
0000
0000
0010
,  // measure 28
0010
0010
0000
0010
,  // measure 29
0010
0010
0000
0010
,  // measure 30
0000
0100
0000
0010
,  // measure 31
0000
0100
1001
0001
,  // measure 32
0001
0001
0000
1000
,  // measure 33
0000
0001
0000
1000
,  // measure 34
1000
1000
0000
0010
,  // measure 35
0000
0100
0000
0000
,  // measure 36
0010
0010
0000
0100
,  // measure 37
0000
0010
0000
1000
,  // measure 38
0000
0001
0000
1000
,  // measure 39
1000
1000
0000
1001
,  // measure 40
0000
0000
0000
0001
,  // measure 41
0000
0100
0000
0010
,  // measure 42
0000
0100
0000
0010
,  // measure 43
0000
1000
0000
0000
,  // measure 44
1000
1000
0000
0001
,  // measure 45
0000
0100
0000
0010
,  // measure 46
0000
0100
0000
0010
,  // measure 47
0010
0010
0000
1001
,  // measure 48
0000
0000
0000
0001
,  // measure 49
0000
0000
0000
1000
,  // measure 50
0000
0000
0000
0100
,  // measure 51
0000
1000
0000
0010
,  // measure 52
0000
0000
0000
0010
,  // measure 53
0000
0000
0000
0010
,  // measure 54
0000
0100
0000
0001
,  // measure 55
0000
0000
0000
1000
;
