#VERSION:0.83;
#TITLE:Viva L'amore;
#SUBTITLE:(Grant Nelson Remix);
#ARTIST:Physics;
#TITLETRANSLIT:;
#SUBTITLETRANSLIT:;
#ARTISTTRANSLIT:;
#GENRE:;
#ORIGIN:;
#CREDIT:;
#BANNER:Viva L’amore (Grant Nelson Remix).png;
#BACKGROUND:Viva L’amore (Grant Nelson Remix)-bg.png;
#PREVIEWVID:;
#JACKET:Viva L’amore (Grant Nelson Remix)-jacket.png;
#CDIMAGE:;
#DISCIMAGE:;
#LYRICSPATH:;
#CDTITLE:cdtitle.png;
#MUSIC:Viva L’amore (Grant Nelson Remix).ogg;
#OFFSET:-7.491005;
#SAMPLESTART:74.964005;
#SAMPLELENGTH:14.999992;
#SELECTABLE:YES;
#BPMS:0.000=128.000;
#STOPS:;
#DELAYS:;
#WARPS:;
#TIMESIGNATURES:0.000=4=4;
#TICKCOUNTS:0.000=4;
#COMBOS:0.000=1;
#SPEEDS:0.000=1.000=0.000=0;
#SCROLLS:0.000=1.000;
#FAKES:;
#LABELS:0.000=Song Start;
#BGCHANGES:;
#KEYSOUNDS:;
#ATTACKS:
;

//---------------dance-single - ----------------
#NOTEDATA:;
#CHARTNAME:;
#STEPSTYPE:dance-single;
#DESCRIPTION:;
#CHARTSTYLE:;
#DIFFICULTY:Hard;
#METER:7;
#RADARVALUES:0.365212,0.389560,0.040579,0.137969,0.458544,315.000000,310.000000,5.000000,17.000000,0.000000,0.000000,0.000000,0.000000,0.000000,0.365212,0.389560,0.040579,0.137969,0.458544,315.000000,310.000000,5.000000,17.000000,0.000000,0.000000,0.000000,0.000000,0.000000;
#CREDIT:;
#NOTES:
1000
0000
0000
0000
0001
0000
0000
0000
0010
0000
0000
0100
0000
0000
0000
0000
,
1000
0000
0000
0000
0001
0000
0000
0000
0001
0000
0000
1000
0000
0000
0000
0000
,
0010
0000
0000
0000
0100
0000
0000
0000
0010
0000
0000
1000
0000
0000
0000
0000
,
0001
0000
0000
0000
1000
0000
0000
0000
0010
0000
0000
0100
0000
0000
0000
0000
,
0001
0000
0000
1000
0001
0000
0000
0001
1000
0000
0010
0000
0100
0000
0000
0000
,
0001
0000
0000
0100
0000
0000
0000
0000
0000
0000
0010
0000
0100
0000
0000
0000
,
0001
0000
1000
0010
0100
0000
0001
0000
,
0010
0100
1000
0001
0010
0000
0100
0000
,
1000
0000
0001
0100
0010
0000
1000
0000
,
0001
0000
0100
0010
1000
0000
0100
0000
,
0010
0000
0001
0010
0100
0000
0010
0000
,
0001
0000
1000
0010
0100
0000
0010
0000
,
2002
0000
3003
0000
,
0001
0000
0000
0001
0000
0000
0001
0000
,
1000
0000
0000
1000
0000
0000
1000
0000
,
0010
0000
0000
0010
0000
0000
0010
0000
,
0100
0000
0000
0100
0000
0000
0001
0000
0000
0001
0000
0000
1000
0000
0000
0000
,
0100
0000
0000
0100
0000
0000
0010
0000
0000
0010
0000
0000
0100
0000
0000
0000
,
1000
0000
0000
1000
0000
0000
0001
0000
0000
0001
0000
0000
0100
0000
0000
0000
,
0001
0000
0000
0001
0000
0000
0010
0000
0000
0010
0000
0000
0100
0000
0000
0000
,
1000
0000
0000
0100
0000
0000
0010
0000
0000
0001
0000
0000
0010
0001
0000
0000
,
0010
0000
0000
0100
0000
0000
1000
0000
0000
0010
0000
0000
0100
0010
0000
0000
,
1000
0000
0000
0001
0000
0000
0010
0000
0000
0100
0000
0000
0100
0010
0000
0000
,
0100
0000
0000
1000
0000
0000
0010
0000
0000
1000
0000
0000
0001
1000
0000
0000
,
0010
0000
0000
0100
0000
0000
0001
0000
0000
0100
0000
0000
0010
1000
0000
0000
,
1000
0000
0000
0100
0000
0000
0010
0000
0000
0001
0000
0000
0010
0001
0000
0000
,
0010
0000
0000
0001
0100
0000
0000
0100
0010
0000
0000
0010
1000
0000
0000
0000
,
0001
0010
0100
1000
0100
0010
0001
0000
,
2001
0000
0000
0000
0000
0000
3010
0200
,
0000
0000
0000
0300
,
0010
0000
0000
0100
0000
0001
0000
0010
0000
0000
0000
0000
0000
0000
0000
0000
,
0100
0000
1000
0100
0000
1000
0000
0001
0000
0000
0000
0000
0100
0000
0000
0000
,
1002
0000
0000
0000
0000
0000
0013
0200
,
0000
0000
0000
0000
0000
0000
0000
0000
0000
0000
0000
0000
0300
0000
0000
0010
,
0100
0000
0000
0010
0000
0001
0000
0001
0000
0000
0000
0000
0000
0000
0000
0000
,
1000
0100
0010
0001
0010
0100
2000
0000
0000
3010
0000
0000
,
1002
0000
1000
0000
1003
0000
0100
0010
,
0001
0000
0000
0010
0000
0000
0100
0000
0000
1000
0000
0000
0001
0000
0000
0000
,
1000
0000
0001
1000
0000
0001
0000
1000
0000
0000
0000
0000
0000
0000
0000
0000
,
0010
1000
0010
1000
0000
0001
0000
1000
0000
0000
0000
0000
0100
0000
0000
0000
,
0020
0000
0001
0000
0001
0000
0130
1000
,
0001
0000
0000
1000
0000
0000
0010
0000
0000
0100
0000
0000
0001
0000
0000
1000
,
0001
0000
0001
1000
0000
0010
0000
0100
0000
0000
0000
0000
0000
0000
0000
0000
,
0001
0100
0001
0100
0000
0001
0000
0010
0000
0000
0000
0000
0100
0000
0000
0000
,
0020
0000
0001
0000
0031
0010
0001
1000
,
0020
0000
0000
1000
0000
0000
1000
0000
0000
1000
0000
0000
1030
0000
0000
0010
,
0100
0000
0010
1000
0000
1000
0000
0020
0000
0000
0000
0000
0030
0000
0000
0000
,
0100
0001
0100
0001
0000
1000
0000
2000
0000
0000
0000
0000
3010
0000
0000
0000
,
0200
0000
0001
0000
0310
1000
0001
1000
,
0200
0000
0000
0010
0000
0000
0010
0000
0000
0010
0000
0000
0310
0000
0000
0100
,
0010
0000
0010
0001
0000
1000
0000
0002
0000
0000
0000
0000
0003
0000
0000
0000
,
1000
0010
1000
0010
0000
0100
0000
0002
0000
0000
0000
0000
1003
0000
0000
0000
,
0100
0000
0000
0010
0000
0000
0100
0000
0000
0010
0000
0000
0100
0100
0000
0000
,
0010
0000
0000
0001
0000
0000
0010
0000
0000
0001
0000
0000
0010
0010
0000
0000
,
0001
0000
0000
1000
0000
0000
0001
0000
0000
1000
0000
0000
0001
0001
0000
0000
,
0100
0000
0000
0001
0000
0000
0100
0000
0000
0010
0000
0000
1000
1000
0000
0000
,
0010
0000
0000
0100
0000
0000
0001
0000
0000
1000
0000
0000
0100
0100
0000
0000
,
0010
0000
0000
0001
0000
0000
0100
0000
0000
0010
0000
0000
1000
1000
0000
0000
,
0010
0000
0000
0100
0000
0000
0001
0000
0000
0010
0000
0000
0100
0100
0000
0000
,
1000
0000
0000
0100
0010
0000
0000
0010
0001
0000
0000
0001
1000
0000
0000
0000
,
1001
0000
0000
0000
;

//---------------dance-single - ----------------
#NOTEDATA:;
#CHARTNAME:;
#STEPSTYPE:dance-single;
#DESCRIPTION:;
#CHARTSTYLE:;
#DIFFICULTY:Easy;
#METER:2;
#RADARVALUES:0.133331,0.194780,0.032463,0.073042,0.000000,115.000000,111.000000,4.000000,9.000000,0.000000,0.000000,0.000000,0.000000,0.000000,0.133331,0.194780,0.032463,0.073042,0.000000,115.000000,111.000000,4.000000,9.000000,0.000000,0.000000,0.000000,0.000000,0.000000;
#CREDIT:;
#NOTES:
0001
0000
0000
0000
,
1000
0000
0000
0000
,
0001
0000
0000
0000
,
1000
0000
0000
0000
,
0010
0000
0100
0000
,
0001
0000
0000
1000
,
0100
0000
1000
0000
,
0010
0010
0000
0100
,
0001
0000
1000
0000
,
0100
0000
1000
0000
,
0010
0000
0100
0000
,
0001
0000
0010
0000
,
1001
0000
0000
0000
,
0000
0000
0000
0000
,
0000
0000
0000
0000
,
0000
0000
0000
0000
,
1000
0000
0000
0000
,
0001
0000
0000
0000
,
0100
0000
0000
0000
,
0010
0000
0000
0000
,
1000
0000
0000
1000
,
0010
0000
0000
0100
,
0001
0000
0000
0010
,
0100
0000
0000
1000
,
0001
0000
0000
1000
,
0010
0000
0000
0100
,
0001
0000
1000
0000
,
0010
0000
0100
0000
,
1001
0000
0000
1000
,
1000
0000
0000
0000
,
0001
0000
1000
0000
,
0010
1000
0010
0100
,
0001
0000
0000
1000
,
1000
0000
0000
0000
,
0010
0000
0100
0000
,
2002
0000
0000
3003
,
0001
0000
1000
0000
,
0010
0000
0100
0000
,
0001
1000
0001
0000
,
1000
0100
1000
0010
,
0100
0000
0010
0000
,
1000
0000
0001
0000
,
0010
0100
0010
0000
,
0100
1000
0001
1000
,
0010
0000
1000
0000
,
0001
0000
0100
0000
,
0010
1000
0010
0000
,
0100
0001
0100
0000
,
0001
0000
1000
0000
,
0100
0000
1000
0000
,
0010
1000
0010
0000
,
0100
0001
0100
0000
,
0020
0000
0000
0030
,
2000
0000
0000
3000
,
0002
0000
0000
0003
,
0200
0000
0000
0300
,
0002
0000
0000
0003
,
2000
0000
0000
3000
,
0200
0000
0000
0300
,
0010
0001
1000
0001
,
1001
0000
0000
0000
;

//---------------dance-single - ----------------
#NOTEDATA:;
#CHARTNAME:;
#STEPSTYPE:dance-single;
#DESCRIPTION:;
#CHARTSTYLE:;
#DIFFICULTY:Medium;
#METER:5;
#RADARVALUES:0.243475,0.389560,0.081158,0.211012,0.158259,210.000000,200.000000,10.000000,26.000000,0.000000,0.000000,0.000000,0.000000,0.000000,0.243475,0.389560,0.081158,0.211012,0.158259,210.000000,200.000000,10.000000,26.000000,0.000000,0.000000,0.000000,0.000000,0.000000;
#CREDIT:;
#NOTES:
1000
0000
0100
0000
1000
0010
1000
0000
,
0001
0000
0100
0000
0001
0010
0001
0000
,
1000
0000
0001
0000
0100
0010
0100
0000
,
0001
0000
1000
0000
0010
0100
0010
0000
,
0101
0100
0101
0001
,
1000
0001
1000
0000
0000
0010
0100
0000
,
1000
0000
0010
0100
0010
0000
1000
0000
,
0001
1000
0001
0000
1000
0000
0100
0000
,
1000
0000
0010
0100
0001
0000
1000
0000
,
0001
0100
0001
0000
0100
0000
0010
0000
,
1000
0000
0100
1000
0010
0000
0100
0000
,
0001
0000
1000
0001
0010
0000
0100
0000
,
2002
0000
0000
3003
,
0001
0000
0000
0001
0000
0000
0001
0000
,
1000
0000
0000
1000
0000
0000
1000
0000
,
0010
0000
0000
0010
0000
0000
0010
0000
,
0100
0000
0000
0100
0000
0000
0100
0000
,
0001
0000
0000
0001
0000
0000
0001
0000
,
1000
0000
0000
1000
0000
0000
1000
0000
,
0010
0000
0000
0010
0000
0000
0010
0000
,
0200
0000
0000
0000
0000
0000
0000
0000
0000
0000
0000
0000
0000
0000
0310
2000
,
0000
0000
0000
0000
0000
0000
0000
0000
0000
0000
0000
0000
0000
0000
3001
0020
,
0000
0000
0000
0000
0000
0000
0000
0000
0000
0000
0000
0000
0000
0000
0130
2000
,
0000
0000
0000
0000
0000
0000
0000
0000
0000
0000
0000
0000
0000
0000
3001
0200
,
0000
0000
0000
0000
0000
0000
0000
0000
0000
0000
0000
0000
0000
0000
0310
2000
,
0000
0000
0000
0000
0000
0000
0000
0000
0000
0000
0000
0000
0000
0000
3001
0200
,
0000
0000
0000
0000
0000
0000
0000
0000
0000
0000
0000
0000
0000
0000
0310
2000
,
0000
0000
0000
3000
,
1001
1000
0010
0100
,
0010
0100
0001
0010
,
0100
0000
1000
0100
1000
0000
0010
0000
,
0100
0001
0100
0000
0001
0000
1000
0000
,
1001
0000
0001
0000
0100
0000
0010
1000
,
1001
0010
0100
1000
,
0100
0000
1000
0010
1000
0000
0010
0000
,
1000
0001
1000
0001
1000
0001
1000
0000
0000
0110
0000
0000
,
1002
0000
0000
0000
0000
0000
1003
0200
,
0000
0000
0000
0300
,
0010
0000
0000
0100
0000
1000
0000
0001
0000
0000
0000
0000
0000
0000
0000
0000
,
1000
0000
0000
0010
0000
0100
0000
0010
0000
0000
0000
0000
0100
0000
0000
0000
,
0002
0000
0000
0000
0000
0000
0013
0200
,
0000
0000
0000
0300
,
0010
0000
0000
0100
0000
0100
0000
1000
0000
0000
0000
0000
0000
0000
0000
0000
,
0100
0000
0000
1000
0000
0000
0010
0000
0100
0000
0000
0000
0010
0000
0000
0000
,
2001
0000
0000
0000
0000
0000
3001
2000
,
0000
0000
0000
0000
0000
0000
0000
0000
0000
0000
0000
0000
0000
3000
0000
0000
,
0010
0000
0000
0100
0000
0100
0000
0001
0000
0000
0000
0000
0000
0000
0000
0000
,
0010
0000
0000
0100
0000
1000
0000
0010
0000
0000
0000
0000
0100
0000
0000
0000
,
2001
0000
0000
0000
0000
0000
3010
0200
,
0000
0000
0000
0300
,
0010
0000
0000
1000
0000
1000
0000
0100
0000
0000
0000
0000
0000
0000
0000
0000
,
0010
0000
0000
0001
0000
0010
0000
0001
0000
0000
0000
0000
0010
0000
0000
0000
,
0200
0000
0000
0000
0000
0000
0000
0000
0000
0000
0000
0000
0000
0000
0310
0002
,
0000
0000
0000
0000
0000
0000
0000
0000
0000
0000
0000
0000
0000
0000
0103
0020
,
0000
0000
0000
0000
0000
0000
0000
0000
0000
0000
0000
0000
0000
0000
1030
0002
,
0000
0000
0000
0000
0000
0000
0000
0000
0000
0000
0000
0000
0000
0000
1003
0200
,
0000
0000
0000
0000
0000
0000
0000
0310
,
0002
0000
0000
0000
0000
0000
0000
0000
0000
0000
0000
0000
0000
0000
1003
0020
,
0000
0000
0000
0000
0000
0000
0000
0000
0000
0000
0000
0000
0000
0000
1030
0002
,
0000
0000
0000
0000
,
1003
0000
0000
0000
;

//---------------dance-single - ----------------
#NOTEDATA:;
#CHARTNAME:;
#STEPSTYPE:dance-single;
#DESCRIPTION:;
#CHARTSTYLE:;
#DIFFICULTY:Beginner;
#METER:1;
#RADARVALUES:0.089274,0.194780,0.040579,0.000000,0.000000,77.000000,72.000000,5.000000,0.000000,0.000000,0.000000,0.000000,0.000000,0.000000,0.089274,0.194780,0.040579,0.000000,0.000000,77.000000,72.000000,5.000000,0.000000,0.000000,0.000000,0.000000,0.000000,0.000000;
#CREDIT:;
#NOTES:
1000
0000
0000
0000
,
1000
0000
0000
0000
,
1000
0000
0000
0000
,
1000
0000
0000
0000
,
0001
0000
0001
0000
,
0001
0000
0000
0000
,
0100
0000
0000
0000
,
0010
0010
0000
0000
,
1000
0000
0000
0000
,
0100
0000
0000
0000
,
1000
0000
0000
0000
,
0010
0000
0000
0000
,
1001
0000
0000
0000
,
0000
0000
0000
0000
,
0000
0000
0000
0000
,
0000
0000
0000
0000
,
0001
0000
0000
0000
,
0100
0000
0000
0000
,
0010
0000
0000
0000
,
1000
0000
0000
0000
,
0100
0000
0000
0000
,
1000
0000
0000
0000
,
0010
0000
0000
0000
,
0100
0000
0000
0000
,
0001
0000
0000
0000
,
0010
0000
0000
0000
,
0100
0000
1000
0000
,
0001
0000
1000
0000
,
1001
0000
0000
0000
,
0001
0000
0000
0000
,
0100
0000
0000
0000
,
0010
0000
0000
0000
,
1001
0000
0000
0000
,
1000
0000
0000
0000
,
0010
0000
0000
0000
,
0100
0100
0100
0001
,
1001
0000
0000
1000
,
1000
0000
0000
0000
,
0010
0000
0000
0000
,
0100
0000
0000
0000
,
0010
0000
0000
0100
,
0100
0000
0000
0000
,
0001
0000
0000
0000
,
0010
0000
0000
0000
,
0001
0000
0000
1000
,
1000
0000
0000
0000
,
0010
0000
0000
0000
,
0100
0000
0000
0000
,
0010
0000
0000
0100
,
0100
0000
0000
0000
,
0001
0000
0000
0000
,
1000
1000
1000
0000
,
0001
0000
0000
0000
,
0010
0000
0000
0000
,
0001
0000
0000
0000
,
1000
0000
0000
0000
,
0100
0000
0000
0000
,
1000
0000
0000
0000
,
0010
0000
0000
0000
,
0100
0000
0010
0000
,
1001
0000
0000
0000
;

//---------------dance-single - ----------------
#NOTEDATA:;
#CHARTNAME:;
#STEPSTYPE:dance-single;
#DESCRIPTION:;
#CHARTSTYLE:;
#DIFFICULTY:Challenge;
#METER:9;
#RADARVALUES:0.527529,0.900857,0.081158,0.129853,0.876510,455.000000,445.000000,10.000000,16.000000,0.000000,0.000000,0.000000,0.000000,0.000000,0.527529,0.900857,0.081158,0.129853,0.876510,455.000000,445.000000,10.000000,16.000000,0.000000,0.000000,0.000000,0.000000,0.000000;
#CREDIT:;
#NOTES:
// measure 0
0001
0000
0100
0000
0010
0000
1000
0000
0100
0010
0000
0100
0000
0000
0000
0000
,  // measure 1
0000
0000
0010
0000
0001
0000
0100
0000
0010
1000
0000
0001
0000
0000
0000
0000
,  // measure 2
0000
0000
1000
0000
0100
0000
0010
0000
0100
1000
0000
0010
0000
0000
0000
0000
,  // measure 3
0000
0000
0100
0000
0010
0000
1000
0000
0010
0100
0000
0001
0100
0001
1000
0000
,  // measure 4
1001
0000
1000
0001
0010
0000
0001
1000
0010
0000
0100
0001
0000
0000
0000
0000
,  // measure 5
0010
0000
0001
0100
0000
0000
0000
0000
0000
0000
0010
1000
0010
0100
0000
0000
,  // measure 6
0000
0000
0000
0000
0000
0000
0010
0100
0001
0000
1000
0000
0000
0000
0000
0000
,  // measure 7
0100
0000
0000
0010
0000
0000
0001
0000
0000
0000
0000
0000
0001
0000
0000
0010
0000
0000
0100
0000
0000
0000
0000
0000
0000
0000
0000
0000
0000
0000
0000
0000
0000
0000
0000
0000
0000
0000
0000
0010
0000
0000
0000
0000
0100
0000
0000
0000
,  // measure 8
1000
0000
0000
0000
0010
0000
0000
0000
0000
0000
0000
0000
0000
0000
0000
0000
0100
0000
0000
0000
0000
0001
0000
0000
1000
0000
0000
0000
0000
0000
0000
0000
0000
0100
0000
0000
0010
0000
0000
0000
0001
0000
1000
0000
0000
0001
0000
0000
,  // measure 9
0100
0000
0000
0000
0000
0000
0000
0000
0000
0000
0000
0000
0001
0010
0001
0010
0001
0010
0001
0010
0001
0010
0001
0010
,  // measure 10
0000
0000
0001
0000
0000
1000
0010
1000
0001
0000
0010
0001
1000
0000
0000
0000
,  // measure 11
0000
0001
0000
1000
0010
0000
0100
0010
0000
0000
0100
0010
1000
0100
0000
0000
,  // measure 12
2001
0000
0000
0000
,  // measure 13
0100
0000
0000
0010
0000
0000
0100
0000
0000
0010
0000
0000
0100
0000
0000
0000
,  // measure 14
0001
0000
0000
0010
0000
0000
0001
0000
0000
0010
0000
0000
0001
0000
0000
0000
,  // measure 15
0001
0000
0000
0100
0000
0000
0001
0000
0000
0100
0000
0000
0001
0000
0000
0000
,  // measure 16
3002
0000
0000
0100
0000
0000
1000
0000
0000
0100
0000
0000
1000
0000
0000
0000
,  // measure 17
0010
0000
0000
1000
0000
0000
0010
0000
0000
1000
0000
0000
0010
0000
0000
0000
,  // measure 18
0100
0000
0000
0010
0000
0000
0100
0000
0000
0010
0000
0000
0100
0000
0000
0000
,  // measure 19
1000
0000
0000
0100
0000
0000
0010
0000
0000
0100
0000
0000
1003
0000
0000
0000
,  // measure 20
0001
0000
0000
0100
0000
0000
0010
0000
0000
1000
0000
0000
0010
0010
0000
0000
,  // measure 21
0100
0000
0000
0010
0000
0000
1000
0000
0000
0001
0000
0000
0010
0010
0000
0000
,  // measure 22
0100
0000
0000
0010
0000
0000
0001
0000
0000
1000
0000
0000
0100
0100
0000
0000
,  // measure 23
1000
0000
0000
0010
0000
0000
0100
0000
0000
0001
0000
0000
0010
0010
0000
0000
,  // measure 24
0001
0000
0000
0100
0000
0000
1000
0000
0000
0100
0000
0000
0010
0010
0000
0000
,  // measure 25
1000
0000
0000
0010
0000
0000
0001
0000
0000
0010
0000
0000
0100
0100
0000
0000
,  // measure 26
0001
0000
0000
0000
0000
0000
0000
0000
0000
1000
0000
0000
0010
0000
1000
0000
0001
0000
1000
0000
0000
0000
0000
0000
0001
0000
0000
0000
0000
0000
1000
0000
0000
0010
0000
0000
0000
0000
0000
0010
0000
0000
1000
0000
0000
0001
0000
0000
,  // measure 27
0100
0010
0100
0010
0100
0010
0100
0010
0100
0010
0100
0010
0100
0010
0100
0010
0100
0010
0100
0010
0100
0010
0100
0010
,  // measure 28
0100
0000
0000
0000
0000
0000
0000
0000
0000
0001
0000
0000
0000
0000
0000
0000
0000
0000
0010
0000
0000
0000
0000
0000
0000
0000
0000
0100
0000
0000
0000
0000
0000
0000
0000
0000
1000
0000
0000
0000
0001
0000
0000
0000
1000
0000
0000
0000
,  // measure 29
0100
0000
0000
0010
0000
0000
0001
0000
0000
0100
0000
0000
0010
0010
0000
1000
,  // measure 30
0010
0000
0010
0100
0000
0001
0000
0020
0000
0000
0000
0000
0000
0000
0000
0000
,  // measure 31
0130
1000
0010
0100
0000
0001
0000
1000
0001
0000
0010
0001
0000
0100
1000
0000
,  // measure 32
0001
0100
1000
0100
0010
1000
0001
0010
,  // measure 33
1000
0010
0100
1000
0010
0100
0001
0010
,  // measure 34
0001
1000
0100
0010
0100
1000
0010
0100
0001
0010
0001
1000
0010
0100
0001
0010
,  // measure 35
0100
1000
0100
0001
0100
1000
0010
0000
0000
0200
0000
0000
,  // measure 36
0301
0000
0000
1010
0000
0000
0001
0000
0000
0011
0000
0000
0001
0001
0000
0000
,  // measure 37
1000
0000
0000
1100
0000
0000
1000
0000
0000
1010
0000
0000
0010
0010
0000
0100
,  // measure 38
0010
0000
1000
0010
0000
0100
0000
0002
0000
0000
0000
0000
0003
0000
0000
0000
,  // measure 39
1000
0100
0010
0001
0000
1000
0000
0002
0000
0000
0000
0000
0023
0000
0000
0000
,  // measure 40
0031
0000
0000
0110
0000
0000
0010
0000
0000
1100
0000
0000
0100
0100
0000
0000
,  // measure 41
0010
0000
0000
0011
0000
0000
0001
0000
0000
1001
0000
0000
1000
1000
0000
0001
,  // measure 42
0100
0000
0010
0100
0000
1000
0000
0200
0000
0000
0000
0000
0300
0000
0000
0000
,  // measure 43
0010
1000
0001
0010
0000
0100
0000
2000
0000
0000
0000
0000
3200
0000
0000
0000
,  // measure 44
0310
0000
0001
0010
0000
0100
1000
0000
1000
0010
0000
0010
0100
0010
0000
0000
,  // measure 45
0001
0000
0001
0100
0000
0100
0010
0000
0010
1000
0000
1000
0001
1000
0000
0100
,  // measure 46
0010
0000
0100
1000
0000
0010
0000
0200
0000
0000
0000
0000
0300
0000
0000
0000
,  // measure 47
0010
1000
0010
0100
0000
0001
0000
2000
0000
0000
0000
0000
3200
0000
0000
0000
,  // measure 48
1300
0000
0100
1000
0000
1000
0010
0000
0010
0100
0000
0100
0001
0010
0000
0000
,  // measure 49
0010
0000
0010
0100
0000
0100
1000
0000
1000
0100
0000
0100
1000
0010
0000
0100
,  // measure 50
0010
0000
0010
1000
0000
0001
0000
0020
0000
0000
0000
0000
0030
0000
0000
0000
,  // measure 51
0100
0010
0001
1000
0000
0010
0000
0200
0000
0000
0000
0000
0302
0000
0000
0000
,  // measure 52
1003
0000
0000
0100
0000
0000
0001
0000
0000
0100
0000
0000
1000
1000
0000
0000
,  // measure 53
0100
0000
0000
1000
0000
0000
0010
0000
0000
0001
0000
0000
0010
0010
0000
0000
,  // measure 54
0100
0000
0000
0010
0000
0000
1000
0000
0000
0010
0000
0000
0100
0100
0000
0000
,  // measure 55
0001
0000
0000
0010
0000
0000
1000
0000
0000
0010
0000
0000
0100
0100
0000
0000
,  // measure 56
1000
0000
0000
0100
0000
0000
0001
0000
0000
0100
0000
0000
0010
0010
0000
0000
,  // measure 57
0100
0000
0000
1000
0000
0000
0010
0000
0000
0001
0000
0000
0010
0010
0000
0000
,  // measure 58
0100
0000
0000
0010
0000
0000
1000
0000
0000
0001
0000
0000
0100
0100
0000
0000
,  // measure 59
0001
0000
0000
0000
0000
0000
0000
0000
0000
0100
0000
0000
0010
0000
1000
0000
0010
0000
0100
0000
0000
0000
0000
0000
0001
0000
0000
0000
0000
0000
1000
0000
0000
0100
0000
0000
0000
0000
0000
0010
0000
0000
0001
0000
0000
0100
0000
0000
,  // measure 60
0010
0000
0000
0000
;
