#VERSION:0.83;
#TITLE:Violently Car;
#SUBTITLE:;
#ARTIST:sampling masters MEGA;
#TITLETRANSLIT:;
#SUBTITLETRANSLIT:;
#ARTISTTRANSLIT:;
#GENRE:;
#ORIGIN:;
#CREDIT:;
#BANNER:Violently Car.png;
#BACKGROUND:Violently Car-bg.png;
#PREVIEWVID:;
#JACKET:Violently Car-jacket.png;
#CDIMAGE:;
#DISCIMAGE:;
#LYRICSPATH:;
#CDTITLE:;
#MUSIC:Violently Car.ogg;
#OFFSET:-0.104000;
#SAMPLESTART:22.696236;
#SAMPLELENGTH:11.294117;
#SELECTABLE:YES;
#BPMS:0.000=170.000,
157.000=194.000,
245.000=220.000,
277.000=250.000,
309.000=280.000,
341.000=300.000,
380.000=600.000,
390.000=170.000;
#STOPS:24.000=0.353,
25.000=0.353,
26.000=0.353;
#DELAYS:;
#WARPS:;
#TIMESIGNATURES:0.000=4=4;
#TICKCOUNTS:0.000=4;
#COMBOS:0.000=1;
#SPEEDS:0.000=1.000=0.000=0;
#SCROLLS:0.000=1.000;
#FAKES:;
#LABELS:0.000=Song Start;
#BGCHANGES:;
#KEYSOUNDS:;
#ATTACKS:
;

//---------------dance-single - ----------------
#NOTEDATA:;
#CHARTNAME:;
#STEPSTYPE:dance-single;
#DESCRIPTION:;
#CHARTSTYLE:;
#DIFFICULTY:Hard;
#METER:9;
#RADARVALUES:0.644347,0.811378,0.241333,0.183080,0.033287,542.000000,513.000000,29.000000,22.000000,0.000000,0.000000,0.000000,0.000000,0.000000,0.644347,0.811378,0.241333,0.183080,0.033287,542.000000,513.000000,29.000000,22.000000,0.000000,0.000000,0.000000,0.000000,0.000000;
#CREDIT:;
#DISPLAYBPM:170.000000:300.000000;
#NOTES:
0000
0000
0000
0000
,
0000
0000
0000
0000
,
1000
0001
0010
0001
,
1000
0100
1000
0010
,
0100
0001
0010
0001
,
0100
0001
0100
0010
1000
0100
0010
0001
0010
0100
1000
0001
,
1000
0001
0100
0010
,
0000
0000
1001
0000
1000
0000
0001
0010
,
0000
0010
0001
0000
1000
0000
0010
1000
,
0000
1000
1100
0000
0100
0000
0020
0000
,
0031
0101
0100
0020
,
1030
0001
0010
0000
0100
0000
1000
0001
,
0000
0001
0100
0000
0001
0000
0010
0001
,
0000
0001
1001
0000
0001
0000
0020
0000
,
0130
1200
0000
0320
,
0130
0000
1000
0001
0100
0001
1000
0100
,
0010
0001
1000
0001
0100
0001
1000
0100
,
0010
0001
1000
0001
0100
0001
1000
0100
,
0010
0001
1000
0001
0100
0001
1000
0100
,
0010
0001
0001
1000
0010
1000
0001
0010
,
0100
1000
0001
1000
0010
1000
0001
0010
,
0100
1000
0001
1000
0010
1000
0001
0010
,
0100
1000
0200
0000
0310
0000
0100
0010
,
0100
1000
0001
0000
1000
0000
0010
1000
,
0000
0100
0000
0110
0000
0010
0002
0000
,
0103
0000
0010
0000
1000
0000
0100
1000
,
0000
1010
0000
0010
0000
0100
0020
0000
,
1030
0000
1001
0000
0001
0000
1000
0100
,
0000
0010
0000
0011
0000
0010
0200
0000
,
0310
0000
0010
0000
0001
0000
0100
1000
,
0000
1100
0000
0000
0000
0100
0010
0000
,
1000
0000
0001
0010
0001
0000
1000
0100
,
1000
0000
0001
0100
0010
1000
0200
0000
,
1300
0000
0001
0010
0001
0000
1000
0100
,
1000
0000
0001
0010
0100
0010
0002
0000
,
1003
0000
0010
1000
0010
0000
0100
0001
,
0100
0000
0001
0100
0010
1000
0200
0000
,
0310
0000
0100
0000
0010
0000
0001
0100
,
0000
1000
1100
0000
0101
0000
0011
0000
,
1010
0000
1001
0000
0001
0020
0000
0000
,
0000
0030
1001
0000
1000
0020
0000
0000
,
0000
0030
1001
0000
0001
0020
0000
0000
,
0000
0030
1001
0000
1000
0020
0030
0020
,
0000
0030
1001
0000
0020
0030
1001
0000
,
0020
0030
1001
0010
1001
0010
1001
0010
,
1001
0010
1001
0000
1000
0000
0001
0100
,
0001
0000
0010
0000
0100
1000
0000
1000
,
0000
0000
0001
0000
0010
0000
0100
0010
,
0100
0000
0010
0000
0001
1000
0000
1000
,
0000
0000
0010
0000
1000
0000
0100
0010
,
0100
0000
0010
0000
0001
1000
0000
1000
,
0000
0000
0010
0000
1000
0000
0001
0010
,
0001
2100
3010
0201
,
0310
0000
1001
0000
0001
0000
0010
0010
,
0010
0000
0100
0000
1000
0010
0000
0010
,
0000
0000
0100
0000
0001
0000
0100
0100
,
0100
0000
0010
0010
0010
0000
0010
0000
,
0000
0000
1001
0000
1000
0000
0001
0001
,
0001
0000
0010
0000
0010
0100
0000
0100
,
0000
0000
0010
0000
0100
0000
1000
1000
,
1000
0000
0001
0001
0001
0001
0001
0000
,
0000
0000
1000
0000
1000
0000
0010
1000
,
0000
0100
0000
0100
0000
0100
0010
0001
,
0010
0001
0010
0000
0010
0000
0001
0010
,
0000
0100
0000
0100
0000
0100
1000
0001
,
1000
0001
0100
0000
0100
0000
0010
0100
,
0000
0010
0000
0010
0000
0010
1000
0100
,
1000
0100
1000
0100
0010
0001
1000
0100
,
0010
0001
1000
0100
0010
0100
1000
0100
,
0010
0001
1000
0000
1000
0000
0010
1000
,
0000
0100
0000
0100
0000
0100
0010
0001
,
0010
0001
0010
0000
0010
0000
0001
0010
,
0000
0100
0000
0100
0000
0100
1000
0001
,
1000
0001
0100
0000
0100
0000
0010
0100
,
0000
0010
0000
0010
0000
0010
1000
0100
,
1000
0100
1000
0100
0010
0001
1000
0100
,
0010
0001
1000
0100
0010
0100
1000
0100
,
0010
0001
1000
0000
1000
0000
0010
1000
,
0000
0100
0000
0100
0000
0100
0010
0001
,
0010
0001
0010
0000
0010
0000
0001
0010
,
0000
0100
0000
0100
0000
0100
1000
0001
,
1000
0001
0100
0000
0100
0000
0010
0100
,
0000
0010
0000
0010
0000
0010
1000
0100
,
1000
0100
1000
0100
0010
0001
1000
0100
,
0010
0001
1000
0100
0010
0100
1000
0100
,
0010
0001
1000
0000
1000
0000
0010
1000
,
0000
0100
0000
0100
0000
0100
0010
0001
,
0010
0001
0010
0000
0010
0000
0001
0010
,
0000
0100
0000
0100
0000
0100
1000
0001
,
1000
0001
0100
0000
0100
0000
0010
0100
,
0000
0010
0000
0010
0000
0010
1000
0100
,
1000
0100
1000
0100
0010
0001
1000
0100
,
0010
0001
1000
0100
0010
0001
1000
0100
,
0010
0001
1000
0001
1000
0001
0100
0010
,
0100
0010
0100
0001
0010
0100
2000
0000
,
0000
0000
0000
0000
,
0000
0000
0000
0000
,
0000
0000
3000
0000
;

//---------------dance-single - ----------------
#NOTEDATA:;
#CHARTNAME:;
#STEPSTYPE:dance-single;
#DESCRIPTION:;
#CHARTSTYLE:;
#DIFFICULTY:Medium;
#METER:7;
#RADARVALUES:0.474344,0.608533,0.249655,0.008322,0.016644,399.000000,369.000000,30.000000,1.000000,0.000000,0.000000,0.000000,0.000000,0.000000,0.474344,0.608533,0.249655,0.008322,0.016644,399.000000,369.000000,30.000000,1.000000,0.000000,0.000000,0.000000,0.000000,0.000000;
#CREDIT:;
#NOTES:
0000
0000
0000
0000
,
0000
0000
0000
0000
,
1001
0000
0000
0000
0000
0000
0000
0010
,
0000
0000
0000
0000
0000
0000
0000
1000
,
0000
0000
0000
0000
,
0001
0000
1000
0010
0000
0100
0001
0000
0001
0010
0000
0100
,
1000
0001
0100
0010
,
0000
0000
1001
0000
1000
0000
0000
0001
,
0000
0100
0001
0000
0001
0000
0000
0100
,
0000
0010
1000
0000
0100
0000
0011
0000
,
0000
0001
0100
1010
,
0000
0000
1000
0000
0001
0000
0000
0100
,
0000
0001
0100
0000
0010
0000
0000
0100
,
0000
0010
1000
0000
0001
0000
1100
0000
,
0100
0010
0001
1001
,
1000
0001
0100
0000
0001
0000
0100
0001
,
0000
0001
0100
0000
0010
0000
1000
0010
,
0000
0010
1000
0000
0100
0000
0011
0000
,
0001
0100
0010
1010
,
1000
0001
0100
0000
0100
0000
0010
1000
,
0000
1000
0001
0000
0001
0000
0001
0010
,
0000
0010
0100
0000
1000
0000
0011
0000
,
0001
0000
0100
0000
0010
0000
1000
0100
,
0010
0001
1000
0000
0010
0000
0000
0100
,
0000
0010
0000
1000
0000
0001
0010
0000
,
0001
0000
0100
0000
0010
0000
0000
1000
,
0000
0001
0000
0010
0000
0001
0100
0000
,
0001
0000
1000
0000
0100
0000
0000
0010
,
0000
0100
0000
1000
0000
0010
0100
0000
,
0001
0000
0010
0000
0001
0000
1000
0001
,
0000
0001
1001
0000
0000
0001
0100
0000
,
0010
0000
1010
0000
0101
0000
0000
0001
,
0000
0010
0000
0100
0000
1000
0100
0000
,
1000
0000
1001
0000
0101
0000
0000
0001
,
0000
0010
0000
0001
0000
1000
0001
0000
,
0100
0000
0101
0000
1010
0000
0000
1000
,
0000
0010
0000
0100
0000
0001
0010
0000
,
0001
0000
0001
0000
1000
0000
0010
1000
,
0000
1000
1010
0000
0101
0000
0011
0000
,
1100
0000
1001
0000
0000
0100
0000
0000
,
0000
0000
1001
0000
0000
0100
0000
0000
,
0000
0000
1001
0000
0000
0100
0000
0000
,
0000
0000
1001
0000
0000
0100
0000
0100
,
0000
1001
0010
1001
,
0010
0000
0001
1000
0001
1000
0001
1000
,
0001
1000
0001
0000
0010
0000
0001
0000
,
0100
0000
0010
0000
1000
0010
0000
0010
,
0000
1000
0001
0010
,
0001
0000
1000
0000
0100
1000
0000
1000
,
0000
0100
1000
0010
,
0100
0000
0001
0000
1000
0010
0000
0010
,
0000
0100
0010
1000
,
0001
1001
0110
0101
,
1010
0000
1000
0000
0100
0000
0010
0100
,
0010
0000
0001
0000
0100
0001
0000
0001
,
0000
0000
0100
0000
0010
0000
1000
0010
,
1000
0000
0001
1000
0001
0000
0100
0000
,
0000
0000
0001
0000
0100
0000
0010
1000
,
0010
0000
0100
0000
0001
0010
0000
0010
,
0000
0000
0001
0000
1000
0000
0010
0100
,
0010
0000
0001
0100
0001
0100
0001
0000
,
0000
0000
1000
0000
0001
0000
1000
0001
,
0000
0000
0000
0000
0000
0000
0010
0100
,
0010
0100
0001
0000
1000
0000
0001
1000
,
0000
0000
0000
0000
0000
0000
0100
0010
,
0100
0010
0001
0000
1000
0000
0001
1000
,
0000
0000
0000
0000
0000
0000
0010
0100
,
0010
0100
0001
0000
0000
0000
1000
0000
,
0000
0001
1000
0001
,
1000
0001
1000
0000
0001
0000
1000
0001
,
0000
0000
0000
0000
0000
0000
0010
0100
,
0010
0100
0001
0000
1000
0000
0001
1000
,
0000
0000
0000
0000
0000
0000
0100
0010
,
0100
0010
0001
0000
1000
0000
0001
1000
,
0000
0000
0000
0000
0000
0000
0010
0100
,
0010
0100
0001
0000
0000
0000
1000
0000
,
0000
0001
1000
0001
,
1000
0001
1000
0000
0001
0000
1000
0001
,
0000
0000
0000
0000
0000
0000
0010
0100
,
0010
0100
0001
0000
1000
0000
0001
1000
,
0000
0000
0000
0000
0000
0000
0100
0010
,
0100
0010
0001
0000
1000
0000
0001
1000
,
0000
0000
0000
0000
0000
0000
0010
0100
,
0010
0100
0001
0000
0000
0000
1000
0000
,
0000
0001
1000
0001
,
1000
0001
1000
0000
0001
0000
1000
0001
,
0000
0000
0000
0000
0000
0000
0010
0100
,
0010
0100
0001
0000
1000
0000
0001
1000
,
0000
0000
0000
0000
0000
0000
0100
0010
,
0100
0010
0001
0000
1000
0000
0001
1000
,
0000
0000
0000
0000
0000
0000
0010
0100
,
0010
0100
0001
0000
0000
0000
1000
0000
,
0000
0001
0000
1000
,
0000
0001
1000
0001
,
1000
0001
0010
0200
,
0000
0000
0000
0000
,
0000
0000
0000
0000
,
0000
0000
0300
0000
;

//---------------dance-single - ----------------
#NOTEDATA:;
#CHARTNAME:;
#STEPSTYPE:dance-single;
#DESCRIPTION:;
#CHARTSTYLE:;
#DIFFICULTY:Easy;
#METER:5;
#RADARVALUES:0.357838,0.512520,0.199724,0.041609,0.000000,301.000000,277.000000,24.000000,5.000000,0.000000,0.000000,0.000000,0.000000,0.000000,0.357838,0.512520,0.199724,0.041609,0.000000,301.000000,277.000000,24.000000,5.000000,0.000000,0.000000,0.000000,0.000000,0.000000;
#CREDIT:;
#NOTES:
0000
0000
0000
0000
,
0000
0000
0000
0000
,
1000
0000
0000
0000
,
0010
0000
0000
0000
,
0100
0000
0000
0000
,
0002
0000
0000
0000
,
0003
0000
0000
0000
,
0000
1000
0010
0100
,
0001
1000
0010
0100
,
0001
1000
0000
1001
,
0000
0001
0000
0110
,
0000
1000
0010
0100
,
0001
1000
0010
0100
,
0001
1000
0000
1001
,
0000
0010
0000
0110
,
0000
0001
0100
0010
,
0010
0100
0001
1000
,
1000
0100
1000
0010
,
0010
0100
0001
1000
,
1000
0001
0010
0100
,
1000
0001
0010
0100
,
1000
0001
0100
0010
,
1000
0001
0100
0020
,
0000
1030
0001
1000
,
0100
1000
0001
0100
,
0001
0010
0001
1000
,
0010
1000
0001
0010
,
0010
0100
0010
0001
,
0100
0010
1000
0100
,
0100
1000
0010
0100
,
0001
1001
0000
0001
,
1000
0010
1000
0100
,
1000
0010
0100
0002
,
0013
0001
0100
0010
,
1000
0100
1000
0020
,
0130
0010
1000
0001
,
0010
0001
1000
0200
,
1300
0100
1000
0010
,
0100
1001
0000
0001
,
0100
0110
0000
0000
,
0000
1001
0000
0000
,
0000
0110
0000
0000
,
0000
1001
0000
0000
,
0000
0110
0000
0110
,
0000
1001
1001
1001
,
1001
0001
0100
0010
,
1000
0000
0010
0000
0000
0100
0000
0100
,
0000
0010
1000
0100
,
1000
0000
0001
0000
0000
1000
0000
1000
,
0000
0100
1000
0010
,
0100
0000
0001
0000
0000
0010
0000
0010
,
0000
0100
0010
0001
,
1000
1001
0110
1001
,
0110
0001
0001
1000
,
1000
0000
0001
0000
0000
1000
0000
1000
,
0000
0100
1000
0010
,
0010
0100
0100
0100
,
0000
0010
0100
0001
,
0001
0000
1000
0000
0000
0100
0000
0100
,
0000
1000
1000
0001
,
0001
1000
1000
1000
,
0000
0001
1000
0001
,
0000
0000
0000
0100
,
0100
0001
1000
0001
,
0000
0000
0000
0010
,
0010
0001
1000
0001
,
0000
0000
0000
0100
,
0100
0001
0000
1000
,
0000
0001
1000
0001
,
1000
0001
1000
0001
,
0000
0000
0000
0100
,
0100
0001
1000
0001
,
0000
0000
0000
0010
,
0010
0001
1000
0001
,
0000
0000
0000
0100
,
0100
0001
0000
1000
,
0000
0001
1000
0001
,
1000
0001
1000
0001
,
0000
0000
0000
0100
,
0100
0001
1000
0001
,
0000
0000
0000
0010
,
0010
0001
1000
0001
,
0000
0000
0000
0100
,
0100
0001
0000
1000
,
0000
0001
1000
0001
,
1000
0001
1000
0001
,
0000
0000
0000
0100
,
0100
0001
1000
0001
,
0000
0000
0000
0010
,
0010
0001
1000
0001
,
0000
0000
0000
0100
,
0100
1001
0000
0110
,
0000
1001
0000
0110
,
0000
0001
1000
0001
,
1000
0001
0010
0100
;

//---------------dance-single - ----------------
#NOTEDATA:;
#CHARTNAME:;
#STEPSTYPE:dance-single;
#DESCRIPTION:;
#CHARTSTYLE:;
#DIFFICULTY:Beginner;
#METER:3;
#RADARVALUES:0.180702,0.394246,0.066575,0.000000,0.000000,152.000000,144.000000,8.000000,0.000000,0.000000,0.000000,0.000000,0.000000,0.000000,0.180702,0.394246,0.066575,0.000000,0.000000,152.000000,144.000000,8.000000,0.000000,0.000000,0.000000,0.000000,0.000000,0.000000;
#CREDIT:;
#NOTES:
// measure 0
0000
0000
0000
0000
,  // measure 1
0000
0000
0000
0000
,  // measure 2
0000
0000
0000
0000
,  // measure 3
0000
0000
0000
0000
,  // measure 4
0000
0000
0000
0000
,  // measure 5
0000
0000
0000
0000
,  // measure 6
0000
0000
0000
0000
,  // measure 7
0000
0010
0000
0000
,  // measure 8
0000
0010
0000
0000
,  // measure 9
0000
1000
0000
0000
,  // measure 10
0000
0001
0000
0000
,  // measure 11
0000
0100
0000
0000
,  // measure 12
0000
0100
0000
0000
,  // measure 13
0000
0010
0000
0000
,  // measure 14
0000
1000
0000
0000
,  // measure 15
0000
1001
0000
0000
,  // measure 16
0000
0001
0000
0000
,  // measure 17
0000
0010
0000
0010
,  // measure 18
0000
0100
0000
0100
,  // measure 19
0000
1001
0000
0000
,  // measure 20
0000
1000
0000
0000
,  // measure 21
0000
0001
0000
0001
,  // measure 22
0000
1000
0000
0010
,  // measure 23
0010
0100
0000
0000
,  // measure 24
0000
0010
0000
1000
,  // measure 25
1000
0001
0000
0000
,  // measure 26
0000
1000
0000
0010
,  // measure 27
0010
0100
0000
0000
,  // measure 28
0000
0010
0000
1000
,  // measure 29
1000
0001
0000
1000
,  // measure 30
0000
1001
0000
0000
,  // measure 31
0000
0010
0000
0010
,  // measure 32
0000
0010
0000
0010
,  // measure 33
0000
0100
0000
0100
,  // measure 34
0000
0100
0000
0100
,  // measure 35
0000
1001
0000
1000
,  // measure 36
0000
1000
0000
1000
,  // measure 37
0000
0001
0000
0001
,  // measure 38
0000
1001
0000
0010
,  // measure 39
0010
1001
0000
0000
,  // measure 40
0000
0010
0000
0000
,  // measure 41
0000
0100
0000
0000
,  // measure 42
0000
0010
0000
0000
,  // measure 43
0000
1000
0000
0001
,  // measure 44
0000
1000
0001
1000
,  // measure 45
0001
1000
0000
1000
,  // measure 46
0000
1000
0000
0000
,  // measure 47
0000
0001
0000
0001
,  // measure 48
0000
0001
0000
0000
,  // measure 49
0000
0100
0000
0100
,  // measure 50
0000
0100
0000
0000
,  // measure 51
0000
0010
0000
0010
,  // measure 52
0000
0010
1001
0100
,  // measure 53
1001
1000
1000
1000
,  // measure 54
0000
0000
0000
0000
,  // measure 55
0000
0001
0001
0001
,  // measure 56
0000
1000
0000
1000
,  // measure 57
0000
0010
0010
0010
,  // measure 58
0000
0000
0000
0000
,  // measure 59
0000
0100
0100
0100
,  // measure 60
0000
0010
0010
0010
,  // measure 61
0000
1000
0000
0000
,  // measure 62
0000
0000
0000
0001
,  // measure 63
0000
1000
0000
0000
,  // measure 64
0000
0000
0000
0001
,  // measure 65
0000
1000
0000
0000
,  // measure 66
0000
0000
0000
0001
,  // measure 67
0000
0100
0000
0100
,  // measure 68
0000
0010
0010
0010
,  // measure 69
0000
1000
0000
0001
,  // measure 70
0000
0000
0000
0000
,  // measure 71
0000
1000
0000
0001
,  // measure 72
0000
0000
0000
0000
,  // measure 73
0000
1000
0000
0001
,  // measure 74
0000
0000
0000
1000
,  // measure 75
0000
0010
0000
0100
,  // measure 76
0000
0010
0010
0010
,  // measure 77
0000
1000
0000
0001
,  // measure 78
0000
0000
0000
0000
,  // measure 79
0000
0001
0000
1000
,  // measure 80
0000
0000
0000
0000
,  // measure 81
0000
1000
0000
0001
,  // measure 82
0000
0000
0000
0000
,  // measure 83
0000
0001
0000
1000
,  // measure 84
0000
0010
0010
0010
,  // measure 85
0000
0100
0000
0010
,  // measure 86
0000
0000
0000
0000
,  // measure 87
0000
1000
0000
0001
,  // measure 88
0000
0000
0000
0000
,  // measure 89
0000
0010
0000
0100
,  // measure 90
0000
0000
0000
0000
,  // measure 91
0000
1000
0000
1000
,  // measure 92
0000
0001
0000
0001
,  // measure 93
0000
0100
0000
0100
,  // measure 94
0000
0010
0010
0010
;
