#TITLE:Vice Love;
#SUBTITLE:;
#ARTIST:Andy Fink;
#TITLETRANSLIT:;
#SUBTITLETRANSLIT:;
#ARTISTTRANSLIT:;
#GENRE:;
#CREDIT:;
#BANNER:Vice Love.png;
#BACKGROUND:Vice Love-bg.png;
#LYRICSPATH:;
#CDTITLE:cdtitle.png;
#MUSIC:Vice Love.ogg;
#OFFSET:-6.456001;
#SAMPLESTART:12.840000;
#SAMPLELENGTH:12.000000;
#SELECTABLE:YES;
#BPMS:0.000000=75.000000
;
#STOPS:
;
#BGCHANGES:;
#KEYSOUNDS:;
#ATTACKS:;

//---------------dance-single - ----------------
#NOTES:
     dance-single:
     :
     Medium:
     6:
     0.314841,0.344169,0.143404,0.135856,0.245296,255.000000,19.000000,18.000000,0.000000,0.000000,0.000000,0.314841,0.344169,0.143404,0.135856,0.245296,255.000000,19.000000,18.000000,0.000000,0.000000,0.000000:
// measure 0
0000
0000
0000
0000
,  // measure 1
0000
0000
0000
0000
,  // measure 2
0001
0000
1000
0000
0010
0000
0100
0000
0001
1000
0000
0001
0010
0100
0010
0001
,  // measure 3
1000
0001
0101
0000
1010
0000
0101
0000
,  // measure 4
1001
0000
0001
0000
1000
0000
0000
0000
0001
0000
0100
0000
0010
0000
1000
0100
,  // measure 5
0010
0000
0100
0000
1000
0000
0000
0000
0001
0000
1000
0000
0010
0100
0001
0010
,  // measure 6
0100
0000
0010
0000
0001
0000
1000
0000
0010
0100
0000
0100
0010
1000
0001
0010
,  // measure 7
0100
0010
1001
0000
0101
0000
1010
0000
,  // measure 8
1100
0000
0100
0000
0010
0000
0001
0010
0000
0001
0000
0010
0001
0100
0010
1000
,  // measure 9
0100
0010
0000
0100
1000
0000
0010
0100
0000
0001
0000
1000
0100
0010
0001
1000
,  // measure 10
0001
1000
0000
0001
1000
0000
0000
0001
0000
0100
0000
0010
1000
0010
0000
0000
,  // measure 11
0010
0100
0000
0010
0100
0000
0100
0010
0000
1000
0000
0001
0010
0100
0000
0000
,  // measure 12
0100
0010
0000
0010
0001
0000
0001
1000
0000
1000
0000
1000
0001
0000
0000
0000
,  // measure 13
0001
0100
0000
0100
0010
0000
0010
1000
0000
1000
0000
1000
0001
0000
0000
0000
,  // measure 14
0001
0010
0100
1000
0001
0010
0100
1000
,  // measure 15
1000
0100
0010
0001
1000
0100
0010
0001
,  // measure 16
1000
0001
0100
0001
0010
0100
0010
0001
,  // measure 17
0100
0000
1000
0000
0100
0000
0010
0000
0000
1000
0010
0100
0001
0010
0100
0100
,  // measure 18
0020
0000
0000
0000
0001
0000
0000
0000
0130
0000
0010
0000
0001
0000
1000
0001
,  // measure 19
0200
0001
0010
1000
,  // measure 20
0320
0000
0000
0000
1000
0000
0000
0000
0100
0000
0000
0000
1030
0000
0100
0010
,  // measure 21
0002
0000
0000
0000
0010
0000
0000
0000
1003
0001
0000
0001
0100
1000
0100
0001
,  // measure 22
2000
0000
0100
0000
0010
0000
3001
0010
,  // measure 23
0200
0000
0000
0320
0000
0000
0032
0000
,  // measure 24
2003
0000
0001
0000
0100
0000
3010
1000
,  // measure 25
0002
0000
0000
0023
0000
0000
0000
0000
,  // measure 26
0130
0000
0010
0000
0001
0000
1000
0010
1000
0000
0100
0000
0010
0000
0001
1000
,  // measure 27
0010
0100
0101
0000
1010
0000
1001
0000
,  // measure 28
1100
0000
0100
0000
0010
0000
0001
0000
1000
0000
0001
0000
0100
0001
0010
0100
,  // measure 29
2000
0000
0000
3020
0000
0000
2030
0000
,  // measure 30
3001
0000
0100
0000
0001
0000
0010
0001
0010
0000
0001
0000
0100
0000
0010
1000
,  // measure 31
0010
0100
0110
0000
1001
0000
1100
0000
,  // measure 32
0120
0000
0000
0000
,  // measure 33
0032
0000
2003
0000
,  // measure 34
0200
0000
0000
0000
,  // measure 35
3300
0011
1100
1001
,  // measure 36
0001
0100
0010
1000
0001
0100
0010
1000
,  // measure 37
0001
0000
0010
0000
0100
0000
1000
0000
0100
1000
0000
0010
0100
0001
0001
1000
,  // measure 38
0010
0000
0000
0000
;

//---------------dance-single - ----------------
#NOTES:
     dance-single:
     :
     Easy:
     2:
     0.146638,0.143404,0.022643,0.120761,0.000000,117.000000,3.000000,16.000000,0.000000,0.000000,0.000000,0.146638,0.143404,0.022643,0.120761,0.000000,117.000000,3.000000,16.000000,0.000000,0.000000,0.000000:
0001
1000
0100
0000
,
1000
0001
0100
0000
,
0010
1000
0001
0100
,
0001
1000
0100
0010
,
0100
0000
0000
0000
,
0010
0001
1000
0001
,
0100
0001
0000
1000
,
0100
1000
0010
0001
,
0010
0100
0000
0010
,
1000
0000
0001
0100
,
0002
0000
0000
0003
,
2000
0001
0100
0010
,
3002
0000
0000
0003
,
0200
0000
0000
0300
,
0010
0010
0100
0100
,
0001
0001
1000
1000
,
0001
0010
0100
1000
,
1000
0100
0010
0001
,
1001
0000
0001
0000
0100
0000
0001
1000
,
0100
1000
0010
0001
,
0010
0000
0100
0000
0001
0000
1000
0001
,
0100
0001
1000
0100
,
0110
0000
0010
0000
0001
0000
1000
0100
,
0010
0000
0000
0100
0000
0000
1000
0000
,
0001
0000
0100
0000
0001
0000
1000
0100
,
0010
0000
0000
0001
0000
0000
0000
0000
,
0200
0000
0000
0000
0000
0000
0000
0310
,
2000
0001
0001
0001
,
3002
0000
0000
0000
0000
0000
0103
0010
,
2000
0000
0000
3020
0000
0000
2030
0000
,
0002
0000
0000
0000
0000
0000
0000
3003
,
0002
0000
0000
0000
0000
0000
0000
0003
,
2000
0000
0000
0000
0000
0000
0000
3000
,
0002
0000
0203
0000
,
0302
0000
0000
0000
,
0003
1000
0100
0010
,
0001
0000
0000
0000
1000
0000
0000
0010
,
0100
0010
0001
1000
,
0110
0000
0000
0000
;

//---------------dance-single - ----------------
#NOTES:
     dance-single:
     :
     Hard:
     8:
     0.462558,0.458892,0.000000,0.060381,0.901934,421.000000,0.000000,8.000000,0.000000,0.000000,0.000000,0.462558,0.458892,0.000000,0.060381,0.901934,421.000000,0.000000,8.000000,0.000000,0.000000,0.000000:
0000
0000
0000
0000
,
0000
0000
0000
0000
,
1000
0100
0000
0010
0100
1000
0001
1000
0000
0010
0000
0100
0001
0001
1000
0010
,
0100
0001
0000
0001
0010
0000
0010
0100
1000
0000
1000
0010
0100
0000
0010
1000
,
0001
1000
0000
1000
0010
0100
0001
0010
0000
0100
0000
0010
0001
0010
0000
0100
,
1000
0010
0000
0100
0001
0100
0010
1000
0000
0001
0000
1000
1000
0100
0000
0100
,
0010
0100
0000
0010
0001
1000
0010
0100
0000
0001
0000
0100
0010
1000
0000
1000
,
0001
0010
0000
0100
0010
0000
0001
0010
0001
0000
0010
0100
0010
0000
0100
1000
,
0100
0100
0000
0010
0001
0001
1000
0010
0000
0100
0000
0010
1000
0010
0000
1000
,
0001
0001
0000
0010
0100
0010
0001
1000
0000
0010
0000
0100
0001
0010
0100
1000
,
0001
0100
0000
0010
1000
0001
0010
0100
0000
0100
0000
0100
0010
0001
0000
0001
,
1000
0010
0000
0100
0001
1000
0010
0100
0000
0100
0000
0100
0010
1000
0000
0001
,
0010
0100
0000
0100
0010
0001
1000
0010
0000
0010
0000
0010
0100
0001
0000
1000
,
0001
0100
0000
0001
0100
0010
1000
0010
0000
0010
0000
0010
0100
0001
0000
1000
,
0001
0001
0000
1000
0001
0001
1000
0001
0000
1000
0000
0001
1000
1000
0000
0001
,
0100
0010
0000
0100
0010
0010
0100
0010
0000
0100
0000
0010
0100
0100
0000
0010
,
1000
0100
0000
0100
0010
0010
0100
0010
0000
0100
0000
0010
0100
0100
0000
0100
,
0010
0001
0000
1000
0001
0001
1000
0001
0000
1000
1000
0010
0010
0100
0100
0001
,
1000
0100
0000
0010
0001
0010
0100
0010
0000
0100
0000
0010
0001
1000
0010
0100
,
0001
1000
0000
0001
0100
0010
1000
0100
0000
0010
0000
0100
0010
0001
0001
1000
,
0010
0100
0000
0001
0100
0010
1000
0100
0000
0010
0000
0100
1000
0010
0100
0001
,
1000
0100
0000
0100
0010
0001
0010
0100
0000
0010
0000
0001
0010
0100
1000
0001
,
0010
0100
0000
0010
0001
0000
0100
0010
0000
1000
0000
0001
0100
0001
0100
0010
,
1000
0010
0000
0100
0010
0000
0100
0000
0000
0010
1000
0001
0010
0100
0010
0001
,
1000
0010
0000
1000
0001
0010
0100
0010
0000
0001
0000
1000
0001
1000
0001
0100
,
0001
1000
0000
0100
1000
0010
0100
0001
0000
1000
0000
0010
0100
0001
1000
0100
,
1000
0100
0010
0001
0010
0100
0010
0001
1000
0010
0100
0001
1000
0010
0100
0001
,
2000
0100
0010
3001
,
1000
0010
0100
0010
0100
0010
1000
0001
0010
0100
0010
0001
1000
0010
0100
0001
,
0200
0000
0310
1000
0001
0010
0200
0000
0310
0001
1000
0010
0200
0000
0310
1000
,
0001
1000
0100
0010
0100
1000
0100
0010
0001
0010
0100
0010
0001
1000
0010
0100
,
0002
0100
0010
1000
,
0103
0010
1000
0010
0100
0010
1000
0010
0100
0001
0010
0100
0010
0001
0010
0100
,
0020
0000
0230
0000
,
2000
0000
0000
0000
,
0000
0000
3300
0000
1000
0000
0100
0010
0001
0000
0001
0010
0100
0000
0100
1000
,
0010
0100
0000
0100
0001
0100
0010
1000
0000
0010
0000
0100
0001
0100
0000
0100
,
0010
1000
0000
0001
0010
0100
0010
0001
0000
1000
0000
0010
0100
0001
0010
0100
,
1000
0000
0000
0000
;

//---------------dance-single - ----------------
#NOTES:
     dance-single:
     :
     Beginner:
     1:
     0.076554,0.086042,0.015095,0.083023,0.000000,58.000000,2.000000,11.000000,0.000000,0.000000,0.000000,0.076554,0.086042,0.015095,0.083023,0.000000,58.000000,2.000000,11.000000,0.000000,0.000000,0.000000:
0000
0000
0000
0000
,
0000
0000
0000
0000
,
0001
0000
0000
0000
,
0000
1000
0001
0100
,
0001
0000
0000
0000
,
1000
0000
0000
0000
,
1001
0000
0000
0000
,
0000
0001
1000
0001
,
0100
0000
0000
0000
,
0010
0000
0000
0000
,
0100
0000
0000
0000
,
0100
0000
0000
0000
,
0001
0000
0000
0000
,
1000
0000
0000
0000
,
0010
0000
0000
0000
,
1000
0001
0010
0100
,
1000
0000
0000
0000
,
0001
0000
0000
0000
,
2000
0000
0000
0000
,
3000
0001
1000
0001
,
0020
0000
0000
0030
,
0100
0000
0000
0010
,
0002
0000
0000
0003
,
1000
0000
0010
0000
,
0100
0000
0000
0010
,
1000
0000
0001
0000
,
0020
0000
0030
0000
,
0100
0010
0001
1000
,
0020
0000
0030
0100
,
0010
0000
0000
1000
,
0020
0000
0000
0030
,
0200
0000
0000
0300
,
0020
0000
0000
0030
,
0200
0300
0020
0030
,
2000
0000
0000
0000
,
3000
0001
1000
0001
,
0100
0000
0000
0000
,
0010
0000
0000
0000
,
0110
0000
0000
0000
;
