#VERSION:0.82;
#TITLE:Verflucht;
#SUBTITLE:;
#ARTIST:Tyrfing;
#TITLETRANSLIT:;
#SUBTITLETRANSLIT:;
#ARTISTTRANSLIT:;
#GENRE:;
#ORIGIN:;
#CREDIT:;
#BANNER:Verflucht.png;
#BACKGROUND:Verflucht-bg.png;
#PREVIEWVID:;
#JACKET:Verflucht-jacket.png;
#CDIMAGE:;
#DISCIMAGE:1573109.jpg;
#LYRICSPATH:;
#CDTITLE:;
#MUSIC:06. Verflucht.mp3;
#OFFSET:-0.550000;
#SAMPLESTART:88.530006;
#SAMPLELENGTH:10.666664;
#SELECTABLE:YES;
#BPMS:0.000=180.000;
#STOPS:260.000=0.042,
260.125=0.042,
260.250=0.042,
260.375=0.042,
260.500=0.042,
260.625=0.042,
260.750=0.042,
260.875=0.042,
261.000=0.042,
261.125=0.042,
261.250=0.042,
261.375=0.042,
261.500=0.042,
261.625=0.042,
261.750=0.042,
261.875=0.042;
#DELAYS:;
#WARPS:;
#TIMESIGNATURES:0.000=4=4;
#TICKCOUNTS:0.000=4;
#COMBOS:0.000=1;
#SPEEDS:0.000=1.000=0.000=0;
#SCROLLS:0.000=1.000;
#FAKES:;
#LABELS:0.000=Song Start;
#BGCHANGES:;
#KEYSOUNDS:;
#ATTACKS:
;

//---------------dance-single - ----------------
#NOTEDATA:;
#CHARTNAME:;
#STEPSTYPE:dance-single;
#DESCRIPTION:;
#CHARTSTYLE:;
#DIFFICULTY:Hard;
#METER:11;
#RADARVALUES:0.885069,1.000000,0.025959,0.077876,0.873944,704.000000,3.000000,9.000000,0.000000,0.000000,0.000000,0.000000,0.000000,0.885069,1.000000,0.025959,0.077876,0.873944,704.000000,3.000000,9.000000,0.000000,0.000000,0.000000,0.000000,0.000000;
#CREDIT:;
#NOTES:
// measure 0
0000
0000
0000
0000
,  // measure 1
0000
0000
0000
0000
,  // measure 2
0001
1000
0100
1000
0001
0100
0010
0000
,  // measure 3
1000
0001
0100
0001
1000
0001
0010
0000
,  // measure 4
0100
0010
0001
0100
1000
0100
0010
0000
,  // measure 5
0010
0100
1000
0100
0001
0010
0100
1000
,  // measure 6
0001
0001
1000
0010
0010
0100
0001
0000
,  // measure 7
1000
1000
0010
0100
0100
0010
1000
0000
,  // measure 8
0001
1000
0100
0010
0001
0010
0100
0000
,  // measure 9
1000
0000
0100
0000
0010
0000
0001
0000
1000
0001
1000
0001
1000
0000
0000
0000
,  // measure 10
0001
0000
1000
0000
0000
0100
0000
0000
0010
0000
0000
0001
0000
0000
1000
0000
,  // measure 11
0010
0000
0100
0000
0000
0010
0000
0000
1000
0000
0000
0001
0000
0000
0010
0000
,  // measure 12
0100
0000
1000
0000
0000
0100
0000
0000
0010
0000
0000
0001
0000
0000
1000
0000
,  // measure 13
0001
0000
0100
0000
0000
0010
0000
0000
1000
0000
0000
0001
0000
0000
0010
0000
,  // measure 14
0100
0000
0010
0000
0000
0001
0000
0000
0010
0000
0000
1000
0000
0000
0010
0000
,  // measure 15
0100
0000
1000
0000
0000
0100
0000
0000
0001
0000
0000
0100
0000
0000
0010
0000
,  // measure 16
0001
0100
1000
0100
0010
1000
0010
0100
,  // measure 17
0001
1000
0001
1000
0001
1000
0001
1000
0001
1000
0001
1000
0001
1000
0001
1000
,  // measure 18
0001
1000
0001
0100
,  // measure 19
0001
1000
0020
0000
,  // measure 20
1030
0001
0100
0001
,  // measure 21
1000
0100
0010
0001
,  // measure 22
1000
0001
0100
0001
,  // measure 23
1000
0001
0020
0000
,  // measure 24
0031
0100
0010
1000
,  // measure 25
0010
0100
2002
3003
,  // measure 26
0001
0100
0001
0100
0001
0100
0001
0100
0001
0100
0001
0100
0001
0000
0001
1000
,  // measure 27
0010
1000
0010
1000
0010
1000
0010
1000
0010
0000
0000
0000
1000
0000
0001
1000
,  // measure 28
0100
1000
0100
1000
0100
1000
0100
1000
0100
1000
0100
1000
0100
0000
1000
0001
,  // measure 29
0010
0100
0010
0100
0010
0100
0010
0100
0010
0000
0010
0001
1000
0001
1000
0001
,  // measure 30
1000
0010
1000
0010
1000
0010
1000
0010
1000
0010
1000
0010
1000
0000
1000
0001
,  // measure 31
0100
0001
0100
0001
0100
0001
0100
0001
0100
0000
0000
0000
0001
0000
1000
0001
,  // measure 32
0010
0001
0010
0001
0010
0001
0010
0001
0010
0001
0010
0001
0010
0000
0001
1000
,  // measure 33
0100
1000
0100
0000
0010
0001
0000
0001
0010
0000
0010
0100
2000
0000
0000
0000
,  // measure 34
3001
1000
0001
0010
0100
1000
0100
0010
,  // measure 35
0100
1000
0001
1000
0100
0010
0001
0100
,  // measure 36
0010
0100
1000
0100
0010
0100
0001
1000
,  // measure 37
0001
0100
0010
1000
0001
0010
1000
0010
,  // measure 38
0001
0010
0001
0100
0001
0010
0100
1000
,  // measure 39
0010
0100
0001
1000
0010
1000
0001
1000
,  // measure 40
0100
1000
0001
0010
0100
1000
0001
1000
,  // measure 41
0010
0000
0100
0000
0010
1000
0000
0100
0001
0000
0001
0010
0200
0000
2300
0000
,  // measure 42
3001
0000
0100
0000
0010
0000
1000
0000
0001
0000
0010
0000
0100
1000
0010
0100
,  // measure 43
0001
0000
1000
0000
0100
0000
0010
0000
0001
0100
0001
0000
0001
1000
0001
1000
,  // measure 44
0001
0000
0010
0000
0100
0000
1000
0000
0010
0000
0100
0000
0010
1000
0010
1000
,  // measure 45
0001
0000
0010
0000
0100
0000
1000
0000
0100
1000
0100
0000
0100
1000
0100
0010
,  // measure 46
0001
0000
0100
0000
0010
0000
1000
0000
0001
0000
0010
0000
0100
1000
0010
0100
,  // measure 47
0001
0000
1000
0000
0100
0000
0010
0000
0001
0100
0001
0000
0001
1000
0001
1000
,  // measure 48
0001
0000
0010
0000
0100
0000
1000
0000
0010
1000
0010
1000
0010
1000
0010
1000
,  // measure 49
0001
0100
0010
1000
0001
0100
0010
1000
0001
0010
0100
1000
0001
0010
0100
1000
,  // measure 50
0001
1000
0100
1000
,  // measure 51
0001
0100
0001
1000
,  // measure 52
0001
1000
0010
1000
,  // measure 53
0001
0010
0001
1000
,  // measure 54
0001
0100
1000
0100
,  // measure 55
0001
0010
1000
0010
,  // measure 56
0001
1000
0100
0010
,  // measure 57
0001
1000
0010
1001
,  // measure 58
1000
0010
1000
0010
1000
0010
1000
0010
1000
0010
1000
0010
1000
0000
1000
0001
,  // measure 59
0100
0001
0100
0001
0100
0001
0100
0001
0100
0000
0000
0000
0001
0000
1000
0001
,  // measure 60
0010
0001
0010
0001
0010
0001
0010
0001
0010
0001
0010
0001
0010
0000
0001
1000
,  // measure 61
0100
0010
0100
0010
0100
0010
0100
0010
0100
0000
0100
1000
0001
1000
0001
1000
,  // measure 62
0001
0100
0001
0100
0001
0100
0001
0100
0001
0100
0001
0100
0001
0000
0001
1000
,  // measure 63
0010
1000
0010
1000
0010
1000
0010
1000
0010
0000
0000
0000
1000
0000
0001
1000
,  // measure 64
0100
1000
0100
1000
0100
1000
0100
1000
0100
1000
0100
1000
0100
0000
1000
0001
,  // measure 65
1000
0100
1000
0100
0010
0100
0010
0100
0010
0001
0010
0001
0010
0100
1000
0001
1000
0000
0001
0000
0000
0000
0000
0000
1000
0000
0000
0000
0100
0000
0000
0000
,  // measure 66
1000
0000
0000
0010
0000
0000
0100
0000
0001
0000
0100
0000
0010
0000
1000
0000
,  // measure 67
0001
0010
0000
0100
0000
0000
0010
0000
0001
1000
0000
0000
0001
0000
1000
0000
,  // measure 68
0100
0000
0000
0010
0000
0000
0100
0000
1000
0001
0000
0000
1000
0000
0001
0000
,  // measure 69
0010
0100
0000
0010
0000
0000
0001
0000
1000
0010
0000
0000
0100
0000
0001
0000
,  // measure 70
1000
0100
0000
1000
0000
0000
0001
0000
0100
0000
0001
0000
0100
0000
0010
0000
,  // measure 71
1000
0000
0000
0001
0000
0000
0010
0000
0100
1000
0000
0000
0100
0000
0010
0000
,  // measure 72
0001
1000
0000
0001
0000
0000
0100
0000
0001
0000
1000
0000
0001
0000
1000
0000
,  // measure 73
0010
0100
0010
0100
0020
0000
2030
0000
3001
1000
0000
0000
0001
0000
0010
0000
,  // measure 74
0001
0000
0000
0100
0000
0000
0010
0000
1000
0000
0010
0000
0100
0000
0001
0000
,  // measure 75
1000
0100
0000
0010
0000
0000
0100
0000
1000
0001
0000
0000
1000
0000
0001
0000
,  // measure 76
0010
0000
0000
0100
0000
0000
0010
0000
0001
1000
0000
0000
0001
0000
1000
0000
,  // measure 77
0100
0010
0000
0100
0000
0000
1000
0000
0001
0000
1000
0000
0010
0000
0100
0000
,  // measure 78
0001
0100
0001
0100
0001
0000
0100
0000
0010
0000
0010
0000
1000
0000
1000
0000
,  // measure 79
0100
0010
0100
0010
0100
0000
0010
0000
0001
1000
0001
1000
0001
1000
0001
1000
,  // measure 80
0001
1000
0001
1000
0001
0000
1000
0001
0100
0001
0100
0001
0100
0010
0100
0010
,  // measure 81
0100
0000
0010
0100
0010
1000
0001
0000
1001
0000
0000
0000
0000
0000
0000
0000
;

//---------------dance-single - ----------------
#NOTEDATA:;
#CHARTNAME:;
#STEPSTYPE:dance-single;
#DESCRIPTION:;
#CHARTSTYLE:;
#DIFFICULTY:Medium;
#METER:8;
#RADARVALUES:0.592107,0.564170,0.147100,0.328811,0.051917,424.000000,17.000000,38.000000,0.000000,0.000000,0.000000,0.000000,0.000000,0.592107,0.564170,0.147100,0.328811,0.051917,424.000000,17.000000,38.000000,0.000000,0.000000,0.000000,0.000000,0.000000;
#CREDIT:;
#NOTES:
0000
0000
0000
0000
,
0000
0000
0000
0000
,
0001
0000
1000
0000
0010
1000
0010
0000
,
0100
0000
0001
0000
0010
0100
0010
0000
,
0100
0000
1000
0000
0100
1000
0100
0000
,
1000
0000
0010
0000
0100
0010
1000
0000
,
0001
0000
0010
0000
0100
0010
0100
0000
,
0010
0000
0001
0000
1000
0001
1000
0000
,
0001
0000
0100
0000
0010
0100
0010
0000
,
0100
0010
1000
0001
0100
0010
1000
0000
,
0002
0100
0100
0103
,
0200
0010
0010
0310
,
0020
0100
0100
0130
,
0200
0001
0001
0301
,
0002
1000
1000
1003
,
2000
0100
0100
3100
,
0100
0010
0001
0010
,
0001
0010
0100
1000
0100
0010
0001
1000
,
1002
1000
1000
1000
,
1000
1000
2000
3003
,
0001
0000
0000
1000
0001
0000
1000
0001
,
0000
1000
0001
0000
1000
0000
0001
0000
,
2001
0001
0001
0001
,
0001
0001
0002
3003
,
0001
0000
0000
0100
0010
0000
0100
0010
,
0000
0100
0010
0000
2002
0000
3003
0000
,
1000
0010
1000
0010
1000
0010
1000
0010
,
0100
0010
0100
0010
0100
0000
0001
0100
,
0010
0100
0010
0100
0010
0100
0010
1000
,
0010
1000
0010
1000
0010
1000
0001
0100
,
0010
1000
0010
1000
0010
1000
0010
1000
,
0001
1000
0001
1000
0001
0000
1000
0100
,
0010
0100
0010
0100
0010
0100
0010
0100
,
0020
0032
0023
0230
,
0310
0011
0010
0110
,
0100
1100
0100
0110
,
0010
0011
0010
0110
,
0100
0000
1100
0000
1000
0100
0010
0001
,
0010
0110
0100
1100
,
1000
1001
0001
0101
,
0100
0110
0010
1010
,
0020
0230
0302
2003
,
3001
1000
0010
0000
1000
0001
0100
0000
,
0001
0010
0100
0000
1000
0100
0010
0100
,
1000
0100
0010
0000
0010
0001
0010
0000
,
0001
0010
0100
1000
0010
0100
0010
0100
,
0010
0100
0001
0000
0001
0100
0010
0000
,
0100
0010
1000
0000
0001
0100
0010
0100
,
0001
1000
0001
1000
0001
1000
0001
1000
,
0001
0100
0010
1000
0001
0100
0010
1000
,
0002
0000
2003
0000
,
3200
0000
2000
3300
,
0200
0000
0320
0000
,
0032
0000
2000
3003
,
0002
0000
2003
0000
,
3020
0000
0200
0330
,
0200
0000
0320
0000
,
2030
0000
0002
3003
,
0001
0100
0001
0100
0001
0100
0001
0100
,
0010
0100
0010
0100
0010
0000
0100
0010
,
1000
0001
1000
0001
1000
0001
1000
0100
,
1000
0100
1000
0100
1000
0100
0010
0001
,
0010
0001
0010
0001
0010
0001
0010
0001
,
1000
0001
1000
0001
1000
0000
0001
0100
,
0010
0100
0010
0100
0010
0100
0010
0100
,
0002
0000
0000
0000
0000
0000
0000
0000
1003
0000
0000
0100
0000
0000
1000
0000
,
0010
0000
0000
0100
0000
0000
0001
0000
1000
0000
0000
0000
1000
0000
0000
0000
,
1000
0000
0000
0000
1000
0000
0000
0000
0001
0000
0000
1000
0000
0000
0010
0000
,
1000
0000
0000
0001
0000
0000
0100
0000
0010
0000
0000
0000
0010
0000
0000
0000
,
0010
0000
0000
0000
0010
0000
0000
0000
0100
0000
0000
0001
0000
0000
0100
0000
,
0010
0000
0000
1000
0000
0000
0100
0000
0010
0000
0000
0000
0010
0000
0000
0000
,
0010
0000
0000
0000
0010
0000
0000
0000
0001
0000
0000
0010
0000
0000
0100
0000
,
0010
0000
0000
0001
0000
0000
1000
0000
0001
0000
0100
0000
0010
0000
1000
0000
,
0001
0000
0100
0000
0002
0000
0000
0000
1003
0000
0000
0001
0000
0000
0100
0000
,
0010
0000
0000
1000
0000
0000
0010
0000
0100
0000
0000
0000
0100
0000
0000
0000
,
0010
0000
0000
0000
0010
0000
0000
0000
0100
0000
0000
0001
0000
0000
0100
0000
,
0010
0000
0000
1000
0000
0000
0100
0000
0010
0000
0000
0000
0010
0000
0000
0000
,
0100
0000
0100
0000
1000
0100
1000
0100
,
1000
0100
0010
0100
0010
0001
0010
0001
,
0010
0100
0010
0100
1000
0100
0010
0001
,
1000
0100
0010
0001
0010
0100
1000
0100
,
0010
0001
0010
0100
1001
0000
0000
0000
;

//---------------dance-single - ----------------
#NOTEDATA:;
#CHARTNAME:;
#STEPSTYPE:dance-single;
#DESCRIPTION:;
#CHARTSTYLE:;
#DIFFICULTY:Easy;
#METER:6;
#RADARVALUES:0.487035,0.599431,0.718192,0.155752,0.000000,293.000000,83.000000,18.000000,0.000000,0.000000,0.000000,0.000000,0.000000,0.487035,0.599431,0.718192,0.155752,0.000000,293.000000,83.000000,18.000000,0.000000,0.000000,0.000000,0.000000,0.000000;
#CREDIT:;
#NOTES:
0000
0000
0000
0000
,
0000
0000
0000
0000
,
0001
1000
0010
0010
,
1000
0001
0010
0010
,
0001
1000
0010
0010
,
1000
0001
0010
0010
,
0001
1000
0100
0100
,
1000
0001
0100
0100
,
0001
1000
0100
0100
,
1000
0100
0010
0001
,
1000
0010
0001
0010
,
0100
1000
0100
0001
,
0100
0010
0001
0010
,
0100
1000
0100
0001
,
0100
0010
1000
0001
,
0010
1000
0010
0001
,
0010
0100
1000
0100
,
0010
0100
1000
0001
,
1000
0001
0100
0001
,
1000
0010
2002
3003
,
0001
0000
0000
0000
1000
0000
0000
0001
,
0000
0100
0010
1000
,
0100
0100
0100
0100
,
0100
0100
0220
0330
,
0010
0000
0000
0000
0001
0000
0000
0010
,
0000
0100
1000
0000
,
1001
1001
1001
1001
,
1001
1001
1001
0000
,
0110
0110
0110
0110
,
0110
0110
1001
0110
,
0101
0101
0101
0101
,
0101
0101
0101
0000
,
1010
1010
1010
1010
,
1020
2030
3002
2003
,
3001
0100
1000
0100
,
0010
1000
0001
0010
,
0100
0010
0001
0100
,
0010
1000
0001
0001
,
1000
0100
0010
0100
,
1000
0001
0100
0001
,
1000
0100
0010
0001
,
1000
0001
0100
0010
,
1000
1000
0010
0010
,
0100
0100
0001
0101
,
0001
0001
0100
0100
,
0010
0010
0110
1001
,
1000
1000
0001
0001
,
0010
0010
0100
0110
,
0100
0100
1000
1000
,
0100
0010
0011
1100
,
0002
0000
1000
0000
,
2000
0000
0000
3003
,
2000
0000
0001
0000
,
0002
0000
0000
3003
,
0002
0000
0100
0000
,
0200
0000
0000
0303
,
0200
0000
0010
0000
,
0020
0000
0000
0330
,
0110
0110
0110
0110
,
0110
0110
0110
0000
,
1001
1001
1001
1001
,
1001
1001
1001
0110
,
1001
1001
1001
1001
,
1001
1001
1001
0000
,
0101
0101
0101
0101
,
2002
0000
0000
3003
1001
0000
0001
0000
,
1001
1000
1001
0001
,
0100
0010
1010
0010
,
0110
0100
0101
0001
,
1000
0100
0110
0010
,
0011
0010
0110
0100
,
1000
0100
0110
0010
,
0011
0001
1001
0001
,
0100
0010
1010
0010
,
1010
1000
1010
0010
,
1010
1000
0011
0010
,
0011
0001
0011
0010
,
0011
0001
1000
0001
,
0100
0001
0100
0000
0001
0000
0100
0000
,
0010
1000
0010
0000
0100
0000
0010
0000
,
1000
0000
0001
0000
1000
0100
0010
0001
,
1000
0100
0010
0001
1001
0000
0000
0000
;

//---------------dance-single - ----------------
#NOTEDATA:;
#CHARTNAME:;
#STEPSTYPE:dance-single;
#DESCRIPTION:;
#CHARTSTYLE:;
#DIFFICULTY:Beginner;
#METER:2;
#RADARVALUES:0.210142,0.246824,0.112488,0.017306,0.000000,155.000000,13.000000,2.000000,0.000000,0.000000,0.000000,0.000000,0.000000,0.210142,0.246824,0.112488,0.017306,0.000000,155.000000,13.000000,2.000000,0.000000,0.000000,0.000000,0.000000,0.000000;
#CREDIT:;
#NOTES:
0000
0000
0000
0000
,
0000
0000
0000
0000
,
0001
0000
0001
0000
,
1000
0000
1000
0000
,
0001
0000
0001
0000
,
1000
0000
1000
0000
,
0010
0000
0010
0000
,
0100
0000
0100
0000
,
0010
0000
0100
0000
,
1001
0000
0000
0000
,
0001
0000
0000
0000
,
0100
0000
0000
0000
,
0001
0000
0000
0000
,
1000
0000
0001
0000
,
0010
0000
0000
0000
,
0100
0000
0000
0000
,
0010
0000
0001
0000
,
1000
0000
0001
0000
,
0100
0000
0000
0000
,
0000
0000
0020
0030
,
0100
0000
0000
0000
,
0000
0000
0000
0000
,
1000
0000
0001
0000
,
1000
0000
0020
0030
,
0100
0000
0000
0000
,
0100
0000
0000
0000
,
0010
0000
0010
0000
,
0010
0010
0010
0000
,
1000
0000
0001
0000
,
1000
0001
1000
0000
,
0001
0000
1000
0000
,
0010
0100
0010
0000
,
0100
0000
0001
0000
,
1001
0000
0110
0000
,
1001
0000
0001
0000
,
1000
0000
0001
0001
,
0001
0000
1000
0000
,
0001
0000
0100
0100
,
0100
0000
0010
0000
,
0100
0000
0001
0000
,
1000
0000
0001
0000
,
1001
0000
0000
0000
,
0010
0000
0010
0000
,
0010
0000
0010
0010
,
0100
0000
0100
0000
,
0100
0000
0110
0110
,
0100
0000
0001
0000
,
1000
0000
0001
0000
,
1000
0000
1000
0000
,
0001
0000
1000
1000
,
1001
0000
0000
0000
,
0001
0000
0000
0000
,
1000
0000
0000
0000
,
0100
0000
0000
0000
,
1000
0000
0000
0000
,
0010
0000
0000
0000
,
0100
0000
0000
0000
,
0001
0000
0000
0000
,
1000
0000
0001
0000
,
1000
0001
1000
0000
,
0010
0000
0100
0000
,
0010
0100
0010
0000
,
0100
0000
0001
0000
,
1000
0001
0100
0000
,
0001
0000
1000
0000
,
0010
0000
0100
0000
,
0010
0000
1000
1000
,
1000
0000
0010
0000
,
0100
0000
0001
0001
,
0001
0000
1000
0000
,
0001
0000
0100
0100
,
0100
0000
0001
0000
,
1000
0000
0010
0010
,
0010
0000
0110
0000
,
0100
0000
0010
0010
,
0010
0000
1001
0000
,
1000
0000
0001
0001
,
0001
0000
1001
0000
,
0000
0000
0110
0000
,
0000
0000
0100
0000
,
0010
0000
1000
1000
,
0001
0001
1001
0000
;
