#VERSION:0.83;
#TITLE:VOLT;
#SUBTITLE:;
#ARTIST:aran;
#TITLETRANSLIT:;
#SUBTITLETRANSLIT:;
#ARTISTTRANSLIT:;
#GENRE:;
#ORIGIN:;
#CREDIT:;
#BANNER:VOLT.png;
#BACKGROUND:VOLT-bg.png;
#PREVIEWVID:;
#JACKET:VOLT-jacket.png;
#CDIMAGE:;
#DISCIMAGE:;
#LYRICSPATH:;
#CDTITLE:;
#MUSIC:VOLT.ogg;
#OFFSET:-1.427000;
#SAMPLESTART:29.017624;
#SAMPLELENGTH:11.033848;
#SELECTABLE:YES;
#BPMS:0.000=174.010;
#STOPS:268.000=0.690;
#DELAYS:;
#WARPS:;
#TIMESIGNATURES:0.000=4=4;
#TICKCOUNTS:0.000=4;
#COMBOS:0.000=1;
#SPEEDS:0.000=1.000=0.000=0;
#SCROLLS:0.000=1.000;
#FAKES:;
#LABELS:0.000=Song Start;
#BGCHANGES:;
#KEYSOUNDS:;
#ATTACKS:
;

//---------------dance-single - ----------------
#NOTEDATA:;
#CHARTNAME:;
#STEPSTYPE:dance-single;
#DESCRIPTION:;
#CHARTSTYLE:;
#DIFFICULTY:Hard;
#METER:9;
#RADARVALUES:0.531292,0.831210,0.246874,0.230947,0.473839,467.000000,436.000000,31.000000,29.000000,0.000000,0.000000,5.000000,0.000000,0.000000,0.531292,0.831210,0.246874,0.230947,0.473839,467.000000,436.000000,31.000000,29.000000,0.000000,0.000000,5.000000,0.000000,0.000000;
#CREDIT:;
#NOTES:
0000
0000
0000
0000
,
0000
0000
0000
0000
,
0000
0000
0000
0000
,
0000
0000
0000
0000
,
0000
0000
0000
0000
,
0000
0000
0000
0000
,
0000
0000
0000
0000
,
0000
0000
0000
0000
,
1001
0001
0100
0010
,
0100
0000
0010
1000
0100
0000
0010
0000
,
0001
1000
0010
0100
,
0010
0000
0100
0001
0010
0000
0100
0000
,
0010
0001
0100
0010
,
1000
0000
0001
1000
0010
0000
0100
0000
,
0010
1000
0001
0100
,
0020
0000
1030
0100
0002
0000
0203
0000
,
0310
0001
0010
0001
0010
0001
0010
0000
,
0001
0100
0001
0100
0001
0100
0001
0000
,
1000
0010
1000
0010
0100
0001
0100
0001
,
2000
0000
0000
3000
,
1001
0011
0101
1001
,
1010
0000
1000
0010
0200
0000
0301
0000
,
1001
0011
0110
1100
,
1001
0000
1000
0010
0200
0000
0301
0000
,
0021
0000
0000
0031
0400
0000
0000
0000
,
0310
0000
0000
1000
0000
0000
0001
0000
1000
0000
0000
0000
0100
0000
0000
0000
,
2000
0000
0000
3100
0040
0000
0000
0000
,
0031
0000
0000
0010
0000
0000
0100
0000
1000
0000
0000
0000
0010
0000
0000
0000
,
0110
0101
0011
1100
,
1001
0000
1000
0010
0002
0000
0013
0000
,
0110
0101
1010
1100
,
1001
0000
1000
0100
0002
0000
0103
0000
,
2100
0000
0000
3001
0040
0000
0000
0000
,
0130
0000
0000
1000
0000
0000
0010
0000
0100
0000
0000
0000
0001
0000
0000
0000
,
2000
0000
0000
3001
0400
0000
0000
0000
,
0310
0000
1000
0010
0000
0100
0001
1000
0001
1000
0000
1000
,
0001
0000
0000
0010
0000
1000
0001
0000
0000
0100
0000
0001
,
0010
0001
0010
0001
0010
0001
0010
0000
0000
0100
0000
1000
,
0001
0000
0000
0010
0000
0001
1000
0000
0000
0100
0000
1000
,
0010
0100
0010
0100
0010
0100
0010
0000
0100
0001
0010
0100
,
1000
0000
0000
0100
0000
1000
0010
0000
0000
0100
0000
0001
,
0100
0000
0010
1000
0001
1000
0001
1000
0001
1000
0100
0010
,
0001
0100
1010
1000
,
0011
1100
0101
1010
,
0001
0100
0010
0100
0001
0010
0200
0000
1300
0020
0000
0130
,
0001
1000
0100
1000
0001
0100
0002
0000
0013
0200
0000
1300
,
0010
0100
0001
0100
0010
0100
0002
0000
1003
0020
0000
0130
,
0001
1000
0010
1000
0001
0010
0001
0000
0100
0000
0010
0000
,
1000
0010
0100
0001
0100
0010
2000
0000
3100
0020
0000
0031
,
0100
0010
1000
0001
0010
0100
0020
0000
0031
0200
0000
0310
,
1000
0001
0010
0100
1000
0010
0200
0000
0310
2000
0000
3100
,
0010
0001
0010
0100
0010
0001
2000
0000
3010
1000
0100
0010
,
0001
0000
0010
0100
,
1000
0010
1000
0001
,
0100
0000
0001
0010
,
0100
0010
0001
1000
,
0010
0000
0100
0001
,
0010
0001
0100
0001
,
1000
0000
0100
1000
,
0010
0100
0010
1000
,
1001
0001
0001
0001
,
0001
0001
0001
0001
,
1000
1000
1000
1000
,
1000
1000
1000
1000
,
0010
1000
0010
1000
0001
0100
0001
0100
,
0010
1000
0001
0100
0001
0010
0100
1000
,
0001
1000
0001
1000
0001
1000
0001
1000
0001
1000
0001
1000
0001
1000
0001
2000
,
0002
0000
0000
0000
3003
0000
0000
0000
1000
0000
0000
0010
0000
0000
1000
0000
,
0000
0010
0000
0000
0100
0000
0001
0000
0010
0000
0000
0100
0000
0000
0010
0000
,
0000
0001
0000
0000
0010
0000
0100
0000
1000
0000
0000
0100
0000
0000
1000
0000
,
0000
0010
0000
0000
0100
0000
0001
0000
0010
0000
0000
0100
0000
0000
1000
0000
,
0000
0010
0000
0000
0100
0000
0001
0000
1000
0000
0000
0100
0000
0000
1000
0000
,
0000
0010
0000
0000
0100
0000
0001
0000
1000
0000
0000
0001
0000
0000
1000
0000
,
0000
0000
0000
0100
0000
0000
0000
0000
0000
0000
0000
0000
1000
0000
0000
0000
0000
0000
0010
0000
0000
0000
0000
0000
0100
0000
0000
0000
0000
0000
0000
0000
0001
0000
0000
0000
0010
0000
0000
0000
0000
0000
0000
0000
0010
0000
0000
0000
,
0100
0000
0100
1000
0000
1000
0001
0000
0000
0100
0000
0000
,
1000
0000
0000
0000
1001
0000
0000
0000
1000
0000
0000
0010
0000
0000
0100
0000
,
0000
0001
0000
0000
0010
0000
0100
0000
1000
0000
0000
0010
0000
0000
0100
0000
,
0000
0001
0000
0000
0010
0000
0001
0000
0100
0000
0000
0001
0000
0000
1000
0000
,
0000
0100
0000
0000
0010
0000
0100
0000
1000
0000
0000
0001
0000
0000
0010
0000
,
0000
0100
0000
0000
0010
0000
0001
0000
1000
0000
0000
0001
0000
0000
1000
0000
,
0000
0100
0000
0000
0010
0000
0001
0000
0100
0000
0000
0001
0000
0000
0010
0000
,
0000
0100
0000
0000
0010
0000
0001
0000
2001
0000
0000
0000
0000
0000
0000
0000
,
0004
0000
0000
0000
0000
0000
3000
0000
0103
0000
0000
0010
0000
0000
1000
0000
,
0200
0000
0310
0000
;

//---------------dance-single - ----------------
#NOTEDATA:;
#CHARTNAME:;
#STEPSTYPE:dance-single;
#DESCRIPTION:;
#CHARTSTYLE:;
#DIFFICULTY:Medium;
#METER:6;
#RADARVALUES:0.411836,0.598471,0.414112,0.095564,0.023891,362.000000,310.000000,52.000000,12.000000,0.000000,0.000000,0.000000,0.000000,0.000000,0.411836,0.598471,0.414112,0.095564,0.023891,362.000000,310.000000,52.000000,12.000000,0.000000,0.000000,0.000000,0.000000,0.000000;
#CREDIT:;
#NOTES:
0000
0000
0000
0000
,
0000
0000
0000
0000
,
0000
0000
0000
0000
,
0000
0000
0000
0000
,
0000
0000
0000
0000
,
0000
0000
0000
0000
,
0000
0000
0000
0000
,
0000
0000
0000
0000
,
0100
0000
1001
0000
,
0010
0010
1001
0000
,
0100
0000
1001
0000
,
0010
0000
0000
0010
0100
0000
0000
0000
,
0010
0000
0100
0000
,
0010
0010
1001
0100
,
0010
0001
0100
0010
,
1000
0000
0001
1000
0001
0000
0100
0000
,
1010
1000
0010
0100
,
0101
0001
0100
0010
,
1010
0010
0101
0001
,
2002
0000
3000
0003
,
1000
0100
1000
0010
,
0100
0000
0001
0010
0100
0000
0010
0000
,
0001
0100
0010
1000
,
0100
0000
1000
0010
0100
0000
0001
0000
,
1002
0000
2003
0000
,
3100
0000
1000
0010
0100
0000
0001
0000
,
0020
0000
0230
0000
,
0310
0000
0001
0010
0100
0000
1000
0000
,
0100
1000
0010
0001
,
0010
0000
0100
0010
1000
0000
0001
0000
,
0010
1000
0010
0100
,
1000
0000
0100
0010
0001
0000
1000
0000
,
1002
0000
0203
0000
,
0310
0000
1000
0010
0100
0000
0001
0000
,
0020
0000
0230
0000
,
1300
0000
0100
1000
0010
0000
0100
0000
,
0001
0001
0001
0001
,
1000
1000
1000
1000
,
0010
0010
0010
0010
,
0100
0000
0100
0000
0100
0000
0010
0100
,
0001
0001
0001
0001
,
1000
0000
1000
0000
1000
0000
0100
1000
,
1010
0000
0101
0000
,
1010
0101
1010
0101
,
0011
1010
0011
1001
,
0101
1100
0101
1001
,
0011
1010
0011
1001
,
0101
0000
0000
1100
0000
0000
0101
0000
0001
0000
1000
0000
,
1001
0011
1001
1010
,
1001
0011
1001
1010
,
1001
0100
1001
0010
,
1001
0000
0000
0101
0000
0000
1010
0000
1000
0010
0100
0001
,
1000
0000
0000
0010
0100
0000
0000
0000
,
0001
1000
0001
0000
,
0100
0000
0000
0001
0100
0000
0000
0000
,
0010
1000
0010
0100
,
0001
0000
0000
1000
0100
0000
0000
0000
,
1000
0010
0100
0001
,
0010
0000
0000
0100
0010
0000
0000
0000
,
0100
1000
0010
0100
,
1001
0001
0100
0010
,
0100
0001
1000
0100
,
1000
0100
0010
0100
,
1000
0010
0100
0001
,
1000
0001
1000
0000
0010
1000
0010
0000
,
0100
0001
0100
0000
0001
0010
0001
0000
,
0001
0010
0100
1000
0010
0100
0001
1000
,
0100
0000
1000
0100
,
1000
0000
0010
0100
0001
0000
1000
0000
,
0100
0000
1000
0010
0100
0000
0001
0000
,
0010
0000
0100
0010
0001
0000
0100
0000
,
1000
0000
0100
1000
0010
0000
0100
0000
,
0001
0000
1000
0001
0100
0000
0010
0000
,
1000
0000
0010
0100
0101
0000
0000
0000
,
1010
0000
0101
1010
,
1100
0011
0001
0010
,
0100
0000
1000
0100
0001
0000
0100
0000
,
1000
0000
0010
0001
0010
0000
0100
0000
,
0010
0000
1000
0010
0001
0000
0010
0000
,
0100
0000
0001
0100
0010
0000
1000
0000
,
0100
0000
0001
0100
0010
0000
0001
0000
,
0010
0000
0100
1000
0020
0000
0000
0000
,
0130
0000
0001
0000
1000
0000
0001
0000
1000
0000
0000
0100
0000
0000
0010
0000
,
0200
0000
1300
0000
;

//---------------dance-single - ----------------
#NOTEDATA:;
#CHARTNAME:;
#STEPSTYPE:dance-single;
#DESCRIPTION:;
#CHARTSTYLE:;
#DIFFICULTY:Easy;
#METER:5;
#RADARVALUES:0.336750,0.531974,0.286693,0.262802,0.000000,296.000000,260.000000,36.000000,33.000000,0.000000,0.000000,0.000000,0.000000,0.000000,0.336750,0.531974,0.286693,0.262802,0.000000,296.000000,260.000000,36.000000,33.000000,0.000000,0.000000,0.000000,0.000000,0.000000;
#CREDIT:;
#NOTES:
0000
0000
0000
0000
,
0000
0000
0000
0000
,
0000
0000
0000
0000
,
0000
0000
0000
0000
,
0000
0000
0000
0000
,
0000
0000
0000
0000
,
0000
0000
0000
0000
,
0000
0000
0000
0000
,
1000
0000
0001
0000
,
0100
0100
0010
0000
,
1000
0000
0010
0000
,
0100
0000
0000
0100
0001
0000
0000
0000
,
1000
0000
0100
0000
,
1000
1000
0001
1000
,
0001
0100
0010
1000
,
0010
0000
0100
0010
0100
0000
0001
0000
,
1001
0001
0001
0001
,
1001
1000
1000
1000
,
1001
0010
1001
0100
,
2002
0000
3000
0003
,
1000
0100
1000
0010
,
0100
0001
1000
0100
,
1000
0001
0010
0001
,
0100
0010
1000
0001
,
2000
0000
3002
0000
,
0203
0000
0320
0000
,
2030
0000
3020
0000
,
0230
0000
0302
0000
,
1003
0100
1000
0001
,
0100
0010
0100
0001
,
1000
0100
1000
0001
,
0010
0100
1000
0100
,
2000
0000
3020
0000
,
0230
0000
0302
0000
,
0023
0000
0230
0000
,
1300
1000
1000
1000
,
1001
0001
0010
0100
,
1000
1000
1000
0100
,
1000
0010
1000
0001
,
0100
0100
0100
0020
,
1030
0010
0100
0001
,
0100
0100
0100
0020
,
1030
0010
0100
0010
,
1001
0110
1001
0110
,
0001
0100
0010
1001
,
1000
0100
0010
1001
,
0001
0100
0010
1001
,
1000
0100
0110
0000
,
1001
0001
1000
0010
,
1001
0001
1000
0100
,
1001
0010
1001
0100
,
1001
0110
1001
0110
,
1001
0000
0001
0000
,
1000
0100
1000
0000
,
0100
0000
1000
0000
,
0010
0100
0001
0000
,
1000
0000
0100
0000
,
1000
0010
1000
0000
,
0010
0000
0100
0000
,
0010
0100
0001
0000
,
1001
0001
0100
0001
,
0100
0001
0100
0001
,
0100
0010
0100
0010
,
1000
0010
1000
0010
,
1001
1000
0100
0010
,
1001
0001
0010
0100
,
1001
0010
1001
0110
,
2002
3003
1000
0001
,
0100
0020
1030
0010
,
0100
0002
0013
0100
,
0010
0002
0013
0100
,
1000
0200
1300
0010
,
0100
0002
1003
0100
,
1000
0010
0110
0000
,
1001
0000
0101
1100
,
1010
0011
0001
1000
,
0100
2000
3010
0100
,
0001
0020
1030
0010
,
0100
2000
3010
0001
,
0010
0200
0301
0010
,
1000
0020
0130
1000
,
0100
0001
0200
0000
,
0320
0000
0031
0010
,
0200
0000
1300
0000
;

//---------------dance-single - ----------------
#NOTEDATA:;
#CHARTNAME:;
#STEPSTYPE:dance-single;
#DESCRIPTION:;
#CHARTSTYLE:;
#DIFFICULTY:Beginner;
#METER:2;
#RADARVALUES:0.177476,0.299235,0.167237,0.000000,0.000000,156.000000,135.000000,21.000000,0.000000,0.000000,0.000000,0.000000,0.000000,0.000000,0.177476,0.299235,0.167237,0.000000,0.000000,156.000000,135.000000,21.000000,0.000000,0.000000,0.000000,0.000000,0.000000,0.000000;
#CREDIT:;
#NOTES:
0000
0000
0000
0000
,
0000
0000
0000
0000
,
0000
0000
0000
0000
,
0000
0000
0000
0000
,
0000
0000
0000
0000
,
0000
0000
0000
0000
,
0000
0000
0000
0000
,
0000
0000
0000
0000
,
1000
0000
0000
0000
,
0100
0000
0000
0000
,
1000
0000
0000
0000
,
0010
0000
0000
0000
,
0100
0000
0000
0000
,
0001
0000
0000
0000
,
0010
0000
0100
0000
,
1001
0000
0000
0000
,
0110
0000
0000
0000
,
0110
0000
0000
0000
,
0100
0000
0010
0000
,
1001
0000
0000
0000
,
1000
0000
1000
0000
,
0001
0001
0001
0000
,
0100
0000
0100
0000
,
0010
0010
0010
0000
,
1001
0000
0010
0000
,
0100
0000
0000
0000
,
0110
0000
0100
0000
,
0001
0000
0000
0000
,
1000
0000
0010
0000
,
0100
0100
0100
0000
,
0010
0000
0100
0000
,
0001
0001
0001
0000
,
1001
0000
0010
0000
,
0100
0000
0000
0000
,
1001
0000
0010
0000
,
0100
0000
0010
0000
,
1001
0000
1000
0000
,
1000
1000
1000
0000
,
0001
0000
0001
0000
,
0001
0001
0001
0000
,
1001
0000
0010
0000
,
0010
0010
0010
0000
,
1001
0000
0110
0000
,
0001
0001
1000
1000
,
0010
0000
0100
0000
,
0010
0000
1000
0000
,
0001
0000
0100
0000
,
0010
0000
1001
0000
,
0001
0000
1000
0000
,
0100
0000
1000
0000
,
0010
0000
0100
0000
,
0010
0000
1000
0001
,
1001
0000
0000
0000
,
0000
0000
0000
0000
,
0001
0000
0000
0000
,
0000
0000
0000
0000
,
0100
0000
0000
0000
,
0000
0000
0000
0000
,
0010
0000
0000
0000
,
0000
0000
0000
0000
,
1000
0000
0000
0000
,
1000
0000
0000
0000
,
0001
0000
0000
0000
,
0001
0000
0000
0000
,
0100
0000
0010
0000
,
1000
0000
0001
0000
,
1001
0000
0110
0000
,
1001
0000
0001
0000
,
0000
1000
1000
0000
,
0000
0100
0100
0000
,
0000
1000
1000
0000
,
0000
0001
0001
0000
,
0000
0010
0010
0000
,
0000
0001
1001
0000
,
0110
0000
0001
0001
,
1000
1000
0001
0000
,
0000
0100
0010
0000
,
0000
1000
0001
0000
,
0000
0010
0001
0000
,
0000
1000
0100
0000
,
0000
1000
0001
0000
,
0000
0100
0110
0000
,
0100
0000
0010
0000
,
0100
0000
1001
0000
;

//---------------dance-single - ----------------
#NOTEDATA:;
#CHARTNAME:;
#STEPSTYPE:dance-single;
#DESCRIPTION:;
#CHARTSTYLE:;
#DIFFICULTY:Challenge;
#METER:10;
#RADARVALUES:0.682602,0.864458,0.183165,0.613204,0.852114,600.000000,577.000000,23.000000,77.000000,0.000000,0.000000,5.000000,0.000000,0.000000,0.682602,0.864458,0.183165,0.613204,0.852114,600.000000,577.000000,23.000000,77.000000,0.000000,0.000000,5.000000,0.000000,0.000000;
#CREDIT:;
#NOTES:
// measure 0
0000
0000
0000
0000
,  // measure 1
0000
0000
0000
0000
,  // measure 2
0000
0000
0000
0000
,  // measure 3
0000
0000
0000
0000
,  // measure 4
0000
0000
0000
0000
,  // measure 5
0000
0000
0000
0000
,  // measure 6
0000
0000
0000
0000
,  // measure 7
0000
0000
0000
0000
,  // measure 8
1200
2300
3002
0203
,  // measure 9
0320
0000
0130
0001
2000
0000
0100
0000
,  // measure 10
3002
0203
0302
2003
,  // measure 11
3020
0000
0130
0001
0020
0000
0100
0000
,  // measure 12
0032
2003
3200
2300
,  // measure 13
3002
0000
0103
0001
0020
0000
0230
0000
,  // measure 14
2300
3200
0302
0203
,  // measure 15
0310
0000
0100
1000
0020
0000
0001
0000
,  // measure 16
0130
0001
0100
0001
0100
0001
0100
0001
,  // measure 17
1000
0010
1000
0010
1000
0010
1000
0010
,  // measure 18
1000
0001
1000
0001
1000
0001
1000
0001
0100
0010
0100
0010
0100
0010
0100
0010
,  // measure 19
2000
0000
0004
3003
,  // measure 20
1020
0230
0302
0023
,  // measure 21
0230
0000
0310
0001
0200
0000
1000
0000
,  // measure 22
0302
2003
3200
2300
,  // measure 23
3020
0000
1030
0100
0002
0000
0203
0000
,  // measure 24
0320
0000
0000
0000
0000
0000
0000
0000
0000
1030
0000
0000
0001
0000
0001
0000
1000
0000
0100
0000
0100
0000
0010
0000
,  // measure 25
0001
0000
0000
0101
0000
0000
0100
0040
4000
0000
0000
0000
0000
3030
1000
0001
,  // measure 26
0200
0000
0000
0000
0000
0000
0000
0000
0310
1000
0001
0010
0100
1000
0001
1000
,  // measure 27
0001
0000
0000
1010
0000
0000
1000
0000
1100
0000
0100
0000
0010
0000
0000
0000
,  // measure 28
0002
0203
2300
3200
,  // measure 29
0320
0000
1030
0100
0002
0000
0010
0000
,  // measure 30
2003
3200
0302
0203
,  // measure 31
0320
0000
0031
0010
2000
0000
3020
0000
,  // measure 32
0230
0000
0000
0000
0000
0000
0000
0000
0000
0310
0000
0000
0100
0000
0100
0000
0010
0000
0001
0000
0001
0000
0100
0000
,  // measure 33
0001
0000
0000
1010
0000
0000
0010
0100
0002
0000
0000
0000
0000
0000
0013
0001
,  // measure 34
2000
0000
0000
0000
0000
0000
0000
0000
0000
0000
0000
0000
3001
1000
0001
1000
0001
1000
0001
0000
1000
0000
0001
0000
,  // measure 35
1000
0100
0010
0001
0010
0100
1000
0100
0010
0001
0010
0100
,  // measure 36
1000
0000
0000
1100
0000
0010
0001
0000
0000
0101
0000
0010
,  // measure 37
1000
0000
0001
1000
0001
1000
0001
0000
0010
0100
0000
1000
,  // measure 38
0001
0000
0000
1010
0000
0100
0001
0000
0000
0011
0000
0100
,  // measure 39
1000
0000
0000
0000
0001
0000
0100
0000
0010
0000
0100
0000
0010
0000
0000
0000
0100
0000
0002
0000
2000
0003
0200
3000
,  // measure 40
0020
0300
0000
0030
0000
0000
1100
0000
0000
0000
0010
0000
0001
0000
0000
0000
0000
0000
0011
0000
0000
0000
0100
0000
,  // measure 41
1000
0000
0000
0000
0001
0000
1000
0000
0001
0000
1000
0000
0010
0000
0000
0000
0100
0000
0002
0000
0020
0003
0200
0030
,  // measure 42
2000
0300
0000
3000
0000
0000
0001
0000
0000
0000
0000
0000
1100
0000
0000
0000
0000
0000
0001
0000
0000
0000
0001
0000
,  // measure 43
0100
0000
0100
1000
0000
1000
0010
0000
0010
0001
0000
0000
,  // measure 44
1000
0100
0001
0100
1000
0100
0002
0000
0103
2000
0000
3001
,  // measure 45
1000
0010
0001
0010
1000
0010
0002
0000
0103
0020
0000
1030
,  // measure 46
0001
0100
1000
0100
0001
0100
2000
0000
3100
0002
0000
1003
,  // measure 47
0010
0001
0010
1000
0010
0001
1001
0000
0011
0000
1001
0000
,  // measure 48
0001
0010
1000
0010
0001
0010
2000
0000
3010
0002
0000
1003
,  // measure 49
0001
0100
1000
0100
0001
0100
2000
0000
3010
0200
0000
0301
,  // measure 50
1000
0010
0001
0010
1000
0010
0002
0000
0013
2000
0000
3001
,  // measure 51
0100
1000
0100
0001
0100
1000
0100
0000
0100
0001
1000
0010
,  // measure 52
0100
0000
0000
0001
0100
0001
1000
0100
,  // measure 53
0010
0100
1000
0001
,  // measure 54
0100
0000
0000
0010
1000
0100
1000
0001
,  // measure 55
0010
1000
0010
0100
,  // measure 56
1000
0000
0000
0100
0010
0001
0100
0001
,  // measure 57
1000
0001
0100
0001
,  // measure 58
0010
0000
0000
0100
0010
0001
0100
0001
,  // measure 59
1000
0010
0001
0010
,  // measure 60
0110
0000
0000
0100
0000
0000
1000
0000
0000
0010
0000
0000
0100
0000
0001
0000
,  // measure 61
1000
0000
0000
0100
0000
0000
1000
0000
0000
0010
0000
0000
0100
0000
0001
0000
,  // measure 62
0010
0000
0000
0010
0000
0000
0100
0000
0000
1000
0000
0000
0001
0000
1000
0000
,  // measure 63
0100
0000
0000
0010
0000
0000
0100
0000
0000
1000
0000
0000
0001
0000
0100
0000
,  // measure 64
0010
1000
0010
1000
0010
1000
0010
1000
,  // measure 65
0001
0100
0001
0100
0001
0100
0001
0100
,  // measure 66
0001
0100
0010
1000
0001
0010
0100
0010
0001
0100
0010
1000
0100
0010
0001
1000
,  // measure 67
0400
0000
0000
0000
0300
0000
0000
0000
0010
0000
0001
0100
0000
0010
1000
0000
,  // measure 68
0100
0010
0000
0100
0010
0001
0100
0010
1000
0000
0001
0100
0000
0001
1000
0000
,  // measure 69
0001
0010
0000
0100
0010
0001
0100
0010
1000
0000
0100
0010
0000
0010
0001
0000
,  // measure 70
0001
0100
0000
0100
0010
1000
0001
0010
0001
0000
1000
0100
0000
1000
0001
0000
,  // measure 71
1000
0010
0000
0100
0001
0010
0001
1000
0100
0000
0010
0001
0000
0010
0100
0000
,  // measure 72
0100
1000
0000
0001
1000
0001
1000
0100
1000
0000
0100
1000
0000
1000
0010
0000
,  // measure 73
0010
0000
0000
0100
0000
0000
0000
0000
0000
0010
0000
0000
0100
0000
0000
0001
0000
0000
0010
0000
0000
0001
0000
0000
1000
0000
0000
0000
0000
0000
0000
0000
0001
0000
0000
0000
1000
0000
0000
0000
0000
0000
0000
0000
1000
0000
0000
0000
,  // measure 74
0010
0000
1000
0001
0000
0001
0011
0000
0000
1100
0000
0000
,  // measure 75
1010
0000
0000
0000
0101
0000
0000
0000
0001
0000
1000
0010
0000
0100
0001
0000
,  // measure 76
0010
0100
0000
0010
0100
1000
0010
0100
0001
0000
1000
0010
0000
1000
0001
0000
,  // measure 77
1000
0100
0000
0010
0100
1000
0010
0100
0001
0000
0010
0100
0000
0100
1000
0000
,  // measure 78
1000
0010
0000
0010
0100
0001
1000
0100
1000
0000
0001
0010
0000
0001
1000
0000
,  // measure 79
0001
0100
0000
0010
1000
0100
1000
0001
0010
0000
0100
1000
0000
0100
0010
0000
,  // measure 80
0010
0001
0000
1000
0001
1000
0001
0010
0001
0000
0010
0001
0000
0001
0100
0000
,  // measure 81
0100
0010
0000
0100
0010
1000
0100
1000
0002
0000
0000
0000
0000
0000
1003
0000
,  // measure 82
0010
0000
0000
0000
0010
0000
0000
0000
0100
0000
0000
0000
0001
0000
0000
0000
0001
0000
0000
0000
1000
0000
0000
0000
1100
0000
0000
0000
0000
0000
0000
0000
0000
0101
0000
0000
0000
0000
0000
0000
0000
0000
0001
0000
0000
0000
0000
0000
,  // measure 83
0040
0000
0030
0000
;
