#TITLE:VOLT;
#SUBTITLE:(USAO Remix);
#ARTIST:aran;
#TITLETRANSLIT:;
#SUBTITLETRANSLIT:;
#ARTISTTRANSLIT:;
#GENRE:;
#CREDIT:;
#BANNER:VOLT (USAO Remix).png;
#BACKGROUND:VOLT (USAO Remix)-bg.png;
#LYRICSPATH:;
#CDTITLE:;
#MUSIC:VOLT (USAO Remix).ogg;
#OFFSET:-1.768002;
#SAMPLESTART:85.255264;
#SAMPLELENGTH:10.434784;
#SELECTABLE:YES;
#BPMS:0.000000=92.000000
,64.000000=184.000000
,317.000000=92.000000
;
#STOPS:92.000000=0.978000
;
#BGCHANGES:;
#KEYSOUNDS:;
#ATTACKS:;

//---------------dance-single - ----------------
#NOTES:
     dance-single:
     :
     Hard:
     8:
     0.475715,0.569790,0.219477,0.242182,0.132443,440.000000,411.000000,29.000000,32.000000,0.000000,0.000000,0.475715,0.569790,0.219477,0.242182,0.132443,440.000000,411.000000,29.000000,32.000000,0.000000,0.000000:
0000
0000
0000
0000
,
0000
0000
0000
0000
,
0000
0000
0000
0000
,
0000
0000
0000
0000
,
0001
0001
0001
0001
,
0001
0001
0100
0100
,
0010
0000
0010
0000
0010
0000
0010
0100
,
0001
0001
1000
0100
,
1000
0000
0001
0000
0010
0000
0001
0000
1000
0000
0001
0100
0001
0000
0100
0000
,
0001
0000
1000
0000
0010
0000
1000
0000
0001
0000
1000
0100
1000
0000
0100
0000
,
1000
0000
0010
0000
0100
0000
0001
0000
0010
0000
0100
0010
0100
0000
0010
0000
,
0001
0000
0100
0000
1000
0000
0100
0000
0010
0000
1000
0010
0100
0000
0001
0000
,
1000
0000
0001
0000
0010
0000
0001
0000
1000
0000
0010
0100
0010
0000
0100
0000
,
0010
0000
1000
0000
0100
0000
1000
0000
0001
0000
0100
0010
0100
0000
0001
0000
,
2000
3000
0000
0000
0200
0300
0000
0000
,
0002
0000
0003
0000
0020
0000
0030
0000
2000
0000
3000
0001
0100
0010
1000
0000
,
1200
0310
0010
0010
,
0001
0001
0001
0001
,
1000
1000
1000
1000
,
0100
0100
0100
0100
,
0010
0001
0010
0001
0010
0001
0010
0001
,
1000
0100
1000
0100
1000
0100
1000
0100
,
4000
0004
0000
0000
0000
0000
0000
0000
0000
0000
0000
0000
0000
0000
0000
0000
,
3003
0000
0101
0100
0010
0000
2000
3000
,
2000
3000
0002
0000
0013
0100
1000
0000
,
1100
0000
0011
0000
0001
0000
0100
0010
,
0100
0001
1000
0100
,
1001
0000
0010
0001
0100
0000
0002
0003
,
0002
0003
1000
0100
1000
0001
0100
0000
,
0010
0000
1000
0001
0010
0000
0010
0000
,
0010
0001
0100
0000
0100
0000
0100
0010
,
1001
0000
0001
0100
0010
1000
0200
0300
,
0200
0300
0020
0000
0130
1000
0010
0000
,
0110
0101
0002
0023
,
0032
0000
1003
0010
1000
0000
0001
0000
,
0011
0000
1100
0100
0010
0100
1000
0001
,
0100
0100
0010
1000
0001
0001
1000
0001
,
0010
0000
0100
1000
0001
0000
0001
0000
,
0001
1000
0020
0000
0000
0100
0200
0000
,
0330
1001
1010
0011
,
1010
0000
1001
0000
0001
1000
0200
0300
,
1100
0011
0001
0100
,
0010
1000
0001
0000
0010
0000
0100
0000
,
1001
0000
1010
0000
0100
0000
0010
1000
,
0001
0010
0001
1000
0100
0010
0100
1000
,
0001
0100
0001
0000
0010
0000
0001
0000
,
1000
0000
0100
0000
0010
0001
0100
0000
,
0010
0200
0301
0200
,
0310
0000
0200
0000
1300
0100
0002
0000
,
0013
0020
1030
0020
,
0130
0000
0020
0000
0031
0010
2000
0000
,
3010
0002
0013
2000
,
3100
0000
0020
0000
0130
1000
0020
0000
,
0130
0001
0010
0000
1000
0000
0010
0000
,
0100
0000
1000
0000
0100
0010
0001
1000
,
0010
1000
1010
0001
,
0011
0000
1100
0000
0100
0001
0100
0000
,
1000
0010
0110
1000
,
0101
0000
0011
0000
1000
0010
1000
0000
,
1001
0001
0101
0001
,
0011
0000
1000
0000
0001
0100
0010
0000
,
0100
0010
1000
0000
0100
0000
0001
0000
,
0100
0000
0010
0000
0001
0100
0010
0000
,
1000
0000
0001
0000
1000
0000
0000
0001
0000
0000
0100
0000
0000
0001
0000
0000
,
0010
0000
0100
0000
1000
0000
0000
0100
0000
0000
1000
0000
0000
0010
0000
0000
,
0100
0000
0010
0000
1000
0000
0000
0001
0000
0000
0010
0000
0000
0001
0000
0000
,
0100
0000
0001
0000
0010
0000
0000
0100
0000
0000
0010
0000
0000
0001
0000
0000
,
1000
0000
0001
0000
0010
0000
0000
0001
0000
0000
0010
0000
0000
0001
0000
0000
,
0010
0000
0001
0000
0100
0000
0000
0010
0000
0000
0100
0000
0000
0001
0000
0000
,
0100
0000
0010
0000
1000
0000
0000
0100
0000
0000
1000
0000
0000
0001
0000
0000
,
0100
0001
0010
0001
1000
0100
1000
0001
,
0100
0000
0000
0000
0010
0000
0000
1000
0000
0000
0010
0000
0000
1000
0000
0000
,
0010
0000
0100
0000
0001
0000
0000
0010
0000
0000
0001
0000
0000
1000
0000
0000
,
0100
0000
1000
0000
0010
0000
0000
0100
0000
0000
0001
0000
0000
1000
0000
0000
,
0100
0000
1000
0000
0010
0000
0000
0100
0000
0000
0010
0000
0000
1000
0000
0000
,
0001
0000
1000
0000
0100
0000
0000
0010
0000
0000
0100
0000
0000
0010
0000
0000
,
0100
0000
1000
0000
0010
0000
0000
0100
0000
0000
0010
0000
0000
1000
0000
0000
,
0010
0100
0001
0000
1000
0000
0100
0000
,
0001
0000
0010
0000
1000
0001
0010
0000
,
0100
1001
0000
0000
;

//---------------dance-single - ----------------
#NOTES:
     dance-single:
     :
     Medium:
     5:
     0.342731,0.359867,0.158932,0.052977,0.000000,317.000000,296.000000,21.000000,7.000000,0.000000,0.000000,0.342731,0.359867,0.158932,0.052977,0.000000,317.000000,296.000000,21.000000,7.000000,0.000000,0.000000:
0000
0000
0000
0000
,
0000
0000
0000
0000
,
0000
0000
0000
0000
,
0000
0000
0000
0000
,
1000
0000
0000
0000
,
0000
0000
0001
0000
,
0100
0000
0000
0000
0000
0000
0010
0100
,
0001
0000
1000
0000
,
0001
0100
0010
1000
,
0100
1000
0010
0100
,
0010
1000
0001
0010
,
0001
0100
0001
1000
,
0100
0010
0001
0100
,
0001
1000
0010
0100
,
0001
0000
0010
0000
,
0100
1000
0001
0100
,
0110
0100
0100
0100
,
0100
0100
0100
0100
,
0010
0010
0010
0010
,
0010
0010
0010
0010
,
2020
0000
3030
0000
,
0202
0000
0303
0000
,
0022
0000
0000
0033
,
0000
1001
0000
0001
,
0100
0000
0010
0000
1000
0010
1000
0000
,
1010
0101
0001
0010
,
0010
0001
1000
0200
,
0300
0100
1000
0010
,
0010
0000
0100
0000
0010
0100
0001
0000
,
1000
0001
0010
0001
,
1000
0100
1000
0001
,
1010
0010
1000
0010
,
0100
0000
0001
0000
0010
0100
1000
0000
,
1100
0011
0001
1000
,
0010
0100
0001
0010
,
1001
0010
0001
1000
,
1000
0000
0001
0100
0001
0000
0100
0000
,
0010
1000
0001
0010
,
0001
1000
0000
0010
,
0000
0100
0010
1000
,
0001
0000
0010
0000
0100
1000
0010
0000
,
1010
0101
0001
0010
,
0001
1000
0100
1000
,
1001
0001
1000
0010
,
0100
0000
0010
0100
0001
0000
1000
0000
,
0100
1000
0010
0100
,
0001
0000
0010
0000
0100
0010
0001
0000
,
0100
0010
0001
0100
,
0010
0000
1000
0000
0001
1000
0001
0000
,
1000
0001
0010
0001
,
1000
0000
0100
0000
1000
0010
1000
0000
,
0010
0100
0001
0010
,
0100
0000
1000
0000
0100
1000
0010
0000
,
0010
0100
0001
0000
0100
0000
0010
0000
,
1000
0000
0001
0000
1000
0100
0010
0000
,
0100
1000
0010
0100
,
0001
0000
0010
0000
0100
0010
0001
0000
,
0010
0100
1000
0010
,
0100
0000
0001
0000
1000
0001
0100
0000
,
0001
1000
0010
1000
,
0100
0000
1000
0000
0010
0100
0001
0000
,
1000
0010
0100
0001
,
0010
0000
0100
0000
0010
0001
0010
0000
,
0100
0010
0001
0100
,
0110
0010
0100
0001
,
1001
1000
0010
0100
,
0101
0001
0100
0010
,
1010
1000
0010
0100
,
1001
0001
0010
0100
,
1100
0100
1000
0010
,
0110
0000
0100
0000
0010
0000
1000
0001
,
0100
0001
1000
0010
,
0100
0010
1000
0000
0010
0000
0100
0000
,
0001
0010
0100
0000
0010
0000
0001
0000
,
0100
0010
1000
0000
0010
0000
0100
0000
,
0001
1000
0001
0000
1000
0000
0010
0000
,
0000
1000
0001
0100
,
0000
0000
0001
0010
,
0100
0000
1000
0000
0100
0010
0001
0000
,
0010
0100
0000
0000
;

//---------------dance-single - ----------------
#NOTES:
     dance-single:
     :
     Easy:
     4:
     0.292997,0.359867,0.166500,0.015136,0.000000,271.000000,249.000000,22.000000,2.000000,0.000000,0.000000,0.292997,0.359867,0.166500,0.015136,0.000000,271.000000,249.000000,22.000000,2.000000,0.000000,0.000000:
0000
0000
0000
0000
,
0000
0000
0000
0000
,
0000
0000
0000
0000
,
0000
0000
0000
0000
,
1000
0000
1000
0000
,
1000
0000
1000
0001
,
1000
0000
0010
0100
,
0001
0000
0010
0000
,
0001
1000
0010
0100
,
0001
1000
0010
0100
,
0001
0010
0001
1000
,
0100
0010
0001
1000
,
0001
0100
0010
1000
,
0001
0100
0010
1000
,
0001
0000
0010
0000
,
0100
1000
0001
0000
,
1001
0000
0000
0000
,
0000
0000
0000
0000
,
0010
0000
0000
0000
,
0000
0000
0000
0000
,
1001
0000
0000
0000
,
0110
0000
0000
0000
,
1001
0000
0000
0000
,
0000
0110
0000
1000
,
0001
1000
0000
0010
,
0000
0110
0000
0100
,
0010
1000
0001
0010
,
0100
0010
0000
0001
,
1000
0001
0100
0001
,
0010
0100
0000
0010
,
0000
0001
0000
1000
,
1001
0001
0000
0100
,
0010
1000
0100
0010
,
0100
1000
0000
0001
,
0000
0100
0001
0010
,
0100
0010
0000
0001
,
0000
1000
0001
0100
,
0001
0010
0000
0100
,
0010
0002
0000
2000
,
3003
1001
0001
0010
,
0001
0100
1000
0100
,
0010
1000
1000
0001
,
0001
0100
0100
0010
,
1001
0001
0010
0001
,
1000
0100
0001
0100
,
0010
0000
0001
0010
,
0100
1000
0001
0100
,
0000
0010
0100
0010
,
0100
0010
0100
0001
,
0001
1000
0001
1000
,
0001
1000
0001
0100
,
0100
0001
0100
0010
,
0100
0001
1000
0100
,
0010
0100
0010
0001
,
0100
1000
0100
0010
,
1001
0001
1000
0010
,
1000
0100
0010
0010
,
0100
0010
0001
0100
,
0010
1000
0100
0100
,
1001
0001
0010
0001
,
1000
0010
1000
0001
,
1000
0001
0100
0001
,
0010
0100
0010
0001
,
1000
0001
0100
0001
,
0101
0001
1000
0001
,
1001
1000
0100
1000
,
1100
1000
0010
1000
,
1010
1000
0001
1000
,
1001
0001
0010
0001
,
0011
0001
0100
0001
,
0101
0001
0100
0010
,
1000
0001
1000
0010
,
0110
0010
0100
0001
,
1001
1000
0001
0010
,
0110
0100
1000
0010
,
1010
1000
0010
0100
,
0000
0010
1000
0001
,
0000
0000
1000
0100
,
0001
0000
1000
0000
0100
0010
0001
0000
,
1000
0010
0000
0000
;

//---------------dance-single - ----------------
#NOTES:
     dance-single:
     :
     Beginner:
     2:
     0.129740,0.209923,0.045409,0.000000,0.000000,120.000000,114.000000,6.000000,0.000000,0.000000,0.000000,0.129740,0.209923,0.045409,0.000000,0.000000,120.000000,114.000000,6.000000,0.000000,0.000000,0.000000:
// measure 0
0000
0000
0000
0000
,  // measure 1
0000
0000
0000
0000
,  // measure 2
0000
0000
0000
0000
,  // measure 3
0000
0000
0000
0000
,  // measure 4
0000
0000
0000
0000
,  // measure 5
0000
0000
0000
0000
,  // measure 6
0000
0000
0000
0000
,  // measure 7
0000
0000
0000
0000
,  // measure 8
1000
0000
1000
0000
,  // measure 9
0001
0000
0001
0000
,  // measure 10
0100
0000
0100
0000
,  // measure 11
0010
0000
0010
0000
,  // measure 12
1000
0000
0010
0000
,  // measure 13
0100
0000
0001
0000
,  // measure 14
1000
0000
0100
0000
,  // measure 15
0010
0001
1000
0000
,  // measure 16
0110
0000
0000
0000
,  // measure 17
0000
0000
0000
0000
,  // measure 18
0010
0000
0000
0000
,  // measure 19
0000
0000
0000
0000
,  // measure 20
0100
0000
0000
0000
,  // measure 21
0010
0000
0000
0000
,  // measure 22
1000
0000
0000
0000
,  // measure 23
0000
0110
0000
0000
,  // measure 24
0000
0010
0000
0000
,  // measure 25
1000
1000
0000
0000
,  // measure 26
0000
0001
0000
0000
,  // measure 27
0100
0010
0000
0000
,  // measure 28
0000
1000
0000
0000
,  // measure 29
0000
0001
0000
1000
,  // measure 30
0000
0010
0000
1000
,  // measure 31
0001
1000
0000
0000
,  // measure 32
0000
0010
0000
0000
,  // measure 33
0100
0100
0000
0000
,  // measure 34
0000
0010
0000
0000
,  // measure 35
0000
0100
0000
0000
,  // measure 36
0000
0001
0000
0000
,  // measure 37
0000
1000
0000
0000
,  // measure 38
0001
0001
0000
1000
,  // measure 39
0000
1001
0000
0000
,  // measure 40
0000
0010
0000
0000
,  // measure 41
0100
0010
0000
0000
,  // measure 42
0000
1000
0000
0000
,  // measure 43
0001
0010
0000
0000
,  // measure 44
0000
0001
0000
0000
,  // measure 45
0000
1000
0000
0001
,  // measure 46
0000
0100
0000
0000
,  // measure 47
0000
0010
0000
0010
,  // measure 48
0000
0010
0000
0000
,  // measure 49
0000
0100
0000
0100
,  // measure 50
0000
0100
0000
0000
,  // measure 51
0000
0001
0000
1000
,  // measure 52
0000
0001
0000
0000
,  // measure 53
0000
1000
0000
0010
,  // measure 54
0000
0100
0000
0001
,  // measure 55
0000
1000
0000
0001
,  // measure 56
0000
1000
0000
0000
,  // measure 57
0000
0010
0000
0100
,  // measure 58
0000
0010
0000
0000
,  // measure 59
0000
1000
0000
0010
,  // measure 60
0000
0100
0000
0000
,  // measure 61
0000
0010
0000
0100
,  // measure 62
0000
0001
0000
1000
,  // measure 63
0000
1001
0000
0000
,  // measure 64
0001
0100
0000
0000
,  // measure 65
0001
1000
0000
0000
,  // measure 66
0001
0010
0000
0000
,  // measure 67
0010
0100
0000
0000
,  // measure 68
0100
1000
0000
0000
,  // measure 69
1000
0001
0000
0000
,  // measure 70
0001
1000
0000
0000
,  // measure 71
0000
0110
0000
0000
,  // measure 72
0010
1000
0000
0000
,  // measure 73
0010
0100
0000
0000
,  // measure 74
0100
0001
0000
0000
,  // measure 75
0001
0010
0000
0000
,  // measure 76
0001
1000
0000
0000
,  // measure 77
0000
0001
0000
1000
,  // measure 78
0000
0010
0000
0100
,  // measure 79
0000
1001
0000
0000
;
