#TITLE:Utopiosphere;
#SUBTITLE:;
#ARTIST:Mili;
#TITLETRANSLIT:;
#SUBTITLETRANSLIT:;
#ARTISTTRANSLIT:;
#GENRE:;
#CREDIT:;
#BANNER:Utopiosphere.png;
#BACKGROUND:Utopiosphere-bg.png;
#LYRICSPATH:;
#CDTITLE:;
#MUSIC:Utopiosphere.mp3;
#OFFSET:-1.860000;
#SAMPLESTART:56.405453;
#SAMPLELENGTH:16.363636;
#SELECTABLE:YES;
#BPMS:0.000000=176.000000
;
#STOPS:
;
#BGCHANGES:;
#KEYSOUNDS:;
#ATTACKS:;

//---------------dance-single - ----------------
#NOTES:
     dance-single:
     :
     Hard:
     8:
     0.445329,0.483088,0.150231,0.202812,0.018779,368.000000,20.000000,27.000000,0.000000,0.000000,0.000000,0.445329,0.483088,0.150231,0.202812,0.018779,368.000000,20.000000,27.000000,0.000000,0.000000,0.000000:
0000
0000
0000
0000
,
0000
0000
0000
0000
,
0000
0000
0000
0000
,
0000
0000
0000
0000
,
0001
0010
0000
0000
,
0001
1000
0000
0000
,
0001
0010
0000
0000
,
0001
1000
0000
0100
,
0010
0000
0001
0010
0100
0000
0010
0000
,
0001
0000
1000
0100
0010
0000
0100
0000
,
1000
0000
0010
0100
0000
0001
1000
0000
,
0010
0000
0100
0001
0100
0000
0010
1000
,
0001
0000
1000
0100
0000
0010
0001
0000
,
1000
0000
0001
0100
0000
0010
1000
0000
,
0020
0000
1000
0000
0130
0010
1000
0001
,
0020
0000
0100
0000
0130
0010
0001
1000
,
0010
1000
0001
0000
1000
0010
0000
0100
,
0000
0001
1000
0010
1000
0001
0010
0100
,
1000
0000
0000
0000
0100
0000
1000
0010
,
0100
0010
1000
0001
,
0010
0100
0010
0001
,
1000
0000
1000
0010
0100
0000
0001
1000
,
0010
0000
1000
0001
,
0100
0001
0010
0100
,
1000
0000
0100
1000
0100
0000
0100
0010
,
0100
0000
0010
0001
0010
0000
0001
0000
,
1000
0101
0000
0000
,
0001
1100
0000
0000
,
1000
0101
0000
0000
,
0001
0010
0100
1000
,
1001
0000
0000
0000
0000
0000
0000
0000
0000
0000
0001
0000
0000
0010
0000
0100
,
0000
1000
0000
0100
0000
0010
0000
0000
0000
0000
0000
0000
0000
0000
0001
0000
,
2000
0000
0000
0000
,
0002
3003
0000
0000
,
2000
0000
0000
0000
3100
0001
1000
0000
,
0010
0001
0020
0000
,
1030
0100
0001
0000
0010
0000
1000
0000
,
0020
0000
0000
0000
0130
0001
1000
0000
,
0010
0001
0020
0000
,
0130
1000
0100
0000
0001
0000
1000
0000
,
1100
0100
0010
0011
,
0000
0000
0101
0100
,
0010
1000
1010
0000
0000
0000
0000
0000
,
0001
1001
0000
1000
,
1001
0000
0101
0000
,
1000
0120
0000
0030
,
1010
0000
1000
0000
0001
0010
0100
0000
,
1000
0000
0010
0100
0001
0000
1000
0000
,
0100
0010
0001
0000
1000
0000
0010
0100
,
0001
0000
1000
0000
0010
1000
0100
0000
,
0010
0000
0001
0100
0010
0000
1000
0000
,
0001
0010
0110
0000
0000
0000
0000
0000
,
0200
0000
0000
1300
,
0200
0000
0000
1300
0000
0000
0100
0000
,
0020
0000
0000
0001
0000
0000
0031
0000
,
1000
0000
0000
1000
,
0002
0000
0000
1003
,
0002
0000
0000
0103
0000
0000
0010
0000
,
2000
0000
3020
0000
,
0200
0000
0330
0000
,
0110
0000
0010
0000
,
1000
0000
0001
1000
,
0200
0000
1000
0000
,
0310
0000
0200
0000
,
2300
0000
0100
0000
,
0100
0000
0001
0000
,
3002
0000
0203
0000
,
0020
0000
0330
0000
,
1000
0001
0000
0001
0010
0000
0100
1000
,
0010
0100
0001
0100
0001
0000
1000
0001
,
0010
0100
1000
0100
0010
0000
0100
1000
,
0001
0000
1000
0100
0010
0000
0100
0010
,
0001
1000
0000
1000
0001
0000
0001
0100
,
0010
1000
0000
0010
0100
0000
0010
1000
,
0002
1003
2000
3001
,
0200
0310
0020
0130
,
0001
0100
0010
1000
0100
0000
0010
0001
,
0100
0000
0010
1000
0001
0000
1000
0000
,
0001
0100
0010
1000
0001
0000
0010
0000
,
0011
1010
0011
1010
,
1001
0000
1000
0000
0001
0100
1000
0100
,
0010
0000
1000
0000
0001
0010
1000
0010
,
0100
0000
1000
0000
0001
1000
0100
0010
,
0001
0000
1000
0000
0001
0100
0010
1000
,
0001
1000
0001
0000
0001
0100
0000
0001
,
0000
1000
0100
0010
0100
1000
0001
0010
,
0100
1000
0100
0000
1000
0010
0000
0100
,
0000
0100
0001
0010
0001
1000
0010
1000
,
0001
1000
0010
0000
0100
0001
0000
0001
,
0000
1000
0100
0010
0100
1000
0010
1000
,
0010
0100
0001
0000
0010
0100
0000
0010
,
0000
0001
0010
0100
0010
0001
1000
0001
;

//---------------dance-single - ----------------
#NOTES:
     dance-single:
     :
     Medium:
     5:
     0.287586,0.379569,0.105162,0.187789,0.000000,229.000000,14.000000,25.000000,0.000000,0.000000,0.000000,0.287586,0.379569,0.105162,0.187789,0.000000,229.000000,14.000000,25.000000,0.000000,0.000000,0.000000:
// measure 0
0000
0000
0000
0000
,  // measure 1
0000
0000
0000
0000
,  // measure 2
0000
0000
0000
0000
,  // measure 3
0000
0000
0000
0000
,  // measure 4
1000
0010
0000
0000
,  // measure 5
1000
0001
0000
0000
,  // measure 6
1000
0001
0000
0000
,  // measure 7
1000
0010
0000
0100
,  // measure 8
0020
0000
0000
0130
,  // measure 9
0001
0000
0000
1000
0000
0000
0100
0000
,  // measure 10
0010
0000
0000
0001
0000
0000
1000
0000
,  // measure 11
0020
0000
0000
0000
,  // measure 12
0130
0000
0000
0010
0000
0000
0001
0000
,  // measure 13
1000
0000
0000
0010
0000
0000
0100
0000
,  // measure 14
0002
0000
0000
0000
0000
1003
0001
0000
,  // measure 15
0200
0000
0000
0300
,  // measure 16
0001
0100
0001
0001
,  // measure 17
1000
0100
0100
1000
,  // measure 18
0020
0000
0000
0000
0130
0000
0100
0001
,  // measure 19
1000
0100
0010
0001
,  // measure 20
0010
0100
0010
0001
,  // measure 21
1000
0000
0010
0100
0010
0000
1000
0001
,  // measure 22
0100
0000
0001
1000
,  // measure 23
0100
1000
0010
0100
,  // measure 24
0001
0000
1000
0100
1000
0000
0100
0010
,  // measure 25
0100
0000
0010
0001
0010
0000
0001
0000
,  // measure 26
1000
0001
0000
0000
,  // measure 27
0100
0001
0000
0000
,  // measure 28
1000
0010
0000
0000
,  // measure 29
1000
0100
0010
0001
,  // measure 30
1001
0000
0000
0000
,  // measure 31
0010
0100
0000
0000
,  // measure 32
0020
0000
0000
0000
,  // measure 33
0130
0000
0000
0000
,  // measure 34
0020
0000
0000
0000
,  // measure 35
0000
0030
2000
0000
,  // measure 36
0000
0000
0000
3000
,  // measure 37
0002
0000
0000
0000
,  // measure 38
0000
0003
0020
0000
,  // measure 39
0000
0000
0000
0030
,  // measure 40
0110
0000
0000
1001
,  // measure 41
0000
0000
0101
0000
,  // measure 42
0001
0100
1000
0000
0000
0000
0000
0000
,  // measure 43
0100
0110
0000
0010
,  // measure 44
0110
0000
0100
0000
,  // measure 45
0010
2000
0000
3000
,  // measure 46
0001
0000
0000
1100
,  // measure 47
0000
0000
0110
0000
,  // measure 48
0100
1001
0000
0000
,  // measure 49
0001
0101
0000
1000
,  // measure 50
1100
0000
1100
0000
,  // measure 51
0000
0011
0000
0000
,  // measure 52
1002
0000
0000
1003
,  // measure 53
0001
0000
0000
0100
0000
0000
0001
0000
,  // measure 54
1000
0000
0000
0100
0000
0000
0001
0000
,  // measure 55
0200
0000
0000
0310
,  // measure 56
0001
0000
0000
0010
,  // measure 57
0100
0000
0000
0010
0000
0000
0001
0000
,  // measure 58
1000
0000
0001
0000
,  // measure 59
0200
0000
0300
0000
,  // measure 60
0010
0000
1000
0000
,  // measure 61
0001
0000
0010
0100
,  // measure 62
1000
0000
0100
0000
,  // measure 63
1000
0000
0010
0000
,  // measure 64
0200
0000
0000
0000
,  // measure 65
0000
0000
0300
0000
,  // measure 66
0020
0000
2030
0000
,  // measure 67
0002
0000
3003
0000
,  // measure 68
0002
0000
0000
0103
,  // measure 69
0001
0000
0000
1000
0000
0000
0100
0000
,  // measure 70
1000
0000
0000
0010
0000
0000
0100
0000
,  // measure 71
0002
0000
0000
0000
,  // measure 72
2003
0000
0000
3100
,  // measure 73
1000
0000
0010
0000
,  // measure 74
0100
0000
0010
0000
,  // measure 75
1000
0000
0001
0000
,  // measure 76
2000
0000
0000
3100
,  // measure 77
2000
0000
3010
0100
,  // measure 78
0002
0000
0000
1003
0000
0000
0100
0000
,  // measure 79
1000
0010
0001
0010
,  // measure 80
0200
0000
0000
0000
0310
1000
0010
1000
,  // measure 81
0010
0000
0000
0000
0100
0001
0100
0001
,  // measure 82
0100
0000
0000
0000
0001
0010
0001
0010
,  // measure 83
0001
0000
0000
0000
1000
0100
1000
0100
,  // measure 84
1000
0100
0010
0001
,  // measure 85
0010
0001
0100
0100
,  // measure 86
0001
1000
0010
0100
,  // measure 87
0001
1000
0100
0100
,  // measure 88
0010
0001
0010
1000
,  // measure 89
0010
0100
1000
1000
,  // measure 90
0100
1000
0010
0100
,  // measure 91
0001
0000
1000
0000
0010
0100
0001
0010
;

//---------------dance-single - ----------------
#NOTES:
     dance-single:
     :
     Easy:
     3:
     0.181351,0.275675,0.007512,0.127697,0.000000,151.000000,1.000000,17.000000,0.000000,0.000000,0.000000,0.181351,0.275675,0.007512,0.127697,0.000000,151.000000,1.000000,17.000000,0.000000,0.000000,0.000000:
// measure 0
0000
0000
0000
0000
,  // measure 1
0000
0000
0000
0000
,  // measure 2
0000
0000
0000
0000
,  // measure 3
0000
0000
0000
0000
,  // measure 4
1000
0010
0000
0000
,  // measure 5
0010
0100
0000
0000
,  // measure 6
0100
0001
0000
0000
,  // measure 7
0001
1000
0000
1000
,  // measure 8
0002
0000
0000
0103
,  // measure 9
0001
0000
1000
0000
,  // measure 10
0100
0000
1000
0000
,  // measure 11
0020
0000
0000
0030
,  // measure 12
0100
0000
0001
0000
,  // measure 13
0010
0000
0001
0000
,  // measure 14
2000
0000
0000
0000
,  // measure 15
0002
0000
0000
0000
,  // measure 16
3003
0000
0000
0000
,  // measure 17
0000
0000
0000
0001
,  // measure 18
0200
0000
0301
0000
,  // measure 19
1000
0000
0100
0000
,  // measure 20
1000
0000
0001
0010
,  // measure 21
0100
1000
1000
0100
,  // measure 22
1000
0000
0100
0000
,  // measure 23
1000
0000
0010
0000
,  // measure 24
0100
0001
0001
0100
,  // measure 25
0100
0001
0001
1000
,  // measure 26
0001
0000
0000
0000
,  // measure 27
1000
0000
0000
0000
,  // measure 28
0100
0000
0000
0000
,  // measure 29
1000
0000
0100
0000
,  // measure 30
0010
0000
0000
0000
,  // measure 31
0100
0000
0000
0000
,  // measure 32
1000
0000
0000
0000
,  // measure 33
0001
0000
0000
0000
,  // measure 34
2000
0000
0000
0000
,  // measure 35
0000
3000
0002
0000
,  // measure 36
0000
0000
0000
0003
,  // measure 37
0020
0000
0000
0000
,  // measure 38
0000
0030
0200
0000
,  // measure 39
0000
0000
0000
0300
,  // measure 40
1001
0000
0000
0010
,  // measure 41
0000
0000
0100
0000
,  // measure 42
0001
0001
0000
0000
,  // measure 43
1000
0010
0000
1000
,  // measure 44
0001
0000
1000
0000
,  // measure 45
0100
0020
0000
0030
,  // measure 46
0100
0000
0000
0010
,  // measure 47
0000
0000
0001
0000
,  // measure 48
0100
0010
0000
0000
,  // measure 49
0100
0001
0000
0100
,  // measure 50
0010
0000
1000
0000
,  // measure 51
0000
0001
0000
0000
,  // measure 52
1000
0000
0000
0100
,  // measure 53
1000
0000
0100
0000
,  // measure 54
2000
0000
0000
0000
,  // measure 55
3000
0000
0000
0000
,  // measure 56
0001
0000
0000
0000
,  // measure 57
0100
0000
0000
0000
,  // measure 58
0010
0000
0100
0000
,  // measure 59
0001
0000
0000
0000
,  // measure 60
1000
0000
0001
0000
,  // measure 61
0100
0000
0001
0100
,  // measure 62
0020
0000
0000
0000
,  // measure 63
0130
0000
0010
0000
,  // measure 64
2000
0000
0000
0000
,  // measure 65
0000
0000
3000
0000
,  // measure 66
0002
0000
2000
0000
,  // measure 67
0000
0000
3003
0000
,  // measure 68
0002
0000
0000
0000
,  // measure 69
0103
0000
0001
0000
,  // measure 70
1000
0000
0100
0000
,  // measure 71
0020
0000
0000
0000
,  // measure 72
0130
0000
0000
0000
,  // measure 73
0010
0000
0001
0000
,  // measure 74
1000
0000
0001
0000
,  // measure 75
0100
0000
0001
0000
,  // measure 76
1000
0000
0000
0000
,  // measure 77
0100
0000
1000
0000
,  // measure 78
0010
0000
0100
0000
,  // measure 79
0001
0001
1000
1000
,  // measure 80
0100
0000
1000
0100
,  // measure 81
0010
0000
0100
0010
,  // measure 82
0001
0000
0001
1000
,  // measure 83
0010
0000
1000
0001
,  // measure 84
0010
0000
0001
0000
,  // measure 85
0100
0000
0000
0000
,  // measure 86
0001
0000
1000
0000
,  // measure 87
0100
0000
0000
0000
,  // measure 88
1000
0000
0010
0000
,  // measure 89
1000
0000
0000
0000
,  // measure 90
0001
0000
0010
0000
,  // measure 91
0100
0000
0010
0100
;

//---------------dance-single - ----------------
#NOTES:
     dance-single:
     :
     Beginner:
     2:
     0.145939,0.206756,0.015023,0.022535,0.000000,131.000000,2.000000,3.000000,0.000000,0.000000,0.000000,0.145939,0.206756,0.015023,0.022535,0.000000,131.000000,2.000000,3.000000,0.000000,0.000000,0.000000:
0000
0000
0000
0000
,
0000
0000
0000
0000
,
0000
0000
0000
0000
,
0000
0000
0000
0000
,
1000
0000
0000
0000
,
0100
0000
0000
0000
,
1000
0000
0000
0000
,
0001
0000
0000
0100
,
0100
0000
0000
0000
,
0010
0000
0000
0000
,
1000
0000
0001
0000
,
0100
0000
0000
0000
,
0010
0000
0000
0000
,
0100
0000
0000
0000
,
0001
0000
0000
1000
,
1000
0000
0000
0000
,
1001
0000
0000
0000
,
0000
0000
0000
0010
,
0010
0000
0100
0000
,
0001
0000
1000
0000
,
0001
0000
0000
0000
,
0000
0000
0000
1000
,
1000
0000
1000
0000
,
0001
0000
0100
0000
,
0010
0000
0000
0000
,
0000
0000
0000
0000
,
0100
0100
0000
0000
,
0001
0001
0000
0000
,
1000
1000
0000
0000
,
0010
0010
0100
0100
,
0010
0100
0000
0000
,
0100
0001
0000
0000
,
1000
0000
0000
0000
,
0001
0000
0000
0000
,
0100
0000
0000
0000
,
0000
0000
0010
0000
,
0000
0000
0000
0000
,
1000
0000
0000
0000
,
0000
0000
0001
0000
,
0000
0000
0000
0000
,
1000
0000
0000
0010
,
0000
0000
1000
0000
,
0001
0001
0000
0000
,
1000
0000
0000
0001
,
0000
0000
0100
0000
,
0010
1001
0000
0000
,
0100
0000
0000
0010
,
0000
0000
0100
0000
,
0001
0001
0000
0000
,
1000
1000
0000
0010
,
0010
0000
0100
0000
,
0000
0001
0000
0000
,
1000
0000
0000
0000
,
0000
0000
0000
0000
,
0002
0000
0000
0000
,
0003
0000
0000
0000
,
0100
0000
0000
0000
,
0010
0000
0000
0000
,
1000
0000
1000
0000
,
1000
0000
0000
0000
,
0010
0000
0000
0000
,
0100
0000
0001
0000
,
0002
0000
0000
0000
,
0003
0000
1000
0000
,
1000
0000
0000
0000
,
0000
0000
0000
0000
,
0020
0000
0000
0000
,
0000
0000
0030
0000
,
0100
0000
0000
0010
,
0010
0000
1000
0000
,
0001
0000
0001
0000
,
0001
0000
0000
0000
,
1000
0000
0000
0100
,
0100
0000
1000
0000
,
0010
0000
0100
0000
,
0001
0000
1000
0000
,
0001
0000
0000
0000
,
1000
0000
0000
0000
,
0001
0000
0000
0000
,
0100
0100
0010
0010
,
1000
0000
0001
0001
,
0001
0000
1000
1000
,
1000
0000
0010
0010
,
0010
0000
0100
0100
,
0100
0000
0010
0000
,
0000
0000
1000
1000
,
0000
0001
0000
0000
,
0000
0100
0000
0010
,
0000
0100
0000
0000
,
0000
0001
0000
1000
,
0000
0001
0000
0000
,
1000
0000
0001
0001
;
