#TITLE:Usatei 2011;
#SUBTITLE:;
#ARTIST:COOL&CREATE;
#TITLETRANSLIT:;
#SUBTITLETRANSLIT:;
#ARTISTTRANSLIT:;
#GENRE:;
#CREDIT:;
#BANNER:Usatie 2011.png;
#BACKGROUND:Usatie 2011-bg.png;
#LYRICSPATH:;
#CDTITLE:;
#MUSIC:Usatei 2011.ogg;
#OFFSET:1.081000;
#SAMPLESTART:92.391678;
#SAMPLELENGTH:10.105263;
#LASTBEATHINT:0.193167;
#SELECTABLE:YES;
#BPMS:0.000000=190.000000
;
#STOPS:
;
#BGCHANGES:;
#KEYSOUNDS:;
#ATTACKS:;

//---------------dance-single - ----------------
#NOTES:
     dance-single:
     :
     Hard:
     10:
     0.688612,0.797355,0.482028,0.337420,0.172727,600.000000,540.000000,60.000000,42.000000,0.000000,0.000000,0.688612,0.797355,0.482028,0.337420,0.172727,600.000000,540.000000,60.000000,42.000000,0.000000,0.000000:
0000
0000
0000
0000
,
0000
0000
0000
0000
,
1001
0001
0001
0001
,
0001
0000
0001
0000
0001
0100
0010
0000
,
1000
1000
1000
1000
,
1000
0000
0010
1000
1100
0000
0110
0000
,
0100
0100
0100
0100
,
0100
0000
0100
0000
0100
0010
0001
0000
,
1000
1000
1000
1000
,
0001
1000
0010
1000
0100
0000
0000
0000
,
1000
0001
0100
0001
0010
0001
0100
0001
,
1000
0001
0010
0001
0010
0100
1000
0000
,
0001
1000
0010
1000
0100
1000
0010
1000
,
0010
1000
0100
0010
0011
0000
1100
0000
,
0100
0010
0001
0010
1000
0010
0100
0010
,
0001
0010
0100
1000
0010
0100
0001
0000
,
1000
0000
0100
0000
0001
0000
0100
0000
0010
0000
0001
0000
0100
0000
0010
1000
,
0001
0000
0010
0100
1000
0000
0001
0000
1001
0000
0000
0000
0000
0000
0000
0000
,
1000
0010
1000
0010
,
0100
0010
0200
0320
,
0130
0001
0100
0001
,
0100
0010
2000
3002
,
1003
0100
1000
0001
,
0100
0001
0020
0032
,
1003
0010
0100
0010
,
1000
0001
0010
0100
,
1000
0001
0010
0001
1000
0100
0010
0001
,
0100
0001
1000
0010
0002
0000
0003
0000
,
0001
0010
0100
0010
1000
0001
1000
0100
,
1000
0001
0010
0100
0010
0000
0000
0000
,
0100
1000
0010
0100
0001
0100
0010
0100
,
0001
1000
0010
1000
0100
0000
0000
0000
,
1000
1000
0010
0100
0001
0001
0100
0010
,
1000
1000
0010
0100
0001
0001
0100
0010
,
0200
0000
0301
2000
0000
3100
0010
0100
,
1000
0010
0100
0001
0010
0001
1000
0100
,
0020
0000
0031
0200
0000
0310
1000
0001
,
0011
1100
0101
1010
,
0020
0000
1030
0200
0000
0301
0100
0010
,
0001
1000
0010
1000
0100
0010
0100
0010
,
0002
0000
1003
0020
0000
0130
0001
0010
,
0011
1100
0101
1010
,
2001
0000
3001
0200
0000
0310
1000
0001
,
0100
0010
1000
0001
0010
0100
0010
0001
,
2000
0000
3010
0200
0000
0310
1000
0100
,
0110
0011
0110
1100
,
0200
0000
0310
0002
0000
0103
1000
0100
,
0010
1000
0001
0010
0001
1000
0100
0010
,
0002
0000
1003
0020
0000
0130
0001
0010
,
0011
0000
0000
0000
1100
0000
0000
0000
0101
0000
0000
0000
1100
0000
0000
1000
,
0100
0000
0000
0010
0001
0000
0000
0001
0100
0000
0000
0100
0010
0000
0000
0010
,
1000
0000
0000
1000
0001
0000
0000
0001
0010
0000
0000
0010
0100
0000
0000
0100
,
1000
0000
0000
1000
0010
0000
0000
0010
0100
0000
0000
0100
0001
0000
0000
0001
,
1000
0000
0000
1000
0001
0000
0000
0001
1000
0000
0000
1000
0001
0000
0000
0001
,
0010
0000
0000
0100
1000
0000
0000
1000
0010
0000
0000
0100
0001
0000
0000
0010
,
0100
0000
0000
1000
0100
0000
0000
0010
0001
0000
0000
0010
0100
0000
0000
1000
,
0100
0000
0000
0100
0010
0000
0000
0010
0001
0000
0000
1000
0010
0000
0000
0100
,
0001
0000
0000
0001
0010
0000
0000
0010
0100
0000
0000
0100
1000
0000
0000
0000
,
2002
0000
0000
0000
,
0000
0000
0000
0000
0000
0000
3003
0010
,
1001
0000
1000
0100
,
0010
0000
0011
1100
,
1001
0000
0001
0100
,
0010
1000
0010
0100
0002
0000
0000
0003
,
1001
0000
0110
0000
,
1001
0110
1001
0110
,
0001
1000
0001
1000
0001
1000
0010
0000
,
1000
0001
1000
0001
1000
0001
0100
0000
,
1001
0000
1001
0000
1001
0000
0001
0010
,
1001
0000
1001
0000
1001
0000
1000
0010
,
0100
0001
1001
0000
0010
1000
1001
0000
,
0010
1000
1001
0000
0100
0001
1001
0000
,
0101
0000
1000
1000
0010
0010
0101
0000
,
1100
0000
0000
0000
0010
0000
0010
0000
0001
0010
0000
0100
1000
0000
0001
0000
,
1002
0103
0020
1030
,
0200
0000
0000
0000
0310
0000
0000
0000
0001
0000
0000
1000
0000
0000
0001
0000
,
0020
0000
0001
0000
0031
1000
0010
0100
,
0000
0000
0010
0000
1000
0000
0001
0000
0000
0000
1000
0001
1000
0000
0000
0000
,
0002
0013
0200
1300
,
0200
0000
0000
0000
0310
0000
0000
0000
0100
0000
0000
0010
0000
0000
0002
0000
,
2000
0000
0000
3003
,
1000
0001
1100
0011
,
0200
0310
0002
0103
,
0001
0000
0000
0000
0000
0000
0000
0000
1000
0000
0000
0010
0000
0000
0100
0000
,
0001
0000
0010
0000
0100
0010
0001
0010
,
0000
0100
0010
0100
1000
0010
0100
0000
,
0020
0000
0000
0000
0000
0000
0000
0000
1030
0000
0000
0001
0000
0000
0010
0000
,
0100
0000
1100
0100
,
1001
0000
0110
0000
,
1001
0110
2002
3003
,
0001
0100
0001
0100
0010
1000
0010
1000
,
0010
0100
0010
0100
0010
1000
1001
0000
,
1000
0100
1000
0100
0010
0100
0010
0100
,
0010
0001
0010
0100
1000
0000
1001
0000
,
0001
0100
0001
0100
0010
0100
0010
0100
,
0010
1000
0010
1000
0010
0100
1001
0000
,
1000
0000
0100
0000
0001
0000
0100
0000
1000
0000
0100
0000
0001
0000
0100
0010
,
1000
0000
0001
1000
0100
0000
0010
0000
2002
0000
0000
0000
0000
0000
0000
0000
,
0000
3000
0000
0000
,
0000
0003
0000
0000
;

//---------------dance-single - ----------------
#NOTES:
     dance-single:
     :
     Easy:
     6:
     0.455632,0.637884,0.514164,0.152642,0.000000,397.000000,333.000000,64.000000,19.000000,0.000000,0.000000,0.455632,0.637884,0.514164,0.152642,0.000000,397.000000,333.000000,64.000000,19.000000,0.000000,0.000000:
0000
0000
0000
0000
,
0000
0000
0000
0000
,
0001
0000
1000
0000
,
0001
0000
0100
0001
,
0010
0000
0100
0000
,
0010
0100
1100
1100
,
1001
0000
0001
0000
,
1000
0000
0010
0010
,
0110
0000
1001
0000
,
0110
0110
0110
0000
,
0100
0001
0100
0001
,
0100
0000
0001
0000
0100
0001
0100
0000
,
0001
1000
0001
1000
,
0001
0010
0110
1100
,
0100
0100
0010
0010
,
0001
0000
0001
0000
1000
0001
1000
0000
,
0001
0001
1000
1000
,
0010
0100
0001
1000
0001
0000
0000
0000
,
1000
0000
0100
0000
,
1000
1000
0020
0130
,
0001
0000
0100
0000
,
0010
1000
0200
1300
,
0100
0000
0010
0000
,
0001
0010
0001
2000
,
3001
0000
0100
0000
,
0001
0001
1000
0010
,
1000
0100
0010
0001
,
1000
0100
0010
0001
1000
0000
0000
0000
,
0001
0010
0100
1000
,
0001
0010
0100
1000
0001
0000
0000
0000
,
0100
0010
1000
0001
,
0100
0010
1000
0001
1000
0000
0000
0000
,
1001
0000
1001
0000
,
1001
1001
1001
1001
,
0001
0100
0010
1000
,
0010
0010
0100
0100
,
0010
1000
0100
0010
,
0011
0011
1100
1100
,
0100
1000
0010
0100
,
0001
0001
1000
1000
,
0001
0100
0010
1000
,
1010
1010
0101
0101
,
0001
1000
0100
1000
,
0010
0010
0100
0100
,
0001
0100
0010
1000
,
1001
1001
1001
1001
,
0001
0100
0010
1000
,
0100
1000
0010
0100
,
0001
0100
0010
1000
,
1001
0110
1001
0110
,
0001
1001
1000
1001
,
0001
1001
1000
1001
,
0001
1001
1000
1001
,
0001
1001
1000
1001
,
0001
1001
1000
1001
,
0001
1001
1000
1001
,
0001
1001
1000
1001
,
1001
0110
1001
0110
,
2002
0000
0000
0000
,
0000
0000
0000
0000
0000
0000
0000
3000
,
0003
0000
0000
0000
,
0000
0000
0200
0000
,
0310
0000
0000
0000
,
0000
0000
0020
0000
,
0130
0000
0100
0000
,
0100
0100
0100
0100
,
0001
0001
0001
1001
,
1000
1000
1000
1001
,
0010
0000
0010
0000
0010
0000
0100
0010
,
0100
0000
0100
0000
0100
0000
0010
0100
,
0001
1001
1000
1001
,
0001
1001
1000
1001
,
1000
0000
0001
0100
0001
0100
0001
0000
,
1000
0000
0100
1000
0100
1000
0100
0000
,
2000
0000
3002
0000
,
0103
0000
0010
1000
,
0002
0000
0003
1000
,
0100
1000
0001
0010
,
0200
0000
0320
0000
,
0031
0000
1000
0001
,
0200
0000
0000
0000
,
0300
0000
0010
0100
,
0002
0000
2003
0000
,
3010
0000
1000
0001
,
1000
0000
0000
0010
,
0100
0001
1000
1000
,
0200
0000
1300
0100
,
0010
0000
0100
1000
,
1001
0000
0110
0000
,
1001
0110
2002
3003
,
1000
1000
0010
0010
,
0100
0000
0100
0000
0001
0100
0001
0000
,
0100
0100
0010
0010
,
0100
0010
0110
1001
,
0001
0001
1000
1000
,
0010
0000
0010
0000
0100
0001
0100
0000
,
0010
0010
1000
1000
,
0001
1000
0010
0100
0002
0000
0000
0000
,
0000
0000
0000
0000
,
0000
0003
0000
0000
;

//---------------dance-single - ----------------
#NOTES:
     dance-single:
     :
     Medium:
     8:
     0.557776,0.717620,0.538265,0.128541,0.016068,486.000000,419.000000,67.000000,16.000000,0.000000,0.000000,0.557776,0.717620,0.538265,0.128541,0.016068,486.000000,419.000000,67.000000,16.000000,0.000000,0.000000:
0000
0000
0000
0000
,
0000
0000
0000
0000
,
1001
0001
0001
0001
,
0001
0001
0100
0001
,
1001
1000
1000
1000
,
1000
1000
1100
1001
,
0101
0100
0100
0100
,
0100
0100
0010
0100
,
0110
0000
1001
0000
,
0110
1001
0110
0000
,
0010
1000
0010
0100
,
0001
0000
0010
0000
0100
1000
0100
0000
,
1000
0010
0100
0001
,
1000
0000
0001
1000
0010
0000
0100
0000
,
0001
1000
0100
0001
,
0100
0000
1000
0000
0100
0010
1000
0000
,
0001
0100
0010
1000
,
0001
0010
0100
0010
0001
0000
0000
0000
,
1000
0001
0100
0001
,
1000
0100
0010
0010
,
0100
1000
0010
0100
,
0001
0010
0100
0100
,
0010
0001
0100
0001
,
1000
0100
1000
0001
,
0100
0001
1000
0100
,
0010
0100
1000
0010
,
0100
0100
0001
0001
,
0100
0001
0100
0010
1000
0000
0000
0000
,
0100
0010
1000
0001
,
1000
0100
0010
0100
0001
0000
0000
0000
,
0001
0100
1000
0010
,
0100
0100
0010
1000
0001
0000
0000
0000
,
0001
0100
0010
1000
0001
0100
0010
1000
,
0001
0100
0010
1000
0001
0100
0010
1000
,
0001
0000
1000
0001
0000
0001
1000
0000
,
0010
0100
0001
0010
,
0100
0000
1000
0100
0000
0100
0010
0001
,
0011
1100
0011
1100
,
0100
0000
0100
1000
0000
1000
0010
0000
,
0100
0001
0001
0100
,
0010
0000
0100
0010
0000
0100
0010
1000
,
1001
1001
0110
0110
,
0010
0000
1000
0010
0000
0010
0100
0000
,
0001
0001
0010
0100
,
1000
0000
0100
0010
0000
0100
1000
0001
,
1001
0101
1001
1100
,
0100
0000
1000
0010
0000
0100
0010
0000
,
1000
0001
0010
0100
,
1000
0000
0100
1000
0000
0010
0100
0001
,
1001
0110
1001
0110
,
1001
1001
1001
1001
,
1001
1001
1001
1001
,
0110
0110
0110
0110
,
0110
0110
0110
0110
,
0101
0101
1010
1010
,
1100
1100
0011
0011
,
1100
0011
0101
1010
,
0011
0110
1100
0110
,
2002
0000
0000
0000
,
0000
0000
3003
0000
0000
0000
0000
0001
,
1000
0000
0000
0000
,
0000
0000
0020
0100
,
0130
0000
0010
0000
,
0100
0000
0002
0000
,
1003
0000
1000
0000
,
1000
1000
1000
1000
,
0001
0100
0001
0100
0001
0100
0001
0000
,
1000
0001
1000
0001
1000
0001
1000
0000
,
0100
0000
0100
0000
0100
0000
0100
0010
,
0100
0000
0100
0000
0100
0000
0100
0010
,
0001
0010
0001
0000
0010
0001
0010
0000
,
0100
1000
0100
0000
1000
0100
1000
0000
,
0100
0000
1000
0100
0010
0001
1000
0000
,
0001
0000
0001
0010
0100
1000
0001
0000
,
2000
0000
3020
0000
,
0130
0000
0000
0000
0000
0000
0000
0000
0010
0000
0000
0100
0000
0000
0001
0000
,
2000
0000
0000
0000
3000
0001
0100
0010
,
0000
0100
0010
1000
0000
0010
0100
0000
,
0020
0000
2030
0000
,
3001
0000
0000
0000
0000
0000
0000
0000
1000
0000
0000
0100
0000
0000
0001
0000
,
0200
0000
0000
0000
,
0300
0000
1100
0011
,
2001
0000
3020
0000
,
0130
0000
0000
0000
0000
0000
0000
0000
0010
0000
0000
0100
0000
0000
0010
0000
,
1000
0000
0000
0000
0000
0001
1000
0001
,
0000
1000
0100
0000
0010
0001
1000
0000
,
0001
0000
0000
0000
0000
0000
0000
0000
1000
0000
0000
0010
0000
0000
0100
0000
,
0001
0000
0100
0010
,
1001
0000
0110
0000
,
1001
0110
2002
3003
,
1000
0100
0010
0001
1000
0100
0010
0001
,
1000
0100
0010
0001
0010
0100
1000
0000
,
0001
0010
0100
1000
0001
0010
0100
1000
,
0001
0010
0100
0010
0001
0000
1000
0000
,
0001
1000
0010
0100
0001
1000
0010
0100
,
0001
1000
0010
0100
0001
1000
0010
0000
,
1000
0010
0100
0001
1000
0010
0100
0001
,
1000
0100
0010
0002
2000
0000
0000
0000
,
0000
0000
0000
0000
,
0000
3003
0000
0000
;

//---------------dance-single - ----------------
#NOTES:
     dance-single:
     :
     Challenge:
     12:
     0.919297,1.315636,0.441859,0.273149,0.586468,801.000000,746.000000,55.000000,34.000000,0.000000,0.000000,0.919297,1.315636,0.441859,0.273149,0.586468,801.000000,746.000000,55.000000,34.000000,0.000000,0.000000:
// measure 0
0000
0000
0000
0000
,  // measure 1
0000
0000
0000
0000
,  // measure 2
1000
1000
0010
0100
0001
0001
0010
0100
,  // measure 3
1000
1000
0100
0001
0100
0010
0001
0000
,  // measure 4
1000
1000
0010
0100
0001
0001
0010
0100
,  // measure 5
1000
0100
0001
0100
0102
0000
2003
0000
,  // measure 6
3001
0001
0100
0010
1000
1000
0100
0010
,  // measure 7
0001
0001
0010
1000
0010
0100
0200
1300
,  // measure 8
1001
0000
0001
0100
1010
0000
1000
0001
,  // measure 9
0011
0000
0010
0100
1000
0000
1000
0001
0010
0000
0000
0000
0000
0000
0000
0000
,  // measure 10
1000
0000
0001
0100
0001
0000
0100
0010
0100
0000
0010
1000
0010
0000
1000
0001
,  // measure 11
1000
0000
1000
0010
1000
0000
0001
0000
0010
0000
0001
0000
0100
0000
0000
0000
,  // measure 12
0010
0000
1000
0001
1000
0000
0001
0100
0001
0000
0010
0001
0010
0000
0100
0010
,  // measure 13
0100
0000
1000
0100
1000
0000
0001
0000
0021
0000
0000
0000
0230
0000
0000
0000
,  // measure 14
1300
0000
0001
0010
0100
0000
0010
0001
0100
0000
0010
1000
0001
0000
0100
0010
,  // measure 15
0001
0000
0100
1000
0010
0000
1000
0000
0001
0000
0100
0000
1001
0000
0000
0000
,  // measure 16
1000
0000
0001
0100
0010
0000
1000
0100
0010
0000
0100
0010
0001
0000
1000
0001
,  // measure 17
1001
0000
0001
1000
1001
0000
0110
0000
1001
0000
0000
0000
0000
0000
0000
0000
,  // measure 18
0001
0000
1000
0010
0000
0100
0000
0001
,  // measure 19
0000
1000
0100
0000
2000
0000
3020
0000
,  // measure 20
0130
0000
0010
1000
0000
0001
0010
0100
,  // measure 21
0000
0010
0001
0000
2000
0000
3002
0000
,  // measure 22
0103
0000
0001
0010
0000
0001
0100
0010
,  // measure 23
0000
1000
0010
0000
0200
0000
0302
0000
,  // measure 24
0013
0000
0100
1000
0000
0100
1000
0010
,  // measure 25
0000
0100
0010
0000
1000
0000
0001
0000
,  // measure 26
1000
0100
0001
0100
1000
0010
0001
0010
,  // measure 27
0100
0001
1000
0020
0002
0033
0000
0000
,  // measure 28
0001
0100
1000
0100
0001
0010
1000
0010
,  // measure 29
0001
0010
0100
0001
1000
0000
0000
0000
,  // measure 30
1000
0100
0001
0100
1000
0100
0001
0100
,  // measure 31
0010
0100
1000
0100
0010
0000
0001
0000
1000
0000
0000
0000
0000
0000
0000
0000
,  // measure 32
1001
1000
0001
0010
1001
1000
0001
0010
,  // measure 33
1001
1000
0001
0010
1001
1000
0001
0010
,  // measure 34
0100
0000
0010
0001
0100
0000
0010
0000
1000
0001
0010
0001
1000
0000
0100
0000
,  // measure 35
1000
0010
0001
0010
1000
0010
0100
0001
,  // measure 36
0010
0000
0100
1000
0010
0000
0100
0000
0001
0010
0100
0010
0001
0000
0100
0000
,  // measure 37
1001
0001
1001
1000
1100
0100
0110
0000
,  // measure 38
1000
0000
0001
1000
0010
0000
0100
0000
0001
0000
0010
0100
1000
0000
0001
0000
,  // measure 39
1000
0000
0010
1000
0001
0000
0010
0000
0100
0000
0010
0001
1000
0000
0001
0000
,  // measure 40
0100
0000
0001
0010
0001
0000
0100
0000
0010
0000
1000
0001
0010
0001
0100
0000
,  // measure 41
1001
1000
1100
0100
0110
0010
0011
0000
,  // measure 42
0010
0000
0100
1000
0010
0000
0100
0000
0001
1000
0100
1000
0001
0000
0010
0000
,  // measure 43
0001
0100
1000
0100
0001
0100
0010
1000
,  // measure 44
0100
0000
0010
0001
0100
0000
0010
0000
1000
0100
0010
0100
1000
0000
0010
0000
,  // measure 45
1001
1000
1001
0001
0011
0010
0110
0000
,  // measure 46
0001
0000
1000
0001
0100
0000
0010
0000
1000
0000
0100
0010
0001
0000
1000
0000
,  // measure 47
0001
0000
0100
0001
1000
0000
0100
0000
0010
0000
0100
1000
0001
0000
1000
0000
,  // measure 48
0010
0000
1000
0100
1000
0000
0010
0000
0100
0000
0001
1000
0100
1000
0010
0000
,  // measure 49
1001
0001
0011
0010
0110
0100
1100
0000
,  // measure 50
1000
0100
1000
0000
0100
0010
0100
0000
0010
0001
0010
0000
0001
0100
0001
0000
,  // measure 51
0100
0010
0100
0000
0010
1000
0010
0000
1000
0100
1000
0000
0100
0010
0100
0000
,  // measure 52
0010
0001
0010
0000
0001
0100
0001
0000
0100
0010
0100
0000
0010
1000
0010
0000
,  // measure 53
1000
0100
1000
0000
0100
0010
0100
0000
0010
0001
0010
0000
0001
0100
0001
0000
,  // measure 54
0100
0010
0100
0000
0010
1000
0010
0000
1000
0100
1000
0000
0100
0010
0100
0000
,  // measure 55
0010
0001
0010
0000
0001
0100
0001
0000
0100
0010
0100
0000
0010
1000
0010
0000
,  // measure 56
1000
0100
1000
0000
0100
0010
0100
0000
0010
0001
0010
0000
0001
0100
0001
0000
,  // measure 57
0100
0010
0100
0000
0010
1000
0010
0000
1000
0100
1000
0000
0100
0010
0100
0000
,  // measure 58
2002
0000
0000
0000
,  // measure 59
0000
0000
0000
0000
0000
0000
3003
0100
,  // measure 60
1001
0000
0000
0000
,  // measure 61
0000
0000
0000
0000
0000
0000
0000
0000
0004
0400
0000
0000
0000
0000
0303
0000
,  // measure 62
0001
0000
1000
0100
,  // measure 63
0010
0000
0100
0000
1000
0000
0010
0000
4000
0004
0000
0000
0000
0000
3003
0000
,  // measure 64
1001
0010
1001
0100
,  // measure 65
0110
0110
1001
1001
,  // measure 66
0001
0100
0001
0100
0001
0100
0010
0000
,  // measure 67
0200
0000
0000
0000
0301
0000
1000
0000
0001
0010
0001
0100
0010
1000
0001
0000
,  // measure 68
0011
0000
0011
0000
0011
0000
0010
0001
,  // measure 69
1000
0001
0100
0001
1000
0100
1000
0001
0100
0001
1000
0100
1000
0001
0100
0001
,  // measure 70
1000
0010
0100
0010
0100
0001
0010
0100
1000
0010
0100
0010
1000
0001
0010
0001
,  // measure 71
0100
0001
0010
0100
1000
0100
0010
0100
1000
0010
0100
0010
1000
0001
0010
0100
,  // measure 72
1000
0001
0010
0100
0010
0001
0100
0010
1000
0001
0100
0001
0020
0000
0000
0000
,  // measure 73
0130
0000
0000
0000
1000
0000
0100
0000
0010
0001
0000
0100
1000
0000
0001
0000
,  // measure 74
2001
3100
0020
0001
,  // measure 75
0230
0000
0000
0000
0310
0000
0000
0000
0001
0000
0000
0010
0000
0000
0001
0000
,  // measure 76
2000
0000
0001
0000
3001
0100
0010
1000
,  // measure 77
0000
0000
0010
0000
1000
0000
0001
0000
0000
0000
0001
1000
0100
0000
0000
0000
,  // measure 78
0020
0130
0200
0301
,  // measure 79
0200
0000
0000
0000
1300
0000
0000
0000
0100
0000
0000
1000
0000
0000
0002
0000
,  // measure 80
2000
0000
0000
3003
,  // measure 81
0001
0010
1100
0011
,  // measure 82
0201
0310
2010
3100
,  // measure 83
1002
0000
0000
0000
0103
0000
0000
0000
0001
0000
0000
0010
0000
0000
0001
0000
,  // measure 84
1000
0000
0100
0000
0010
0001
1000
0010
,  // measure 85
0000
0000
0100
0000
0010
0000
0001
0000
0100
0000
0010
1000
0001
0000
1000
0000
,  // measure 86
0001
0000
0001
0000
0010
0000
0000
0000
0100
0000
0000
1000
0000
0000
0100
0000
,  // measure 87
0010
0000
0000
0000
0000
0000
0000
0000
0021
0000
0030
0100
0010
0000
0001
0000
,  // measure 88
1001
0000
0001
1000
1001
0000
1000
0001
,  // measure 89
1001
0000
0010
0000
1001
0000
0100
0000
0001
1000
0001
1000
0001
0000
0100
0000
,  // measure 90
0010
1000
0010
0000
0100
0001
0100
0000
0001
0010
0001
0000
0010
0100
0010
0000
,  // measure 91
0100
1000
0100
0000
1000
0001
1000
0000
0001
0000
1000
0000
0010
0000
0000
0000
,  // measure 92
0100
0001
0100
0000
0010
1000
0010
0000
1000
0100
1000
0000
0100
0010
0100
0000
,  // measure 93
0010
0100
1000
0010
0200
0000
0302
0000
,  // measure 94
1003
0010
0100
0000
0010
1000
0001
0000
0010
0100
1000
0000
0100
0010
0001
0000
,  // measure 95
1000
0001
0100
0000
0010
1000
0001
0000
1000
0000
0001
0000
0100
0000
0000
0000
,  // measure 96
1001
0000
0000
0000
0000
0000
0010
0000
1001
0000
0000
0000
0000
0000
0100
0010
,  // measure 97
1000
0000
0001
0010
0100
0000
1000
0000
2002
0000
0000
0000
0000
0000
0000
0000
,  // measure 98
0003
0000
0000
0000
,  // measure 99
0000
3000
0000
0000
;

//---------------pump-single - ----------------
#NOTES:
     pump-single:
     :
     Hard:
     18:
     0.790756,1.315636,0.706975,0.249048,0.172727,689.000000,571.000000,88.000000,31.000000,0.000000,31.000000,0.790756,1.315636,0.706975,0.249048,0.172727,689.000000,571.000000,88.000000,31.000000,0.000000,31.000000:
00000
00000
00000
00000
,
00000
00000
00000
00000
,
10000
00001
10000
00001
01000
00001
01000
00001
,
00100
00010
01000
00010
00100
00010
10000
00000
,
00010
10000
00010
10000
00010
00100
00010
00100
,
00010
01000
00010
10000
10010
00000
10001
00000
,
10010
10000
00010
10000
00010
01000
00010
01000
,
00010
00100
00001
00010
00001
01000
00010
01000
,
01001
00000
00000
00001
01001
00000
00000
00010
,
10010
10000
00010
00100
00001
00000
00000
00000
,
01000
00010
00100
00010
01000
00100
01000
00010
,
00100
00010
01000
00100
10000
00001
01000
00000
,
00001
10000
00100
10000
00001
00100
00001
10000
,
00100
01000
00010
10000
10100
00000
01100
00000
,
01000
00010
10000
00001
01000
00010
10000
00001
,
01000
00010
10000
00001
01000
00001
00100
00000
,
00001
00000
01000
00000
00010
00000
10000
00000
01000
00000
10000
00000
00010
00000
01000
00001
,
00100
00000
00010
01000
00100
00000
00100
10000
00010
00000
00000
00000
00000
00000
00000
00000
,
10000
00010
01000
00000
00010
10000
01000
10000
,
00000
00010
01000
00000
00200
00000
02300
00000
,
03001
00000
01000
00001
00000
00001
10000
00010
,
00000
00010
01000
00000
00010
01000
00100
10000
,
00010
00000
10000
00001
00000
01000
00001
01000
,
00000
00010
00100
00000
00200
00000
00302
00000
,
01003
00000
00010
10000
00000
10000
00010
01000
,
00000
01000
00010
00000
01000
00010
20000
00000
,
30010
01000
00100
01000
00010
10000
00001
00010
,
00001
10000
00010
01000
00002
00000
00003
00000
,
01000
00010
00100
00001
01000
00010
10000
01000
,
10000
00010
01000
00001
00020
00000
00030
00000
,
00001
00100
00010
01000
00100
10000
00010
01000
,
00001
00100
00001
00100
00001
00000
10000
00000
20020
00000
00000
00000
30030
00000
00000
00000
,
10010
10000
00010
01000
01100
01000
00001
00010
,
00011
00010
00100
01000
11000
01000
00100
00010
,
00002
00000
10003
00020
00000
01030
00001
00010
,
00001
01000
00010
00100
00010
10000
00100
01000
,
00001
00000
01000
00010
00000
10000
00001
01000
,
01110
01110
01101
01101
,
00001
00000
01000
00010
00000
01000
00010
10000
,
01000
10000
01000
00100
00010
01000
00010
10000
,
00001
00000
10000
00001
00000
10000
00001
01000
,
01110
01110
10101
10101
,
10000
00100
00001
00100
00000
00100
00010
00001
,
01000
00001
01000
00010
10000
00010
01000
00001
,
00100
00000
00001
01000
00000
01000
00001
00100
,
00111
00111
11100
11100
,
10000
00001
01000
00001
00000
01000
00001
00010
,
00001
01000
00010
00100
00010
10000
00010
01000
,
00010
00000
01000
00001
00000
00001
10000
00010
,
01110
01110
10101
10101
,
10001
01010
10001
01010
,
10001
01010
10001
01010
,
00011
11000
00011
11000
,
00011
11000
00011
11000
,
10001
01010
10001
01010
,
11000
00011
11000
00011
,
01101
01101
01101
01101
,
10110
10110
10110
10110
,
20202
00000
00000
00000
,
00300
00000
00000
00000
00000
00000
30003
00100
,
10001
00000
00001
01000
,
00010
00000
10100
00101
,
01100
00000
00010
10000
,
00010
01000
00001
00010
00002
00000
00000
00000
,
01103
00000
00110
00000
,
10100
00101
10100
00101
,
10000
10000
00001
00001
10000
10000
00010
00000
,
02000
00000
00000
00000
03010
00000
10000
00000
00001
01000
00010
10000
00200
00000
00000
00000
,
01300
00000
00010
00000
01000
00000
00001
10000
,
01010
00000
01010
00000
01010
00000
10000
00001
,
01000
00000
00001
00000
00010
00001
01000
00010
00100
00001
10000
00010
01000
00100
01000
00010
,
10000
00010
01000
00001
01000
00010
10000
00010
01000
00100
01000
00010
10000
00010
01000
00001
,
01000
00001
10000
01000
10000
00010
01000
00001
00010
00001
01000
00010
10000
00001
01000
00010
,
00100
00001
00100
00010
01000
00010
10000
00100
10000
00100
01000
00010
10000
00001
10000
00001
,
02000
00001
03020
10000
,
01030
00000
00000
00000
00000
00000
00000
00000
00001
00000
00000
01000
00000
00000
00010
00000
,
20000
00000
00000
00000
00000
30001
01000
00010
,
00000
00010
10000
00001
00000
10000
00100
00000
,
02000
00100
03020
00100
,
01030
00000
00000
00000
00000
00000
00000
00000
00010
00000
00000
10000
00000
00000
00002
00000
,
02000
00000
00000
03003
,
00100
10000
10010
01001
,
00210
00000
00302
00000
,
01003
00000
00000
00000
00000
00000
00000
00000
00001
00000
00000
01000
00000
00000
00010
00000
,
10000
00000
00000
00000
00000
00010
01000
00100
,
00000
01000
00010
10000
00001
01000
00100
00000
,
10000
00000
10000
00000
00001
00000
00000
00000
01000
00000
00000
00001
00000
00000
01000
00000
,
00010
00000
10100
00101
,
10110
00000
01101
00000
,
00111
00000
11100
00000
01210
00000
00000
00300
,
10000
00010
10000
00010
01000
00010
01000
00010
,
01000
00001
00100
00001
10000
00010
00100
00000
,
10000
00001
10000
00001
00100
00001
00100
00001
,
00100
00010
00001
00010
00200
00000
00302
00000
,
01003
00001
01000
00001
00010
00001
00010
00001
,
00010
00001
10000
01000
10000
00010
01000
00000
,
10001
00000
00000
00000
10000
00000
00010
00000
01010
00000
00000
00000
01000
00000
00010
10000
,
00010
00000
01000
00001
01000
00000
00010
00000
02002
00000
00000
00000
00000
00000
00000
00000
,
00000
00003
00000
00000
,
00000
03000
00000
00000
;

//---------------dance-single - ----------------
#NOTES:
     dance-single:
     :
     Beginner:
     2:
     0.149199,0.234989,0.040169,0.000000,0.000000,130.000000,125.000000,5.000000,0.000000,0.000000,0.000000,0.149199,0.234989,0.040169,0.000000,0.000000,130.000000,125.000000,5.000000,0.000000,0.000000,0.000000:
0000
0000
0000
0000
,
0000
0000
0000
0000
,
1001
0000
0000
0000
,
0000
0000
0000
0000
,
0010
0000
0000
0000
,
0000
0000
0100
0100
,
0100
0000
0000
0000
,
0000
0000
0000
0000
,
0010
0000
0010
0000
,
1000
1000
1000
0000
,
0001
0000
0000
0000
,
1000
0000
0000
0000
,
0010
0000
0000
0000
,
1000
0000
0001
0001
,
0001
0000
0000
0000
,
1000
0000
0000
0000
,
0010
0000
0100
0000
,
0010
0100
1001
0000
,
0000
0000
0000
0000
,
0000
0000
0000
0000
,
0000
0000
0000
0000
,
0000
0000
0000
0000
,
0000
0000
0000
0000
,
0000
0000
0000
0000
,
0000
0000
0000
0000
,
0000
0000
0000
0000
,
0001
0000
0000
0000
,
0100
0000
0000
0000
,
0010
0000
0000
0000
,
1000
0000
0000
0000
,
0100
0000
0000
0000
,
1000
0000
0000
0000
,
0010
0000
0010
0000
,
0100
0000
0100
0000
,
0001
0000
0000
0000
,
0001
0000
0000
0000
,
1000
0000
0000
0000
,
0010
0010
0010
0010
,
0100
0000
0000
0000
,
0010
0000
0000
0000
,
1000
0000
0000
0000
,
0001
0001
0001
0001
,
1000
0000
0000
0000
,
0010
0000
0000
0000
,
0100
0000
0000
0000
,
0010
0010
0010
0010
,
0100
0000
0000
0000
,
0010
0000
0000
0000
,
1000
0000
0000
0000
,
0001
0001
0001
0001
,
1000
0000
0000
0000
,
0001
0000
0100
0000
,
0001
0000
0000
1000
,
1000
0000
0000
0000
,
0010
0000
1000
0000
,
0100
0000
1000
0000
,
0001
0000
0100
0000
,
0010
0000
1000
0000
,
1001
0000
0000
0000
,
0000
0000
0000
0000
,
0000
0000
0000
0000
,
0000
0000
0000
0000
,
1000
0000
0000
0000
,
0000
0000
0000
0000
,
0001
0000
0001
0000
,
0001
0000
0000
0000
,
0100
0000
0000
0000
,
0100
0000
0000
0000
,
0010
0000
0000
0000
,
0010
0000
0000
0000
,
1000
0000
0000
0000
,
1000
0000
0000
0000
,
0001
0000
0000
0000
,
0001
0000
0000
0000
,
1000
0000
1000
0000
,
1000
0000
0000
0000
,
0010
0000
0000
0000
,
0100
0000
0000
0000
,
0001
0000
0001
0000
,
0001
0000
0000
0000
,
1001
0000
0000
0000
,
0000
0000
1000
0001
,
0100
0000
0100
0000
,
0100
0000
0000
0000
,
0010
0000
0000
0000
,
1000
0000
0000
0000
,
0001
0000
1000
0000
,
0001
0000
0000
0000
,
1000
0000
0001
0000
,
1000
1000
1000
0000
,
0010
0000
0000
0000
,
0100
0000
0000
0000
,
0001
0000
0000
0000
,
1000
0000
0001
0001
,
1000
0000
0000
0000
,
0010
0000
0000
0000
,
0100
0000
0100
0000
,
0010
0010
1001
0000
;
