#TITLE:Ultra Soba Noodles;
#SUBTITLE:;
#ARTIST:Takahiro Eguchi;
#TITLETRANSLIT:;
#SUBTITLETRANSLIT:;
#ARTISTTRANSLIT:;
#GENRE:;
#CREDIT:;
#BANNER:Ultra Soba Noodles.png;
#BACKGROUND:Ultra Soba Noodles-bg.png;
#LYRICSPATH:;
#CDTITLE:;
#MUSIC:Ultra Soba Noodles.ogg;
#OFFSET:-5.501999;
#SAMPLESTART:16.160000;
#SAMPLELENGTH:12.000000;
#SELECTABLE:YES;
#BPMS:0.000000=180.000000
;
#STOPS:28.000000=0.167000,
28.500000=0.167000,
29.000000=0.167000,
29.500000=0.167000,
122.000000=0.167000,
122.500000=0.167000,
123.000000=0.167000,
123.500000=0.167000,
152.000000=0.167000,
152.500000=0.167000,
153.000000=0.333000,
182.000000=0.167000,
182.500000=0.167000,
183.000000=0.333000,
212.000000=0.167000,
212.500000=0.167000,
213.000000=0.333000,
308.000000=0.333000
;
#BGCHANGES:;
#KEYSOUNDS:;
#ATTACKS:;

//---------------dance-single - ----------------
#NOTES:
     dance-single:
     :
     Hard:
     9:
     0.667557,0.649136,0.617175,0.240458,0.008015,476.000000,77.000000,30.000000,0.000000,0.000000,0.000000,0.667557,0.649136,0.617175,0.240458,0.008015,476.000000,77.000000,30.000000,0.000000,0.000000,0.000000:
0002
0103
0020
0130
,
0002
0103
0020
0130
,
0020
0000
1030
0200
0000
1300
0002
0000
,
0000
0000
0000
0003
,
2000
3010
0200
0310
,
2000
3010
0200
0310
,
0200
0000
0301
0010
0100
0100
0100
0000
,
0010
0001
0100
1010
0001
0100
0010
0100
,
0000
2002
0000
3003
1000
0100
1000
0100
,
0010
1000
0001
0000
0001
0000
1000
0000
,
0010
0010
0000
0000
0100
0001
0100
0001
,
0100
0010
0100
0010
1000
1000
0001
1000
,
0001
0001
1000
0001
0011
0000
1100
0000
,
0011
0000
1100
0000
1000
0000
0001
0020
,
0000
0000
0130
1000
,
0001
0000
0010
0000
0100
0100
1000
0010
,
0000
0220
0000
0330
0010
0100
0010
1000
,
0100
1000
0001
0000
0100
0000
0010
0000
,
1000
0100
0000
0000
0100
1000
0001
0010
,
0100
0010
0001
1000
0001
0001
1000
0001
,
1000
1000
0001
1000
1001
0000
0110
0000
,
1001
0000
0110
0000
0001
0000
0100
0002
,
0000
0000
0103
0010
,
1000
0100
0001
0000
0100
1000
0010
0100
,
0001
0010
0001
0100
0010
0100
0010
1000
,
0100
0010
0100
1000
0001
0100
0010
1000
,
0010
0100
0010
1000
0001
0100
0010
1000
,
0100
0010
0001
0100
0100
0001
0100
0010
,
1000
0100
1000
0010
0100
0010
0100
0001
,
0010
0100
0010
0001
1000
0010
0100
0001
,
0100
0010
0100
0001
0100
0001
2000
3000
,
1001
0000
0010
1001
0000
0010
0010
0000
,
0100
0001
0100
0010
0000
1000
0010
0000
,
1001
0000
0100
1001
0000
0001
0001
0000
,
1000
1000
1000
0001
0100
0100
0010
0000
,
1001
0000
0010
0110
0000
0100
1000
0000
,
1000
0001
0100
0001
0000
0001
0010
0000
,
0011
0000
0001
1100
0000
1000
0001
1000
,
1001
0110
1001
0000
0102
0000
0000
0013
,
0000
0100
0010
0000
2100
0000
0000
3001
,
0000
0001
0100
0100
1020
0000
0000
0130
,
0000
0100
0001
1000
0100
0001
0100
0010
,
0001
0100
1000
0100
0210
0000
0000
0301
,
0000
1000
0010
0000
0010
0010
1000
0100
,
0100
0010
0001
0000
2001
0000
0000
3100
,
0000
0100
0010
0001
0011
1100
0011
0000
,
0101
0001
1001
1001
0000
0001
1000
0000
,
0100
0100
0010
0001
0000
0010
0100
0000
,
0110
0100
1100
1001
0000
0001
0001
0000
,
1000
1000
0001
0100
0100
0010
0100
0001
,
0011
0010
0110
1100
0000
0100
0010
0000
,
0100
1000
0001
0100
0000
0010
0100
0000
,
1001
0001
1001
0101
0000
0001
0100
0100
,
0110
1001
0110
0000
0100
0000
0010
1000
,
0000
0010
0100
0000
0000
0001
0000
0001
,
0000
0001
0000
0001
1000
0000
1000
0100
,
0000
0100
0010
0000
0000
0100
0000
0100
,
0000
0100
0000
0100
0010
0000
0010
0001
,
0000
0001
1000
0000
0000
0001
0000
0001
,
0000
0001
0000
0100
0001
0000
0100
0010
,
0000
0010
1000
0000
0000
0010
0000
0010
,
0000
0010
0000
0100
0001
0000
0001
0100
,
0000
0100
0010
0000
0000
0110
0000
0110
,
0000
0110
0000
0100
0100
0000
0001
0010
,
0000
0100
1000
0000
0000
1100
0000
1100
,
0000
1100
0000
0100
0010
0000
0100
1000
,
0000
0010
0100
0000
0000
0110
0000
0110
,
0000
0110
0000
0001
0100
0000
0010
1000
,
0000
0010
0100
0000
0000
0101
0000
0101
,
0000
0101
0000
0101
0001
0100
0001
0010
,
0000
2200
0000
3300
0100
0010
0001
0001
,
1000
0010
1010
0000
1010
0000
1000
0000
,
0001
0100
0000
0000
0010
0100
1000
0100
,
0000
0010
1000
0001
0010
0010
0100
0100
,
1000
1000
0001
0001
1001
0000
1001
0000
,
0110
0000
0110
0000
0100
0001
1000
0002
,
0000
0000
1003
0200
,
0000
0300
0000
0000
0000
0000
0000
0000
0000
0000
0000
0000
0000
0000
0000
0000
0010
0000
0000
0000
0000
0000
0000
0000
0010
0000
0000
0000
0000
0000
0000
0000
0001
0000
0000
0000
0000
0000
0000
0000
1000
0000
0000
0000
0000
0000
0000
0000
0000
0000
0000
0000
0000
0000
0000
0000
2002
0000
0000
0000
0000
0000
0000
0000
,
0000
3003
1000
0100
1000
0100
0010
0001
,
1001
0000
0011
0000
0100
0000
0010
0001
,
0000
0000
0000
0000
1000
0000
1000
0000
0001
0000
0001
0000
1000
0001
1000
0001
,
1000
0001
1000
1000
0001
0001
1000
0010
,
0100
0001
0101
0000
1001
0000
1100
0000
,
1001
0000
0100
0010
1000
0001
0010
0001
,
1000
0010
0110
0100
1010
0010
0110
0100
,
1001
0110
0000
0000
;

//---------------dance-single - ----------------
#NOTES:
     dance-single:
     :
     Medium:
     7:
     0.527862,0.512476,0.312595,0.144275,0.000000,404.000000,39.000000,18.000000,0.000000,0.000000,0.000000,0.527862,0.512476,0.312595,0.144275,0.000000,404.000000,39.000000,18.000000,0.000000,0.000000,0.000000:
0002
0000
0023
0000
,
0230
0000
0320
0000
,
0031
0000
1000
0002
0000
1003
0002
0000
,
0000
0000
0000
0003
,
0200
0000
0320
0000
,
0230
0000
0320
0000
,
0230
0000
0301
0100
0010
0010
0010
0000
,
0100
0010
1000
0001
1000
0100
0010
0001
,
0000
0010
0000
0000
0001
0000
0100
0001
,
0100
0010
0010
0010
,
0100
0010
0000
0000
0100
0001
0000
1000
,
0000
0100
1000
0000
0010
0100
0010
0100
,
0010
0100
0010
0100
0010
0000
1000
0000
,
0001
0000
0010
0000
0100
0000
0010
0200
,
0000
0000
1300
0100
,
0010
0000
0001
0000
1000
0001
0100
0010
,
0000
0100
0000
0000
0001
0000
0100
0010
,
0100
0010
1000
0001
,
0010
0100
0000
0000
0010
0000
0000
0001
,
0000
0000
1000
0000
0001
0100
0001
0100
,
0001
0100
0001
0100
0001
0000
0100
0000
,
0010
0000
1000
0000
0010
0000
0100
0002
,
0000
0000
1003
0100
,
0010
0000
0001
0000
1000
0001
0100
0000
,
0001
0100
0000
0010
1000
0000
0010
0100
,
0001
1000
0100
0010
0001
0000
0010
0000
,
0100
0010
0001
1000
,
0010
0000
0100
0000
0010
0100
0001
0000
,
1000
0001
0000
0001
0100
0000
0100
0001
,
0010
0100
1000
0100
1000
0000
0010
0000
,
0100
0000
0010
0000
1000
0100
0010
0001
,
1001
0000
0000
1001
0000
0001
0100
0000
,
0010
1000
0010
1000
0000
0010
0100
0000
,
0101
0000
0000
0101
0000
0001
0100
0000
,
0010
1000
0010
1000
0010
1000
0010
0000
,
1000
0000
0001
1000
0000
1000
0001
0000
,
0100
0010
0100
0010
0000
0010
0100
0000
,
0001
0000
0100
0010
0000
1000
0001
0010
,
0100
0010
0001
0000
1002
0000
0000
1003
,
0000
0100
1000
0000
0100
0010
0100
0010
,
0000
0010
0001
0000
1000
0000
0001
0100
,
0000
0010
1000
0000
0010
0100
0010
0100
,
0010
0100
0010
0000
0110
0000
0000
0110
,
0000
0100
0100
0000
0001
1000
0001
1000
,
0000
0010
1000
0000
1100
0000
0000
0110
,
0000
0010
0001
0010
0001
0001
0001
0000
,
1000
0001
1000
0001
0000
0001
1000
0000
,
1000
0010
1000
0001
0000
0010
0100
0000
,
1000
0100
0001
0100
0000
0010
0001
0000
,
0010
0100
0010
0100
0010
0100
0010
0000
,
0100
1000
0010
0100
0000
0001
0001
0000
,
0100
0010
1000
0001
0000
1000
1000
0000
,
0001
0100
0010
1000
0000
0100
0010
0001
,
1000
0010
0100
0000
0010
0000
1000
0000
,
0010
0100
0001
1000
,
0100
1000
0010
0100
,
0001
1000
0100
0010
,
0010
0010
0100
0100
,
0010
0010
0001
0001
,
1000
1000
0001
0100
,
0010
1000
2002
0000
,
0000
0000
3003
0000
0101
0000
0000
1010
,
0000
0000
0101
0000
0000
1001
0000
1001
,
0000
1001
0000
0001
0101
0000
0000
1100
,
0000
0000
0110
0000
0000
0110
0000
1001
,
0000
0110
0000
1001
0001
0000
0000
1000
,
0000
0000
1100
0000
0000
0110
0000
0110
,
0000
0110
0000
0100
0110
0000
0000
0011
,
0000
0000
1100
0000
0000
1001
0000
0110
,
0000
1001
0000
0110
0100
0010
1000
0010
,
0000
0100
0000
0000
0010
0000
1000
0000
,
1000
0001
1000
0010
,
0100
0001
0000
0000
0100
0010
0000
1000
,
0000
0001
0100
0000
0010
0100
0001
1000
,
0010
0100
0001
1000
0010
0000
0100
0000
,
0001
0000
1000
0000
0100
1000
0010
2000
,
0000
0000
3010
0100
,
0000
0000
0001
0100
1000
0100
0000
0010
,
0000
0000
0100
1000
0100
0000
0100
0000
,
0010
0000
1000
0000
0001
0000
0010
0100
,
0000
0000
0010
0001
1000
0010
0100
0100
,
0100
0010
1000
0001
1000
0001
0100
0001
,
0100
0001
0010
0000
0100
0000
1000
0000
,
0100
0000
1000
0001
1000
0020
0000
0000
,
0000
0030
0110
0000
1001
0000
0110
0100
,
1001
0110
0000
0000
;

//---------------dance-single - ----------------
#NOTES:
     dance-single:
     :
     Easy:
     6:
     0.425954,0.444146,0.248473,0.128244,0.000000,325.000000,31.000000,16.000000,0.000000,0.000000,0.000000,0.425954,0.444146,0.248473,0.128244,0.000000,325.000000,31.000000,16.000000,0.000000,0.000000,0.000000:
0002
0000
2003
0000
,
3002
0000
2003
0000
,
3001
0000
0000
1000
0000
0000
0002
0000
,
0000
0000
0000
0003
,
0200
0000
0320
0000
,
0230
0000
0320
0000
,
0230
0310
1000
1000
,
0000
0000
0000
0000
0001
0100
0010
1000
,
0000
0110
0000
0000
0010
0000
1000
0000
,
1000
0001
0100
0010
,
1000
0100
0000
0000
1000
0000
0010
0000
,
0100
0000
0001
0000
1000
0001
1000
0001
,
1000
0001
1000
0001
1000
0000
0001
0000
,
0100
0000
0010
0000
1000
0000
0001
0200
,
0000
0000
0310
1000
,
0010
0000
0100
0000
0001
0010
0100
1000
,
0000
1001
0000
0000
0001
0000
1000
0000
,
1000
0001
0100
0010
,
1000
0100
0000
0000
1000
0000
0010
0000
,
0100
0000
0001
0000
1000
0001
1000
0001
,
1000
0001
1000
0001
1000
0000
0001
0000
,
0100
0000
0001
0000
0010
0000
0100
0020
,
0000
0000
0130
0010
,
0001
1000
0001
0100
,
0001
1000
0100
1000
,
0010
0100
0001
1000
,
0100
1000
0100
1000
,
0100
0010
0001
0010
,
0001
1000
0010
1000
,
0001
0010
0100
0010
,
0001
0000
1000
0000
0001
0100
0010
0000
,
0110
0000
0000
0110
0000
0010
0100
0000
,
0010
1000
0001
0010
,
0110
0000
0000
0110
0000
0100
0010
0000
,
0001
0001
1000
1000
,
1001
0000
0000
1001
0000
0001
0100
0000
,
0010
1000
0010
0100
,
0110
0000
0000
0110
0000
0000
0010
0000
,
1001
1001
1001
0000
0101
0000
0000
0101
,
0000
0001
0100
0010
,
1000
0000
0100
0000
1100
0000
0000
0011
,
0000
0010
0100
0100
,
0100
0000
0100
0000
0110
0000
0000
1001
,
0000
0001
1000
0001
,
0100
0000
0001
0000
0101
0000
0000
1010
,
0000
0001
0100
0010
1000
0001
1000
0000
,
1001
0000
0000
0110
0000
0000
0001
0000
,
1000
0100
1000
0010
,
1010
0000
0000
0101
0000
0000
0001
0000
,
1000
1000
0001
0001
,
0101
0000
0000
0011
0000
0000
0010
0000
,
0100
0010
0001
1000
,
1010
0000
0000
0101
0000
0001
0100
0010
,
1000
0001
1000
0000
0001
0000
0100
0000
,
0000
0001
0000
1000
,
0000
0100
0000
1000
,
0000
0001
0000
0100
,
0000
0010
1000
0010
,
0100
0010
1000
0001
,
0010
0100
1000
0100
,
0010
0001
2002
0000
,
0000
0000
3003
0000
0001
0000
0000
1000
,
0000
0000
0001
0000
0000
0100
0000
0100
,
0000
0100
0000
0100
0010
0000
0000
0010
,
0000
0000
1000
0000
0000
0001
0000
0001
,
0000
0001
0000
0001
1000
0000
0000
0100
,
0000
0000
0010
0000
0000
0001
0000
0001
,
0000
0001
0000
0001
0010
0000
0000
0100
,
0000
0000
1000
0000
0000
0001
0000
1000
,
0000
0001
0000
0000
0001
0000
0100
0010
,
0000
0100
0000
0000
0010
0000
1000
0000
,
1000
0001
1000
0010
,
0100
0010
0000
0000
1000
0000
0100
0000
,
0010
0000
0001
0000
1000
0100
0010
0001
,
1000
0100
0010
0001
1000
0000
0001
0000
,
0100
0000
0001
0000
0100
0000
0010
2000
,
0000
0000
3010
0100
,
0000
0000
0001
0100
0010
1000
0000
0010
,
0000
0100
0010
0010
,
0100
0001
1000
0010
,
0000
0000
1000
0000
0001
0000
1000
0001
,
1000
0000
0001
0100
0010
1000
0001
0100
,
0010
1000
0001
0000
1000
0000
0100
0000
,
0010
0000
0001
0000
0010
0200
0000
0000
,
0000
0310
0001
1000
,
0100
1001
0000
0000
;

//---------------dance-single - ----------------
#NOTES:
     dance-single:
     :
     Beginner:
     3:
     0.177481,0.341650,0.128244,0.000000,0.000000,139.000000,16.000000,0.000000,0.000000,0.000000,0.000000,0.177481,0.341650,0.128244,0.000000,0.000000,139.000000,16.000000,0.000000,0.000000,0.000000,0.000000:
// measure 0
1000
0000
0001
0000
,  // measure 1
1000
0000
0001
0000
,  // measure 2
0010
0000
0000
0000
,  // measure 3
0000
0000
0000
0000
,  // measure 4
0001
0000
1000
0000
,  // measure 5
0001
0000
1000
0000
,  // measure 6
0001
0000
0100
0100
,  // measure 7
0000
0000
0010
0000
,  // measure 8
0000
0000
1000
0000
,  // measure 9
0000
0001
0001
0000
,  // measure 10
1000
0000
0010
0000
,  // measure 11
0000
0000
0100
0000
,  // measure 12
0100
0000
0010
0010
,  // measure 13
0010
0000
1000
0000
,  // measure 14
0001
0000
1000
1000
,  // measure 15
0001
0001
0100
0000
,  // measure 16
0000
0000
0010
0000
,  // measure 17
0000
1000
1000
0000
,  // measure 18
0001
0000
0100
0000
,  // measure 19
0000
0000
0010
0000
,  // measure 20
0100
0000
0010
0000
,  // measure 21
0000
0000
1000
0000
,  // measure 22
0001
0000
1000
1000
,  // measure 23
0001
0001
0100
0000
,  // measure 24
0001
0000
1000
0000
,  // measure 25
0010
0000
0100
0000
,  // measure 26
0100
0000
0010
0000
,  // measure 27
0010
0000
1000
0000
,  // measure 28
1000
0000
0001
0000
,  // measure 29
0001
0000
1000
0000
,  // measure 30
0001
0000
0010
0000
,  // measure 31
1001
0000
0000
0000
,  // measure 32
1000
0000
0000
0000
,  // measure 33
1001
0000
0000
0000
,  // measure 34
0001
0000
0000
0000
,  // measure 35
0110
0000
0000
0000
,  // measure 36
0100
0000
0000
0000
,  // measure 37
0110
0000
0000
0010
,  // measure 38
0010
0000
1001
0000
,  // measure 39
0000
0000
1000
0000
,  // measure 40
0000
0000
1001
0000
,  // measure 41
0000
0000
0001
0001
,  // measure 42
0001
0000
1001
0000
,  // measure 43
0000
0000
1000
0000
,  // measure 44
0000
0000
0110
0000
,  // measure 45
0000
0010
0010
0000
,  // measure 46
0110
0000
0000
0000
,  // measure 47
0100
0000
0000
0000
,  // measure 48
0001
0000
0000
0000
,  // measure 49
1000
0000
0000
0000
,  // measure 50
0100
0000
0000
0000
,  // measure 51
1000
0000
0000
0000
,  // measure 52
0001
0000
0000
1000
,  // measure 53
1001
0000
0001
0000
,  // measure 54
0000
0000
0000
0000
,  // measure 55
0000
0000
0100
0000
,  // measure 56
0000
0000
0000
0000
,  // measure 57
0000
0000
0010
0000
,  // measure 58
0000
0000
0000
0000
,  // measure 59
0000
0000
1000
0000
,  // measure 60
0000
0000
0001
0000
,  // measure 61
0000
0000
1000
0000
,  // measure 62
0000
0000
0001
0000
,  // measure 63
0000
0000
0100
0000
,  // measure 64
0000
0000
0001
0000
,  // measure 65
0000
0000
0010
0000
,  // measure 66
0000
0000
0001
0000
,  // measure 67
0000
0000
1000
0000
,  // measure 68
0000
0000
0100
0000
,  // measure 69
0000
0000
1000
0000
,  // measure 70
0010
0000
0100
0000
,  // measure 71
0000
0010
0010
0000
,  // measure 72
0100
0000
0001
0000
,  // measure 73
0000
0000
1000
0000
,  // measure 74
0001
0000
0100
0100
,  // measure 75
0010
0010
1000
0000
,  // measure 76
0001
0000
1000
0001
,  // measure 77
0000
1001
0000
0000
,  // measure 78
0000
0010
0000
0000
,  // measure 79
0100
0100
0000
0001
,  // measure 80
0000
1000
1000
1000
,  // measure 81
0000
0001
0000
1000
,  // measure 82
0000
0010
0010
0100
,  // measure 83
0100
0010
0000
0100
,  // measure 84
0000
1001
0110
1001
,  // measure 85
0110
1001
0000
0000
;
