#TITLE:Tunak Tunak Tun;
#SUBTITLE:;
#ARTIST:Daler Mehndi;
#TITLETRANSLIT:;
#SUBTITLETRANSLIT:;
#ARTISTTRANSLIT:;
#GENRE:;
#CREDIT:;
#BANNER:Tunak Tunak Tun.png;
#BACKGROUND:Tunak Tunak Tun-bg.png;
#LYRICSPATH:;
#CDTITLE:;
#MUSIC:Tunak Tunak Tun.ogg;
#OFFSET:1.599001;
#SAMPLESTART:59.158852;
#SAMPLELENGTH:12.996529;
#LASTBEATHINT:1.447744;
#SELECTABLE:YES;
#BPMS:0.000000=150.024994
,223.000000=153.000000
,224.000000=150.024994
;
#STOPS:
;
#BGCHANGES:;
#KEYSOUNDS:;
#ATTACKS:;

//---------------dance-single - ----------------
#NOTES:
     dance-single:
     :
     Hard:
     7:
     0.467889,0.616306,0.484240,0.132066,0.114457,372.000000,317.000000,55.000000,15.000000,0.000000,0.000000,0.467889,0.616306,0.484240,0.132066,0.114457,372.000000,317.000000,55.000000,15.000000,0.000000,0.000000:
// measure 0
0000
0000
0000
0000
,  // measure 1
0000
0000
0000
0000
,  // measure 2
0000
0000
0000
0000
,  // measure 3
0000
0000
0000
0000
,  // measure 4
0000
0000
0000
0000
,  // measure 5
0001
0001
1000
1000
,  // measure 6
0001
0000
0001
0000
0100
0100
0100
0000
,  // measure 7
0010
0010
0100
0100
,  // measure 8
0010
0000
0010
0000
1000
1000
1000
0000
,  // measure 9
0001
0010
0001
0100
,  // measure 10
0010
0000
1000
0000
0100
0100
0100
0000
,  // measure 11
1000
0000
0010
0000
0100
0000
0001
0010
,  // measure 12
0100
0000
0010
0000
0001
0000
0100
0001
,  // measure 13
1000
0000
1000
0000
0001
0000
0100
0001
,  // measure 14
0010
0000
0100
0000
0010
0002
0000
1003
,  // measure 15
0001
0000
0001
0000
0100
0000
0010
0001
,  // measure 16
1000
0000
1000
0000
0100
0000
0010
0001
,  // measure 17
0010
0000
0001
0000
0100
0000
0010
1000
,  // measure 18
0010
0000
0100
0000
0010
2000
0000
3001
,  // measure 19
1000
0000
0100
0000
0010
0000
0100
0010
,  // measure 20
0001
0000
1000
0000
0001
0000
0010
0010
,  // measure 21
0001
0000
0001
0000
0100
0000
0010
1000
,  // measure 22
0010
0000
0100
0000
0001
0020
0000
0031
,  // measure 23
0100
0000
0010
0000
1000
0000
0100
1000
,  // measure 24
0010
0000
0100
0000
0001
0000
0010
0001
,  // measure 25
0100
0000
0010
0000
1000
0000
0001
1000
,  // measure 26
0001
0000
0100
0000
0001
0020
0000
0130
,  // measure 27
1000
0010
0100
0001
0020
0000
0000
0000
,  // measure 28
0200
0000
0000
0000
,  // measure 29
0000
0000
0000
0330
,  // measure 30
1000
0000
0000
0001
0000
0000
1000
0000
0001
0000
0000
1000
0000
0000
0001
0000
,  // measure 31
1000
0000
0000
0001
0000
0000
1000
0000
0010
0000
0010
0000
0010
0000
0000
0000
,  // measure 32
1000
0000
0000
0010
0000
0000
0100
0000
0001
0000
0000
0010
0000
0000
0100
0000
,  // measure 33
1000
0000
0000
0100
0000
0000
1000
0000
0001
0000
0001
0000
0001
0000
0000
0000
,  // measure 34
1010
0011
1010
0011
,  // measure 35
1010
0011
1010
0011
,  // measure 36
1100
0101
1100
0101
,  // measure 37
1100
0101
1100
0101
,  // measure 38
1000
0000
0001
0000
0100
0001
0010
0000
,  // measure 39
0100
1000
0001
0000
0100
0010
1000
0001
,  // measure 40
0010
0001
0100
0001
0010
1000
0010
0000
,  // measure 41
0001
0100
0010
0000
0100
1000
0001
1000
,  // measure 42
0100
0000
0010
0000
0101
0101
0000
0000
,  // measure 43
0001
0000
1000
0000
1010
1010
0000
0000
,  // measure 44
1000
0000
0001
0000
0011
0011
0000
0000
,  // measure 45
0001
0000
1000
0000
1100
1100
0000
0000
,  // measure 46
1000
0000
0000
0010
0000
0000
0100
0000
0001
0000
0000
0000
0000
0000
1000
0000
,  // measure 47
1001
0000
0000
0101
0000
0000
1010
0000
0000
0000
0110
0000
1001
0000
0000
0000
,  // measure 48
1000
0000
0000
1000
0000
0000
1000
0000
0001
0000
0000
0001
0000
0000
0001
0000
,  // measure 49
0100
0000
0000
0100
0000
0000
0100
0000
0010
0000
0010
0000
0010
0000
0000
0000
,  // measure 50
1000
0000
0000
0010
0000
0000
0100
0000
0001
0000
0000
0010
0000
0000
1000
0000
,  // measure 51
0010
0000
0000
0100
0000
0000
1000
0000
0001
0000
0001
0000
0001
0000
0000
0000
,  // measure 52
0101
0101
1010
1010
,  // measure 53
1100
1100
0011
0011
,  // measure 54
1001
1001
0110
0110
,  // measure 55
1010
0000
0101
0000
0011
0010
0010
0000
,  // measure 56
2010
0000
3100
0000
0010
0001
0100
0010
,  // measure 57
0102
0000
1003
0100
1000
0000
0000
0000
,  // measure 58
0210
0000
0301
0000
0010
1000
0100
1000
,  // measure 59
2001
0000
3001
0010
0001
0000
0000
0000
,  // measure 60
2001
0000
3010
0000
0010
0001
0100
0010
,  // measure 61
2010
0000
3100
0010
0001
0000
0000
0000
,  // measure 62
0012
0000
0103
0000
0010
0100
0001
1000
,  // measure 63
1200
0000
0310
1000
0001
0000
0000
0000
,  // measure 64
1001
0000
0100
0000
0000
0100
0000
0000
0010
0000
0000
0010
0000
0000
0010
0000
,  // measure 65
1001
0000
0100
0000
0000
0100
0000
0000
0010
0000
0000
0010
0000
0000
0010
0000
,  // measure 66
1001
0000
0100
0000
0000
0100
0000
0000
0010
0000
0000
0010
0000
0000
0010
0000
,  // measure 67
1000
0001
1000
0001
0000
0000
0001
1000
0001
1000
0000
0000
0001
1000
0010
0100
,  // measure 68
0020
0000
0000
0000
,  // measure 69
0000
0000
0000
0000
,  // measure 70
0030
0000
0000
0000
;

//---------------dance-single - ----------------
#NOTES:
     dance-single:
     :
     Medium:
     5:
     0.316957,0.431414,0.079239,0.035217,0.004402,252.000000,243.000000,9.000000,4.000000,0.000000,0.000000,0.316957,0.431414,0.079239,0.035217,0.004402,252.000000,243.000000,9.000000,4.000000,0.000000,0.000000:
// measure 0
0000
0000
0000
0000
,  // measure 1
0000
0000
0000
0000
,  // measure 2
0000
0000
0000
0000
,  // measure 3
0000
0000
0000
0000
,  // measure 4
0000
0000
0000
0000
,  // measure 5
1000
0010
1000
0010
,  // measure 6
1000
0000
0010
0000
1000
0010
1000
0000
,  // measure 7
0001
0100
0001
0100
,  // measure 8
0001
0000
0100
0000
0001
0100
0001
0000
,  // measure 9
0100
0010
0100
0010
,  // measure 10
0100
0000
0010
0000
0100
0010
0100
0000
,  // measure 11
0010
1000
0010
1000
,  // measure 12
0001
0100
0001
0100
,  // measure 13
0001
0001
0001
1000
,  // measure 14
0001
0010
0001
1000
,  // measure 15
0100
1000
0100
1000
,  // measure 16
0010
0100
0010
0100
,  // measure 17
0001
0001
1000
0100
,  // measure 18
1000
1000
0100
1000
,  // measure 19
0010
0100
0010
0100
,  // measure 20
0001
1000
0001
1000
,  // measure 21
0100
0100
0010
0001
,  // measure 22
1000
1000
0010
1000
,  // measure 23
0001
0100
0001
0100
,  // measure 24
0010
1000
0010
1000
,  // measure 25
0100
0100
0100
1000
,  // measure 26
0001
0001
1000
0010
,  // measure 27
0100
0000
0010
1000
0002
0000
0000
0000
,  // measure 28
2000
0000
0000
0000
,  // measure 29
0000
0000
0000
3003
,  // measure 30
1000
1000
0001
0001
,  // measure 31
1000
0000
1000
0000
0001
1000
0001
0000
,  // measure 32
1000
0010
0100
0001
,  // measure 33
1000
0000
0010
0000
0100
0001
0010
0000
,  // measure 34
0100
1000
0100
0001
,  // measure 35
0100
0000
1000
0000
0100
0010
0001
0000
,  // measure 36
0010
1000
0010
0001
,  // measure 37
0010
0000
1000
0000
0010
0100
1000
0000
,  // measure 38
0001
0000
1000
0000
,  // measure 39
0010
1000
0010
0000
,  // measure 40
0100
0000
0001
0000
,  // measure 41
0010
0001
0010
0000
,  // measure 42
0001
0000
0000
0000
1000
0001
0000
0000
,  // measure 43
0000
0000
0000
0000
1000
0001
0000
0000
,  // measure 44
0000
0000
0000
0000
0001
1000
0000
0000
,  // measure 45
0000
0000
0000
0000
0001
1000
0000
0000
,  // measure 46
0001
0100
0010
0000
,  // measure 47
1000
0000
0000
0001
0000
0000
1000
0000
0000
0000
0001
0000
1001
0000
0000
0000
,  // measure 48
1000
0001
1000
0001
,  // measure 49
1000
0000
0001
0000
0010
0010
0010
0000
,  // measure 50
0001
0010
0001
0100
,  // measure 51
0001
0000
1000
0000
0100
0100
0100
0000
,  // measure 52
1000
0010
0100
0001
,  // measure 53
0010
0000
0001
0000
1000
1000
1000
0000
,  // measure 54
0100
1000
0010
0100
,  // measure 55
0001
0000
0100
0000
0010
0010
0010
0000
,  // measure 56
1000
0010
0100
0001
,  // measure 57
0010
0000
0001
1000
0001
0000
0000
0000
,  // measure 58
0010
0100
0010
0001
,  // measure 59
1000
0000
0010
0100
0001
0000
0000
0000
,  // measure 60
1000
0100
1000
0010
,  // measure 61
0100
0000
0010
1000
0100
0000
0000
0000
,  // measure 62
0010
0001
1000
0100
,  // measure 63
0010
0000
0100
1000
0010
0000
0000
0000
,  // measure 64
1001
0010
0010
0010
,  // measure 65
1001
0100
0100
0100
,  // measure 66
1001
0010
1001
0100
,  // measure 67
1001
0000
0000
1010
0000
0000
0101
0000
,  // measure 68
2002
0000
0000
0000
,  // measure 69
0000
0000
0000
0000
,  // measure 70
3003
0000
0000
0000
;

//---------------dance-single - ----------------
#NOTES:
     dance-single:
     :
     Easy:
     3:
     0.203758,0.277338,0.079239,0.114457,0.000000,162.000000,153.000000,9.000000,13.000000,0.000000,0.000000,0.203758,0.277338,0.079239,0.114457,0.000000,162.000000,153.000000,9.000000,13.000000,0.000000,0.000000:
// measure 0
0000
0000
0000
0000
,  // measure 1
0000
0000
0000
0000
,  // measure 2
0000
0000
0000
0000
,  // measure 3
0000
0000
0000
0000
,  // measure 4
0000
0000
0000
0000
,  // measure 5
1000
0000
0001
0000
,  // measure 6
1000
0000
0010
0010
,  // measure 7
0100
0000
0010
0000
,  // measure 8
0100
0000
0001
0001
,  // measure 9
1000
0000
0010
0000
,  // measure 10
1000
0000
0001
0001
,  // measure 11
1000
0000
0010
0000
,  // measure 12
1000
0001
1000
0000
,  // measure 13
0100
0000
1000
0000
,  // measure 14
0010
0100
0020
0000
,  // measure 15
0130
0000
0001
0000
,  // measure 16
0010
0001
0010
0000
,  // measure 17
0001
0000
1000
0000
,  // measure 18
0010
1000
0020
0000
,  // measure 19
1030
0000
0100
0000
,  // measure 20
1000
0001
1000
0000
,  // measure 21
0010
0000
0100
0000
,  // measure 22
0001
0010
0002
0000
,  // measure 23
1003
0000
0010
0000
,  // measure 24
0100
0010
0100
0000
,  // measure 25
0010
0000
1000
0000
,  // measure 26
0001
1000
0002
0000
,  // measure 27
1003
0100
0020
0000
,  // measure 28
0200
0000
0000
0000
,  // measure 29
0000
0000
0000
0330
,  // measure 30
0001
0000
0001
0000
,  // measure 31
0001
0000
0001
0001
,  // measure 32
1000
0000
0010
0000
,  // measure 33
0100
0000
0001
0100
,  // measure 34
0001
0001
0001
0001
,  // measure 35
0001
0001
0001
0001
,  // measure 36
1000
1000
1000
1000
,  // measure 37
1000
1000
1000
1000
,  // measure 38
0010
0000
0100
0000
,  // measure 39
0001
0000
1000
0000
,  // measure 40
0100
0000
1000
0000
,  // measure 41
0010
0000
0100
0000
,  // measure 42
0001
0000
1001
0000
,  // measure 43
0000
0000
0110
0000
,  // measure 44
0000
0000
0110
0000
,  // measure 45
0000
0000
1001
0000
,  // measure 46
0020
0000
0000
0000
,  // measure 47
0130
0000
0000
0000
,  // measure 48
1000
0000
0001
0000
,  // measure 49
1000
0000
0001
1000
,  // measure 50
0010
0000
0100
0000
,  // measure 51
0010
0000
1000
1000
,  // measure 52
0010
1000
0010
1000
,  // measure 53
0010
1000
0010
1000
,  // measure 54
0001
0100
0001
0100
,  // measure 55
0001
0100
0001
0100
,  // measure 56
0020
0000
1030
0000
,  // measure 57
0100
1000
0100
0000
,  // measure 58
0020
0000
0031
0000
,  // measure 59
1000
0001
0100
0000
,  // measure 60
0002
0000
1003
0000
,  // measure 61
0100
0010
0100
0000
,  // measure 62
0020
0000
0031
0000
,  // measure 63
1000
0010
0100
0000
,  // measure 64
1001
0000
0000
0000
,  // measure 65
0110
0000
0000
0000
,  // measure 66
1001
0000
0000
0000
,  // measure 67
0110
0000
0000
0010
0000
0000
0100
0000
,  // measure 68
2002
0000
0000
0000
,  // measure 69
0000
0000
0000
0000
,  // measure 70
3003
0000
0000
0000
;

//---------------dance-single - ----------------
#NOTES:
     dance-single:
     :
     Beginner:
     1:
     0.091817,0.209544,0.061631,0.000000,0.000000,73.000000,66.000000,7.000000,0.000000,0.000000,0.000000,0.091817,0.209544,0.061631,0.000000,0.000000,73.000000,66.000000,7.000000,0.000000,0.000000,0.000000:
// measure 0
0000
0000
0000
0000
,  // measure 1
0000
0000
0000
0000
,  // measure 2
0000
0000
0000
0000
,  // measure 3
0000
0000
0000
0000
,  // measure 4
0000
0000
0000
0000
,  // measure 5
1000
0000
0000
0000
,  // measure 6
1000
0000
0000
0000
,  // measure 7
0001
0000
0000
0000
,  // measure 8
0001
0000
0000
0000
,  // measure 9
0100
0000
0000
0000
,  // measure 10
0100
0000
0000
0000
,  // measure 11
0010
0000
0000
0000
,  // measure 12
1000
0000
0000
0000
,  // measure 13
0100
0000
0000
0000
,  // measure 14
1000
0000
0000
0000
,  // measure 15
0001
0000
0000
0000
,  // measure 16
0100
0000
0000
0000
,  // measure 17
0001
0000
0000
0000
,  // measure 18
0010
0000
0000
0000
,  // measure 19
0001
0000
0000
0000
,  // measure 20
1000
0000
0000
0000
,  // measure 21
0010
0000
0000
0000
,  // measure 22
0100
0000
0000
0000
,  // measure 23
0001
0000
0000
0000
,  // measure 24
1000
0000
0000
0000
,  // measure 25
0100
0000
0000
0000
,  // measure 26
1000
0000
0000
0000
,  // measure 27
0010
0000
0100
0000
,  // measure 28
0001
0000
0000
0000
,  // measure 29
0000
0000
0000
0000
,  // measure 30
1000
0000
0000
0000
,  // measure 31
1000
0000
0000
0000
,  // measure 32
0110
0000
0000
0000
,  // measure 33
0100
0000
0000
0000
,  // measure 34
0010
0000
0000
0000
,  // measure 35
1000
0000
0000
0000
,  // measure 36
0001
0000
0000
0000
,  // measure 37
1000
0000
0000
0000
,  // measure 38
0100
0000
0000
0000
,  // measure 39
1000
0000
1000
0000
,  // measure 40
0001
0000
0000
0000
,  // measure 41
0010
0000
0010
0000
,  // measure 42
0100
0000
0000
0000
,  // measure 43
1000
0000
0000
0000
,  // measure 44
0001
0000
0000
0000
,  // measure 45
0100
0000
0000
0000
,  // measure 46
0010
0000
0000
0000
,  // measure 47
1001
0000
0110
0000
,  // measure 48
1001
0000
0000
0000
,  // measure 49
0000
0000
0000
0000
,  // measure 50
0010
0000
0000
0000
,  // measure 51
0100
0000
0000
0000
,  // measure 52
0001
0000
0000
0000
,  // measure 53
1000
0000
0000
0000
,  // measure 54
0010
0000
0000
0000
,  // measure 55
1000
0000
0000
0000
,  // measure 56
0100
0000
0000
0000
,  // measure 57
1000
0000
0000
0000
,  // measure 58
0001
0000
0000
0000
,  // measure 59
0100
0000
0000
0000
,  // measure 60
0001
0000
0000
0000
,  // measure 61
0010
0000
0000
0000
,  // measure 62
0001
0000
0000
0000
,  // measure 63
1000
0000
0000
0000
,  // measure 64
1001
0000
0000
0000
,  // measure 65
0010
0000
0000
0000
,  // measure 66
1001
0000
0000
0000
,  // measure 67
0100
0000
0000
0000
,  // measure 68
1001
0000
0000
0000
;
