#TITLE:とろぴかる倶楽部;
#SUBTITLE:;
#ARTIST:HALFBY;
#TITLETRANSLIT:Tropical club;
#SUBTITLETRANSLIT:;
#ARTISTTRANSLIT:;
#GENRE:;
#CREDIT:;
#BANNER:Tropical Club.png;
#BACKGROUND:Tropical Club-bg.png;
#LYRICSPATH:;
#CDTITLE:cdtitle.png;
#MUSIC:Tropical Club.mp3;
#OFFSET:-2.557001;
#SAMPLESTART:34.556999;
#SAMPLELENGTH:16.000000;
#SELECTABLE:YES;
#BPMS:0.000000=120.000000
;
#STOPS:
;
#BGCHANGES:;
#KEYSOUNDS:;
#ATTACKS:;

//---------------dance-single - ----------------
#NOTES:
     dance-single:
     :
     Hard:
     9:
     0.523807,0.604571,0.143439,0.107579,0.726158,409.000000,393.000000,16.000000,12.000000,0.000000,0.000000,0.523807,0.604571,0.143439,0.107579,0.726158,409.000000,393.000000,16.000000,12.000000,0.000000,0.000000:
1000
0010
0000
0000
0000
0000
0100
0000
0001
0000
0000
0000
0000
0000
0000
0000
,
0000
0000
0000
0100
0001
0000
0000
0000
,
1000
0010
0000
0000
0000
0000
0100
0000
0001
0000
0000
0000
0000
0000
0000
0000
,
0000
0000
0000
0100
0001
0000
0000
0000
,
1000
1000
0000
0000
0000
0000
0010
0000
,
1000
0000
1000
0000
0000
0000
0000
0000
0000
0010
0000
0100
0001
0000
0000
0000
,
1000
0000
1000
0000
0000
0000
0010
0000
0000
0010
0000
0100
0001
0000
2000
0000
,
0200
0000
0000
0000
3000
0300
0000
0000
0000
0000
0000
0000
0000
0000
0000
0000
,
1001
0000
0000
0000
0001
0000
0000
0000
0100
0000
0000
0010
0000
0000
1000
0000
,
0010
0000
0000
0000
0100
0000
0000
0000
0001
0000
0000
0010
0000
0000
0001
0000
,
1000
0000
0000
0000
0100
0000
0000
0000
0001
0000
0000
0100
0000
0000
1000
0000
,
0010
0000
0000
0000
0001
0000
0000
0000
0010
0000
0000
0100
0000
0000
0010
1000
,
0000
0001
0000
0100
0010
0000
0000
1000
0000
0001
0000
0100
0010
0000
0000
1000
,
0000
0001
0000
0100
0010
0000
0000
1000
0000
0001
0000
0100
0010
0000
0000
0010
,
0100
0100
0100
0100
0100
0100
0100
0100
,
0001
0001
0000
0011
0000
1100
0000
1001
0000
0000
0000
0000
0000
0000
0000
0000
,
1010
0000
0000
0000
1000
0010
0100
0001
0000
0001
0000
0001
1000
0000
0000
0000
,
0101
0000
0100
0000
0001
0100
0010
1000
0000
1000
0000
1000
0001
0000
0000
0000
,
0011
0000
0000
0000
0010
0100
1000
0010
0000
0010
0000
0010
1000
0000
0001
0000
,
0010
0000
0001
0000
0010
0100
1000
0100
0000
0100
0000
0100
0010
0000
0000
0000
,
0100
0000
1000
0000
0010
0100
0001
1000
0000
0001
0000
0010
0100
0000
0000
0000
,
0010
0000
0001
0000
0100
0010
1000
0001
1000
0000
0100
0000
0010
0001
0000
0000
,
1000
0000
0010
0000
0100
0001
0010
0001
0000
1000
0000
0100
0010
0000
0100
0000
,
1000
0000
1000
0000
0000
1000
0010
0100
0001
0000
0010
0000
0100
0000
1000
0000
,
1001
0000
0000
0000
0000
0000
0000
0000
0000
0000
0000
0000
0000
0000
0000
1000
,
0000
0010
0000
0100
0002
0000
0000
1003
0000
0010
0000
0100
0002
0000
0000
1003
,
0000
0010
0000
0100
0002
0000
0000
1003
0000
0010
0000
0100
0002
0000
0000
1003
,
0000
0010
0000
0100
0002
0000
0000
1003
0000
0010
0010
0000
0010
0000
0000
1000
,
0000
0100
0000
0010
0002
0000
0000
0103
0000
0010
0000
1000
0200
0000
0000
0310
,
0000
0100
0000
1000
0020
0000
0000
0130
0000
0010
0000
0100
0002
0000
0000
1003
,
1001
0010
1001
0100
1001
0010
1001
0100
,
0010
0010
0000
0101
0000
1100
0000
0101
0000
0000
0000
0000
0000
0000
0000
0001
,
0010
0001
0100
0010
1000
0100
1000
0001
0000
1000
0000
1000
0000
1000
0010
0000
,
0000
0100
0000
0100
0010
1000
0001
1000
0020
0000
0000
0000
0000
0000
0000
0000
,
0130
0000
0001
0100
0000
0001
1000
0000
0001
0000
0001
1000
0100
1000
0010
0100
,
0001
1000
0100
1000
0001
0100
0001
1000
0100
1000
0001
0100
0010
0000
0000
0000
,
1000
0010
0100
0001
,
0010
0100
1000
0100
,
1000
0010
0100
0001
1000
0010
0100
0001
,
1000
1000
0000
0001
0010
0010
0010
0010
0000
0000
0000
0000
0000
0000
0000
0000
,
1001
0000
0000
0000
0001
0100
0001
0010
0000
0100
0000
1000
0001
0000
1000
0000
,
0001
0000
0100
0000
0001
0100
0001
1000
0100
0000
0010
0000
0100
1000
0000
0000
,
0001
0000
0100
0000
0010
1000
0001
1000
0001
0000
0100
0000
0001
0000
1000
0000
,
0100
0000
0100
0000
0010
0001
0010
0100
0000
1000
0000
0010
0100
0000
0001
0000
,
0010
0000
0100
0000
1000
0010
0100
0001
0000
0010
0000
0001
0100
0000
0010
0000
,
1000
0000
1000
0000
0001
0100
0001
0010
0000
0100
0000
1000
0100
0000
0010
0000
,
0100
0000
1000
0000
0001
0010
1000
0010
0000
0100
0000
1000
0100
0000
0001
0000
,
0100
0000
0010
0000
0001
0010
1000
0010
0000
0100
0000
1000
0010
0000
0100
0000
,
0001
0000
1000
0010
0000
0100
0001
0000
1000
0000
0001
0100
0000
0010
1000
0000
,
0001
0000
1000
0010
0000
0100
0001
0000
1000
0000
0001
0100
0000
0010
1000
0000
,
0001
0000
1000
1000
0000
0010
0010
0000
0100
0000
0001
0001
0000
0100
0100
0000
,
0010
1000
0000
1000
0001
1000
0000
1000
0001
0000
0010
0000
0100
0000
1000
0000
;

//---------------dance-single - ----------------
#NOTES:
     dance-single:
     :
     Medium:
     7:
     0.367561,0.395297,0.080684,0.026895,0.197228,287.000000,278.000000,9.000000,3.000000,0.000000,0.000000,0.367561,0.395297,0.080684,0.026895,0.197228,287.000000,278.000000,9.000000,3.000000,0.000000,0.000000:
0011
0000
0000
0100
1000
0000
0000
0000
,
0000
0000
0000
0100
1000
0000
0000
0000
,
0011
0000
0000
0100
1000
0000
0000
0000
,
0000
0000
0000
0100
1000
0000
0000
0000
,
0001
1000
0000
0000
0000
0000
0010
0000
,
1000
0000
0001
0000
0000
0000
0000
0000
0000
1000
0000
0000
0001
0000
0000
0000
,
0100
0000
0010
0000
0000
0000
0100
0000
0000
0010
0000
0000
1000
0000
0002
0000
,
0200
0303
0000
0000
,
0001
0000
0000
0000
1000
0000
0000
0000
0100
0000
0000
0100
0000
0000
0100
0000
,
1000
0000
0000
0000
0010
0000
0000
0000
0100
0000
0000
0100
0000
0000
0001
0000
,
0100
0001
0010
0001
,
1000
0100
1000
0010
,
0100
0001
0100
0000
0010
0100
0010
0000
,
1000
0010
1000
0000
0001
1000
0001
0000
,
1000
0100
0010
0001
1000
0100
0010
0001
,
1000
0001
0000
1000
0000
0001
0000
1000
0000
0000
0000
0000
0000
0000
0000
0000
,
0001
1000
0010
1000
,
0100
0000
1000
0000
0010
0100
0001
1000
,
0100
0000
1000
0000
0010
0000
1000
0001
,
0100
0000
0001
0000
0010
0010
0001
0010
,
0100
0010
0000
0110
0000
0100
0000
1100
,
0000
1000
0000
1001
0001
1000
0010
1000
,
0001
1000
0000
1001
0000
0001
0000
0101
,
0000
0100
0000
0110
0100
0010
1000
0001
,
1001
0000
0000
0000
0000
0000
0000
0000
0000
0000
0000
0000
0000
0000
0000
0001
,
0000
1000
0000
0000
0010
0000
0000
1000
0000
0001
0000
0000
0100
0000
0000
0001
,
0000
1000
0000
0000
0010
0000
0000
1000
0000
0001
0000
0000
0100
0000
0000
0001
,
0000
1000
0000
0000
0010
0000
0000
1000
0000
0001
1000
0000
0001
0000
0000
0001
,
0000
0100
0000
0000
0010
0000
0000
1000
0000
0100
0000
0000
0010
0000
0000
0001
,
0000
0010
0000
0000
0100
0000
0000
1000
0000
0100
0000
0000
0010
0000
0000
0000
,
0001
0010
0100
1000
0001
0010
0100
1000
,
0001
0100
0000
0010
0000
1000
0000
0001
0000
0000
0000
0000
0000
0000
0000
0000
,
1000
0100
0010
0010
0000
0100
1000
0010
,
0000
0100
0010
1000
0002
0000
0000
0000
,
0013
0000
0000
0001
0000
0000
0010
0000
0001
0000
0100
0000
0100
0000
0010
0000
,
1000
0001
0010
0100
0010
0010
0010
0000
,
0100
1000
0100
0010
,
0001
0100
0001
1000
,
0001
0100
0010
1000
0001
0100
0010
1000
,
0001
1000
0000
0001
1000
0001
1000
0001
0000
0000
0000
0000
0000
0000
0000
0000
,
0100
0010
1000
0000
0010
0100
0001
0000
,
1000
0100
0010
0100
1000
1000
0001
0000
,
1000
0010
0100
0000
0010
1000
0001
0000
,
0010
0100
1000
0100
0001
0001
0100
0000
,
0010
0001
0100
0000
0010
1000
0100
0000
,
1000
0010
0100
0000
0010
0010
0100
0010
,
0100
0000
0001
0000
1000
0100
1000
0000
,
0100
0010
0100
0000
0010
1000
0001
0000
,
1000
0000
0000
0010
0000
0000
0100
0000
0001
0000
0000
1000
0000
0000
0100
0000
,
1000
0000
0000
0010
0000
0000
0100
0000
0001
0000
0000
0010
0000
0000
0100
0000
,
0010
0000
0000
0010
0000
0000
0010
0000
0100
0000
0000
0100
0000
0000
0100
0000
,
1000
0000
0000
1000
0000
0000
1000
0000
0001
0000
0010
0000
0100
0000
1000
0000
;

//---------------dance-single - ----------------
#NOTES:
     dance-single:
     :
     Easy:
     4:
     0.256140,0.255780,0.080684,0.125509,0.000000,200.000000,191.000000,9.000000,14.000000,0.000000,0.000000,0.256140,0.255780,0.080684,0.125509,0.000000,200.000000,191.000000,9.000000,14.000000,0.000000,0.000000:
0000
0000
0000
1000
0001
0000
0000
0000
,
0000
0000
0000
1000
0001
0000
0000
0000
,
0000
0000
0000
1000
0001
0000
0000
0000
,
0000
0000
0000
1000
0001
0000
0000
0000
,
0100
0100
0000
0000
0000
0000
0010
0000
,
0100
0100
0000
0000
0000
0000
0010
0000
,
0100
0100
0000
0000
0000
0000
0000
0020
,
0200
0330
0000
0000
,
1001
0001
1000
1000
,
0001
1000
0100
1000
,
0010
0010
0100
0100
,
0001
0001
1000
1000
,
0001
0010
0001
1000
,
0001
0100
0001
1000
,
0001
1000
0001
1000
,
0010
0100
0010
0100
0000
0000
0000
0000
,
0010
1000
0010
0100
,
0010
0000
1000
0000
0001
1000
0001
0000
,
1000
0100
1000
0010
,
1000
0000
0001
0000
0100
0001
0100
0000
,
0001
0010
0001
1000
,
0001
0000
0100
0000
0010
0100
0010
0000
,
0100
0001
0100
0010
,
0100
0000
0001
0000
1000
0100
0010
0001
,
0000
0000
0000
0000
0000
0000
0000
1000
,
0000
1000
0000
1000
0000
1000
0000
1000
,
0000
0001
0000
0001
0000
0001
0000
0001
,
0000
0100
0000
0100
0000
0100
0010
0100
,
0000
0100
0000
0010
0000
1000
0000
0001
,
0000
0010
0000
0001
0000
1000
0000
0010
,
0100
0100
0100
0100
,
2002
0000
3003
0000
,
0002
0103
0002
1003
,
0200
2300
3020
0000
,
0230
0301
0200
0310
,
0200
0320
2030
3001
,
1001
0001
1000
0000
,
0001
1000
0010
0000
,
0100
0100
0100
0100
,
0010
0100
0010
0010
0000
0000
0000
0000
,
0100
0001
0100
0010
,
0100
0000
0001
0000
1000
0100
0010
0000
,
0100
1000
0100
0010
,
0100
0000
1000
0000
0001
0100
0010
0000
,
1000
0100
1000
0001
,
0100
0000
0001
0000
0010
0100
1000
0000
,
0100
1000
0010
0100
,
0001
0000
0100
0000
0010
0100
0001
0000
,
1000
1100
0100
0000
,
0110
0000
1001
0000
,
0101
0000
0011
0000
,
0110
0000
0000
0000
1000
0100
0010
0001
;

//---------------dance-single - ----------------
#NOTES:
     dance-single:
     :
     Beginner:
     1:
     0.110140,0.185574,0.053789,0.000000,0.000000,86.000000,80.000000,6.000000,0.000000,0.000000,0.000000,0.110140,0.185574,0.053789,0.000000,0.000000,86.000000,80.000000,6.000000,0.000000,0.000000,0.000000:
0000
0000
0000
0000
,
0000
0000
0000
0000
,
0000
0000
0000
0000
,
0000
0000
0000
0000
,
1000
0000
0000
1000
,
1000
0000
0000
0010
,
0100
0000
0000
0000
,
0010
0000
0000
0000
,
1001
0000
0000
0000
,
0001
0000
0000
0000
,
0100
0000
0000
0000
,
0010
0000
0000
0000
,
1000
0000
1000
0000
,
1000
0000
1000
0000
,
0001
0000
0001
0000
,
1001
0000
0000
0000
,
0010
0000
0000
0000
,
0100
0000
0001
0000
,
1000
0000
0000
0000
,
0001
0000
1000
1000
,
0001
0000
0000
0100
,
0000
0010
0100
0100
,
0010
0000
0000
1000
,
0000
0001
0000
0000
,
1000
0000
0000
0000
,
0010
0000
0100
0000
,
0010
0000
0100
0000
,
0010
0000
0000
0000
,
1000
0000
0001
0000
,
1000
0000
0001
0000
,
0100
0000
0010
0000
,
1001
0000
0000
0000
,
1000
0000
1000
0000
,
0001
0000
0001
0000
,
0100
0000
0100
0000
,
0010
0000
0010
0010
,
0100
0000
0000
0000
,
0000
0000
0000
0000
,
1000
0000
0001
0000
,
1001
0000
0000
0000
,
0010
0000
0100
0000
,
0010
0000
0000
0000
,
1000
0000
0010
0000
,
1000
0000
0000
0000
,
0001
0000
0010
0000
,
0001
0000
0000
0000
,
1000
0000
0100
0000
,
1000
0000
0000
0000
,
0010
0000
0100
0000
,
0001
0000
1000
0000
,
0010
0000
1000
0000
,
0001
1000
1001
0110
;

//---------------dance-single - ----------------
#NOTES:
     dance-single:
     :
     Challenge:
     9:
     0.672368,0.767340,0.600649,0.179298,0.883044,525.000000,458.000000,67.000000,20.000000,0.000000,0.000000,0.672368,0.767340,0.600649,0.179298,0.883044,525.000000,458.000000,67.000000,20.000000,0.000000,0.000000:
// measure 0
1000
0010
0000
0010
0000
0000
0100
0000
0001
0000
1000
0001
0000
0000
0000
0000
,  // measure 1
1000
0010
0000
0010
0000
0000
0100
0000
0001
0000
1000
0001
0000
0000
1000
0000
,  // measure 2
0100
0010
0000
0010
0000
0000
0001
0000
0100
0000
0010
1000
0000
0000
0100
0000
,  // measure 3
0010
0000
0000
0001
0000
0000
0000
0000
0000
0001
0000
0000
0000
0000
0000
0000
0000
0000
0010
0000
0000
0000
0000
0000
0001
0000
0000
0000
0000
0000
1000
0000
0001
0000
1000
0000
0020
0000
0000
0000
0030
0000
0000
0000
0000
0000
0000
0000
,  // measure 4
0101
0101
0000
0000
0000
0000
1100
0000
,  // measure 5
1001
0000
1001
0000
0000
0000
0000
0000
0000
1010
0000
1000
0010
0000
0000
0000
,  // measure 6
0101
0000
0101
0000
0000
0000
0011
0000
0000
1010
0000
1000
0001
0000
0200
0000
,  // measure 7
0310
0000
0000
0000
0100
0001
0010
0000
0110
0000
0000
1100
0000
0000
1010
0000
,  // measure 8
0201
0000
0000
0000
0001
0000
0000
0000
0010
0000
0000
1000
0000
0000
0010
0000
,  // measure 9
0320
0000
0000
0000
1000
0000
0000
0000
0100
0000
0000
0001
0000
0000
0130
0000
,  // measure 10
0010
1000
0010
0100
0010
0001
0010
0100
,  // measure 11
0001
0000
0100
0000
0010
0000
1000
0000
0010
0000
1000
0000
0100
0000
0010
0001
,  // measure 12
0000
0100
0000
0010
1000
0000
0000
0001
0000
0001
0000
1000
0001
0000
0000
0010
,  // measure 13
0000
0010
0000
0100
0010
0000
0000
0100
0000
0100
0000
0010
0100
0000
0000
0010
,  // measure 14
0110
0110
0011
0011
1001
1001
1010
1010
,  // measure 15
0101
0101
0000
0011
0000
1010
0000
2002
0000
3000
0000
0003
0000
0000
0000
0000
,  // measure 16
0101
0000
0000
0000
0001
0100
0010
1000
0000
0001
0000
0010
0100
0000
1000
0000
,  // measure 17
0100
0000
0100
0000
1000
0100
0001
0100
0000
0010
0000
0001
0100
0000
0010
0000
,  // measure 18
1000
0000
0000
0000
0001
0010
0001
0100
0000
0010
0000
1000
0001
0000
1001
0000
,  // measure 19
0110
0000
0100
0000
0010
1000
0001
0010
0000
0100
0000
0010
0100
0000
1002
0000
,  // measure 20
1003
0000
0001
0000
0010
0001
0100
0010
0000
1000
0000
0100
0010
0000
0100
0000
,  // measure 21
1000
0000
1000
0000
0100
1000
0010
0100
0000
0001
0000
0100
0010
0000
1000
0000
,  // measure 22
0001
0000
0010
0000
1000
0010
0100
1000
0000
0010
0000
0001
0010
0000
0100
0000
,  // measure 23
0001
0000
0001
0000
0000
1000
0001
0000
1000
0000
0100
0000
0010
0000
0001
0000
,  // measure 24
1001
0000
0000
0000
0000
0000
0000
0000
0000
0000
0000
0000
0000
0000
0000
0001
,  // measure 25
0000
0100
0000
0001
0020
0000
0000
1030
0000
0010
0000
0001
0200
0000
0000
1300
,  // measure 26
0000
0100
0000
0001
0020
0000
0000
1030
0000
0010
0000
0001
0200
0000
0000
1300
,  // measure 27
0000
0100
0000
0001
0020
0000
0000
0100
0030
0100
0100
0000
0010
0000
0001
0000
,  // measure 28
1000
0100
0000
0010
0200
0000
0000
0310
0000
0001
0000
0010
0200
0000
0000
1300
,  // measure 29
0000
0010
0000
0100
0002
0000
0000
1003
0000
0100
0000
0010
0200
0000
0000
0310
,  // measure 30
0110
0110
1001
1001
0101
1010
1100
0011
,  // measure 31
0101
0000
1010
0000
0000
0000
1100
0000
0000
0000
0101
0000
0000
0000
2001
0000
0000
0000
0001
0000
0000
0001
0000
0000
0002
0000
0000
0000
3003
0000
1000
0001
,  // measure 32
1000
0000
0010
0000
1000
0000
0100
0000
1000
0000
0001
0000
0010
0100
0010
0100
0000
0000
0010
0000
0000
0000
0010
0000
0000
0000
0010
0100
0010
0000
0000
0000
,  // measure 33
0000
0100
0000
0100
1000
0010
0100
0001
4000
0000
0000
0000
0000
0000
3000
0000
,  // measure 34
1001
0000
0000
0000
0001
0000
0100
0001
0000
0000
0100
0000
0010
0000
0000
0000
0100
0000
0000
0000
0010
0000
0010
0000
0100
0000
0001
0000
1000
0000
1000
0000
,  // measure 35
0000
0000
0001
0000
0010
0000
1000
0000
0010
0000
0001
0000
0010
0100
1000
0000
0001
0000
0100
0000
1000
0000
0100
0000
0001
0000
0000
0000
0000
0000
0000
0000
,  // measure 36
1000
1000
0000
0100
0000
0000
0010
0000
1001
0000
0000
0000
0000
0000
0000
0000
,  // measure 37
0001
0001
0000
0010
0000
0000
0100
0000
1001
0000
0000
0000
0000
0000
0000
0000
,  // measure 38
0101
0010
1100
0010
0011
0100
1010
0100
,  // measure 39
1001
0000
0000
1001
0000
0000
0000
0000
0000
1001
0000
0000
0001
0000
0000
0001
0000
0000
1000
0001
1000
0002
2000
0000
0000
0000
0000
3000
0000
0000
0000
0000
0000
0003
0000
0000
0000
0000
0000
0000
0000
0000
0000
0000
0000
0000
0000
0000
,  // measure 40
1000
0000
0001
0001
0000
0010
0100
0100
0010
0000
0100
0100
0000
1000
0001
0001
,  // measure 41
1000
1000
0001
0100
0000
0000
0010
0010
1000
0000
0100
0000
0010
0001
0000
0000
,  // measure 42
0010
0000
0001
0001
0000
0100
0010
0010
1000
0000
0100
0010
0000
0010
0100
0100
,  // measure 43
1000
0000
0001
0100
0000
0100
0001
0001
0010
0000
0100
0000
1000
0001
1000
0000
,  // measure 44
0010
0000
1000
1000
0001
0000
0010
0010
0100
0000
1000
1000
0100
0000
0010
0000
,  // measure 45
0001
1000
0100
0010
0100
1000
0010
0010
0100
0000
0001
0000
0010
0100
1000
0000
,  // measure 46
0001
0000
0010
0010
0001
0000
0100
0100
0010
0000
1000
0001
0000
0001
1000
0000
,  // measure 47
0100
0000
0010
0001
0100
0000
0010
0010
0100
0000
0001
0000
1000
0010
0100
0000
,  // measure 48
0101
0000
0001
0101
0000
1000
1000
0001
0101
0000
0100
0110
0000
0000
0010
0010
,  // measure 49
0110
0000
0010
1010
0000
0000
1000
1000
1001
0000
1000
1001
0000
0001
0001
0010
,  // measure 50
0110
0000
1000
1100
0000
0100
1000
1000
1010
0000
1000
1100
0000
0100
0010
0001
,  // measure 51
1000
1000
0000
1000
0001
0001
0000
1000
0001
0000
0100
0000
1000
0000
0001
0000
;
