#VERSION:0.83;
#TITLE:Tri;
#SUBTITLE:;
#ARTIST:DJ Noriken;
#TITLETRANSLIT:;
#SUBTITLETRANSLIT:;
#ARTISTTRANSLIT:;
#GENRE:;
#ORIGIN:;
#CREDIT:;
#BANNER:Tri.png;
#BACKGROUND:Tri-bg.png;
#PREVIEWVID:;
#JACKET:Tri-jacket.png;
#CDIMAGE:;
#DISCIMAGE:;
#LYRICSPATH:;
#CDTITLE:cdtitle.png;
#MUSIC:Tri.ogg;
#OFFSET:-12.780000;
#SAMPLESTART:89.581001;
#SAMPLELENGTH:11.199997;
#SELECTABLE:YES;
#BPMS:0.000=150.000;
#STOPS:;
#DELAYS:;
#WARPS:;
#TIMESIGNATURES:0.000=4=4;
#TICKCOUNTS:0.000=4;
#COMBOS:0.000=1;
#SPEEDS:0.000=1.000=0.000=0;
#SCROLLS:0.000=1.000;
#FAKES:;
#LABELS:0.000=Song Start;
#BGCHANGES:;
#KEYSOUNDS:;
#ATTACKS:
;

//---------------dance-single - ----------------
#NOTEDATA:;
#CHARTNAME:;
#STEPSTYPE:dance-single;
#DESCRIPTION:;
#CHARTSTYLE:;
#DIFFICULTY:Hard;
#METER:9;
#RADARVALUES:0.487926,0.667087,0.075342,0.033485,0.376708,408.000000,399.000000,9.000000,4.000000,0.000000,0.000000,0.000000,0.000000,0.000000,0.487926,0.667087,0.075342,0.033485,0.376708,408.000000,399.000000,9.000000,4.000000,0.000000,0.000000,0.000000,0.000000,0.000000;
#CREDIT:;
#NOTES:
1000
0000
0000
0000
0001
0000
0100
0000
0001
0000
0000
0001
0000
0000
1000
0000
,
0001
0000
0000
0000
1000
0000
0100
0000
1000
0000
0000
1000
0000
0000
0010
0000
,
0100
0000
0000
0000
0010
0000
1000
0000
0010
0000
0000
0010
0000
0000
0100
0000
,
0010
0000
0000
0000
1000
0000
0001
0000
1000
0000
0000
1000
0000
0000
0001
0000
,
0010
0000
0000
0000
0100
0000
1000
0000
0100
0000
0000
0100
0000
0000
0010
0000
,
0100
0000
0000
0000
1000
0000
0001
0000
1000
0000
0000
1000
0000
0000
0001
0000
,
0010
0000
0000
0000
0100
0000
1000
0000
0100
0000
0000
0100
0000
0000
1000
0000
,
0001
0100
0010
1000
0001
0100
0020
0000
,
1030
0100
1000
0100
1000
0100
0010
0000
,
0001
0100
0001
0100
1000
0100
0001
0000
,
1000
0001
1000
0001
1000
0001
0010
0000
,
1000
0100
0001
0100
1000
0100
0001
0000
,
1000
0001
1000
0001
1000
0001
0010
0000
,
0100
1000
0100
1000
0100
0001
0100
0000
,
1000
0010
1000
0010
1000
0010
0100
0000
,
1001
0000
0000
0000
1001
0000
0000
0000
1000
0010
0000
0100
0001
0000
0000
0000
,
1001
0000
0000
0000
0000
0000
0001
1000
,
0000
0000
0000
0000
0000
0001
0100
1000
,
0000
0000
0000
0000
0000
1000
0100
0010
,
0000
0000
0000
0000
0000
0100
0001
1000
,
0000
0000
0000
0000
0000
0010
1000
0001
,
0000
0000
0000
0000
0000
0001
0010
0100
,
0000
0000
0000
0000
0000
0000
0100
1000
,
0000
0000
0000
0000
0000
0100
1000
0010
,
0100
0000
0001
0000
1000
0000
0100
1000
,
0010
0000
0100
0000
0001
1000
0100
0001
,
0100
0000
0010
0000
0001
1000
0001
0100
,
0010
0000
1000
0000
0001
0010
0100
0010
,
0001
0000
0010
0000
0100
1000
0001
1000
,
0010
0000
0100
0000
0001
0010
0001
1000
,
0010
0000
0100
0000
0001
0000
1000
0001
,
2000
3002
0200
0303
,
1010
0000
0000
0000
0000
0000
0000
0000
1000
0000
0000
1000
0000
0000
1000
0000
,
0000
0000
0000
0000
0000
0000
0000
0000
0001
0000
0000
0001
0000
0000
0001
0000
,
0000
0000
0000
0000
0000
0000
0000
0000
0100
0000
0000
0100
0000
0000
0100
0000
,
0000
0000
0000
0000
0000
0000
0000
0000
0010
0000
0000
0010
0000
0000
0010
0000
,
0000
0000
0000
0000
0000
0000
0000
0000
1000
0000
0000
0100
0000
0000
0001
0000
,
0000
0000
0000
0000
0000
0000
0000
0000
0001
0000
0000
0100
0000
0000
0010
0000
,
0000
0000
0000
0000
0000
0000
0000
0000
0001
0000
0000
1000
0000
0000
0010
0000
,
0000
0000
0000
0000
0000
0000
0000
0000
0100
0000
0000
0010
0000
0000
1000
0000
,
1001
0000
0000
0001
0100
0000
0001
0000
0100
0000
0000
0010
1000
0000
0001
0000
,
1000
0000
0000
0001
0010
0000
0001
0000
0010
0000
0000
0100
1000
0000
0001
0000
,
0100
0000
0000
0010
1000
0000
0010
0000
1000
0000
0000
0001
0100
0000
0010
0000
,
1000
0000
0000
0001
0010
0000
0001
0000
0010
0000
0000
0100
1000
0000
0001
0000
,
1000
0000
0001
0000
0100
0000
0001
1000
0001
0000
0010
0000
0100
0000
1000
0100
,
1000
0000
0001
0000
0100
0000
0010
1000
0010
0000
0100
0000
0001
0000
1000
0001
,
1000
0100
1000
0000
0100
0010
0100
0000
0010
0001
0010
0001
1000
0001
1000
0000
,
1001
0000
0000
0000
1001
0000
0000
0000
1000
0010
0000
0100
0001
0000
0000
0000
,
0001
0000
1000
0000
0010
0000
0000
0100
0000
0001
0000
0010
0100
0000
1000
0000
,
0001
0000
0100
0000
0001
0000
0000
0100
0000
0100
0000
0010
1000
0000
0100
0000
,
0010
0000
0100
0000
1000
0000
0000
0001
0000
0001
0000
1000
0001
0000
0010
0000
,
0001
0000
1000
0000
0100
0000
0000
0010
0000
0010
0000
0100
1000
0000
0001
0000
,
1000
0000
0010
0000
0100
0000
0000
0001
0000
0001
0000
1000
0001
0000
0010
0000
,
0100
0000
1000
0000
0001
0000
0000
1000
0000
1000
0000
0001
0100
0000
0010
0000
,
1000
0000
0010
0000
0100
0000
0000
0001
0000
0001
0000
1000
0001
0000
0010
0000
,
0100
0000
1000
0000
0010
0000
0000
1000
0000
0001
0000
0010
0100
0000
1000
0000
,
0001
0000
1000
0000
0100
1000
0000
0010
0000
0100
0000
0001
0010
0000
0100
0000
,
1000
0000
0001
0000
0100
0010
0000
1000
0000
0001
0000
0010
0100
0000
0010
0000
,
0001
0000
0010
0000
0100
1000
0000
0010
0000
0100
0000
0001
1000
0000
0100
0000
,
1000
0000
0100
0000
0010
0100
0000
1000
0000
0001
0000
0100
0010
0000
1000
0000
,
0001
0000
1000
0000
0100
1000
0000
0010
0000
0100
0000
0001
0010
0000
0100
0000
,
1000
0000
0010
0000
0001
0010
0000
0100
0000
0010
0000
1000
0001
0000
0010
0000
,
0001
0000
0100
0000
1000
0100
0000
0010
0000
1000
0000
0001
0010
0000
0100
0000
,
1001
0000
0000
0000
1001
0000
0000
0000
1000
0010
0000
0100
0001
0000
0000
0000
;

//---------------dance-single - ----------------
#NOTEDATA:;
#CHARTNAME:;
#STEPSTYPE:dance-single;
#DESCRIPTION:;
#CHARTSTYLE:;
#DIFFICULTY:Easy;
#METER:4;
#RADARVALUES:0.251139,0.373569,0.117198,0.050228,0.000000,210.000000,196.000000,14.000000,6.000000,0.000000,0.000000,0.000000,0.000000,0.000000,0.251139,0.373569,0.117198,0.050228,0.000000,210.000000,196.000000,14.000000,6.000000,0.000000,0.000000,0.000000,0.000000,0.000000;
#CREDIT:;
#NOTES:
1000
0001
0010
0010
,
0001
1000
0100
0100
,
1000
0001
0010
0010
,
0001
0010
0001
2000
,
3100
1000
0010
0010
,
0100
0001
0010
0010
,
0001
1000
0100
0100
,
1000
0001
0010
0200
,
0310
0001
0010
0010
,
0001
1000
0200
0310
,
0100
1000
0010
0010
,
0100
0001
1000
0020
,
0130
0001
1000
1000
,
0001
1000
0100
0010
,
0100
1000
0010
0100
,
0101
1100
1002
0103
,
1001
0000
0000
0001
,
0000
0000
0000
0100
,
0000
0000
0000
0010
,
0000
0000
0000
1000
,
0000
0000
0000
0001
,
0000
0000
0000
0010
,
0000
0000
0000
0001
,
0000
0000
0000
1000
,
0001
0000
0000
1000
,
0000
0000
0000
0010
,
0000
0000
0000
0100
,
0000
0000
0000
0001
,
0000
0000
0000
1000
,
0000
0000
0000
0001
,
0000
0000
0000
1000
,
0001
0100
0020
0030
,
1001
0000
1000
0000
,
0100
0000
1000
0000
,
0010
0000
0100
0000
,
0001
0000
1000
0000
,
0010
0000
0100
0000
,
0001
0000
1000
0000
,
0100
0000
1000
0000
,
0010
0000
0100
0000
,
0001
1000
0010
0010
,
1000
0001
0100
0100
,
0001
1000
0010
0010
,
1000
0001
0100
0100
,
0001
0010
0100
0010
,
0001
1000
0100
0010
,
0100
1000
0100
1000
,
0101
1100
1010
0011
,
1001
0001
1000
0010
,
1000
0001
0100
0010
,
1000
0001
1000
0010
,
0100
0010
1000
0001
,
1000
0100
1000
0010
,
0100
0001
1000
0010
,
1000
0001
1000
0010
,
1000
0100
0010
0001
,
0010
0100
0010
0010
,
0100
1000
0001
0001
,
1000
0010
0100
0100
,
0010
1000
0100
0100
,
1000
0010
0100
0100
,
0010
1000
0001
0001
,
1000
0001
0100
0100
,
0101
0101
1010
1001
;

//---------------dance-single - ----------------
#NOTEDATA:;
#CHARTNAME:;
#STEPSTYPE:dance-single;
#DESCRIPTION:;
#CHARTSTYLE:;
#DIFFICULTY:Medium;
#METER:6;
#RADARVALUES:0.357573,0.426935,0.242767,0.050228,0.100455,299.000000,270.000000,29.000000,6.000000,0.000000,0.000000,0.000000,0.000000,0.000000,0.357573,0.426935,0.242767,0.050228,0.100455,299.000000,270.000000,29.000000,6.000000,0.000000,0.000000,0.000000,0.000000,0.000000;
#CREDIT:;
#NOTES:
1000
0000
0010
0100
0010
0000
1000
0000
,
0001
0000
0010
0100
0010
0000
0001
0000
,
1000
0000
0001
0100
0001
0000
0100
0000
,
0010
0000
1000
0010
1000
0000
0020
0000
,
0130
0000
0001
0000
1000
0001
1000
0000
,
0010
0000
0100
0000
0001
0001
1000
0000
,
0010
0000
0100
0000
0010
0010
1000
0000
,
0010
0000
0000
0000
0100
0000
0000
0000
0001
0000
1000
0020
0000
0000
0000
0000
,
0130
0000
0001
0000
1000
0100
1000
0000
,
0010
0000
0001
0000
0100
0100
0010
0000
,
1000
0000
0001
0000
0100
0001
0010
0000
,
0100
0000
0000
0000
1000
0000
0000
0000
0010
0000
0010
0000
2000
0000
0000
3000
,
0001
0000
1000
0000
0010
0100
0001
0000
,
1000
0000
0100
0000
1000
0010
0100
0000
,
0001
0100
0010
1000
,
1001
1001
0010
0100
,
1001
0000
0000
0000
0000
0000
0001
0010
,
0000
0000
0000
0000
0000
0010
0100
1000
,
0000
0000
0000
0000
0000
0100
1000
0010
,
0000
0000
0000
0000
0000
0100
0001
1000
,
0000
0000
0000
0000
0000
0001
1000
0010
,
0000
0000
0000
0000
0000
0010
0100
0001
,
0000
0000
0000
0000
0000
0000
0001
1000
,
0000
0000
0000
0000
0000
0100
1000
0010
,
0100
0000
0000
0000
0000
0000
0010
1000
,
0000
0000
0000
0000
0000
0010
0100
0001
,
0000
0000
0000
0000
0000
0001
0010
1000
,
0000
0000
0000
0000
0000
1000
0010
0100
,
0000
0000
0000
0000
0000
1000
0010
0100
,
0000
0000
0000
0000
0000
0100
0001
1000
,
0000
0000
0000
0000
0000
0000
0001
1000
,
0020
0000
0000
0030
0200
0000
0000
0000
0002
0000
0000
0000
0303
0000
0000
0000
,
1001
0000
0000
0000
0000
0000
0000
0000
1000
0000
0000
1000
0000
0000
1000
0000
,
0000
0000
0000
0000
0000
0000
0000
0000
0001
0000
0000
0001
0000
0000
0001
0000
,
0000
0000
0000
0000
0000
0000
0000
0000
1000
0000
0000
1000
0000
0000
1000
0000
,
0000
0000
0000
0000
0000
0000
0000
0000
0001
0000
0000
0001
0000
0000
0001
0000
,
0000
0000
0000
0000
0000
0000
0000
0000
0010
0000
0000
0010
0000
0000
0010
0000
,
0000
0000
0000
0000
0000
0000
0000
0000
0100
0000
0000
0100
0000
0000
0100
0000
,
0000
0000
0000
0000
0000
0000
0000
0000
0010
0000
0000
0010
0000
0000
0010
0000
,
0000
0000
0000
0000
0000
0000
0000
0000
0100
0000
0000
0100
0000
0000
0100
0000
,
1000
0000
0001
1000
0001
0000
1000
0001
,
1000
0000
0010
0100
0010
0000
0100
0010
,
0100
0000
0001
0100
0001
0000
0100
0010
,
0100
0000
0010
1000
0010
0000
1000
0001
,
1000
0000
0100
1000
0100
0000
0010
0000
,
0001
0000
0010
0001
0010
0000
0001
0000
,
0101
1010
0011
1100
,
1001
1001
0010
1001
,
0001
0000
0000
0000
0101
0000
0000
0000
0100
0000
0000
0010
0000
0000
1000
0000
,
0100
0000
0000
0000
1100
0000
0000
0000
0100
0000
0000
1000
0000
0000
0010
0000
,
0100
0000
0000
0000
0101
0000
0000
0000
0001
0000
0000
1000
0000
0000
0100
0000
,
1000
0000
0000
0000
1010
0000
0000
0000
0010
0000
0000
0100
0000
0000
0001
0000
,
1000
0000
0000
0000
0011
0000
0000
0000
0010
0000
0000
0100
0000
0000
1000
0000
,
0100
0000
0000
0000
1001
0000
0000
0000
0001
0000
0000
0100
0000
0000
0010
0000
,
1000
0000
0000
0000
0101
0000
0000
0000
0001
0000
0000
0100
0000
0000
0001
0000
,
1000
0000
0000
0000
1100
0000
0000
0000
1000
0000
0000
1000
0000
0000
0010
0000
,
0100
0000
0000
0000
0110
0000
0000
0000
0100
0000
0000
1000
0000
0000
0100
0000
,
0001
0000
0000
0000
0011
0000
0000
0000
0010
0000
0000
1000
0000
0000
0010
0000
,
0001
0000
0000
0000
1100
0000
0000
0000
0100
0000
0000
0001
0000
0000
0100
0000
,
1000
0000
0000
0000
1010
0000
0000
0000
0010
0000
0000
0001
0000
0000
0010
0000
,
1000
0000
0000
0000
0101
0000
0000
0000
0001
0000
0000
1000
0000
0000
0010
0000
,
0100
0000
0000
0000
0101
0000
0000
0000
0001
0000
0000
1000
0000
0000
0100
0000
,
1000
0000
0000
0000
1010
0000
0000
0000
0010
0000
0000
0100
0000
0000
0001
0000
,
1001
1001
0010
1001
;

//---------------dance-single - ----------------
#NOTEDATA:;
#CHARTNAME:;
#STEPSTYPE:dance-single;
#DESCRIPTION:;
#CHARTSTYLE:;
#DIFFICULTY:Beginner;
#METER:1;
#RADARVALUES:0.106435,0.293518,0.075342,0.008371,0.000000,89.000000,80.000000,9.000000,1.000000,0.000000,0.000000,0.000000,0.000000,0.000000,0.106435,0.293518,0.075342,0.008371,0.000000,89.000000,80.000000,9.000000,1.000000,0.000000,0.000000,0.000000,0.000000,0.000000;
#CREDIT:;
#NOTES:
1000
0000
0000
0000
,
0001
0000
0000
0000
,
0100
0000
0000
0000
,
0010
0000
0000
0000
,
0100
0000
0000
0000
,
0001
0000
0000
0000
,
1000
0000
0000
0000
,
0010
0000
0000
0000
,
1000
0000
0000
0000
,
1000
0000
0000
0000
,
1000
0000
0000
0000
,
1000
0000
0010
0000
,
0100
0000
0000
0000
,
0100
0000
0000
0000
,
0100
0000
0000
0000
,
0001
0001
1001
0110
,
0000
0000
0000
0010
,
0000
0000
0000
0100
,
0000
0000
0000
0010
,
0000
0000
0000
1000
,
0000
0000
0000
0001
,
0000
0000
0000
1000
,
0000
0000
0000
0010
,
0000
0000
0000
0000
,
0100
0000
0000
0000
,
0010
0000
0000
0000
,
1000
0000
0000
0000
,
0001
0000
0000
0000
,
1000
0000
0000
0000
,
0100
0000
0000
0000
,
1000
0000
0000
0000
,
0001
0001
2000
3000
,
1001
0000
0000
0000
,
1000
0000
0000
0000
,
0010
0000
0000
0000
,
0100
0000
0000
0000
,
0010
0000
0000
0000
,
1000
0000
0000
0000
,
0001
0000
0000
0000
,
0010
0000
0000
0000
,
0001
0000
0000
0000
,
1000
0000
0000
0000
,
0010
0000
0000
0000
,
0100
0000
0000
0000
,
0010
0000
1000
0000
,
0001
0000
0100
0000
,
0010
0000
0100
0100
,
1001
1001
0010
0100
,
1001
0000
0000
0000
,
1000
0000
0000
0000
,
0100
0000
0000
0000
,
1000
0000
0000
0000
,
0010
0000
0000
0000
,
0100
0000
0000
0000
,
0001
0000
0000
0000
,
0010
0000
0001
0000
,
1001
0000
0000
0000
,
0100
0000
0000
0000
,
0010
0000
0000
0000
,
1000
0000
0000
0000
,
0001
0000
0000
0000
,
1000
0000
0000
0000
,
0010
0000
0000
0000
,
0100
0100
1001
0110
;

//---------------dance-single - ----------------
#NOTEDATA:;
#CHARTNAME:;
#STEPSTYPE:dance-single;
#DESCRIPTION:;
#CHARTSTYLE:;
#DIFFICULTY:Challenge;
#METER:10;
#RADARVALUES:0.691229,0.830431,0.108827,0.142312,0.849685,578.000000,565.000000,13.000000,17.000000,0.000000,0.000000,0.000000,0.000000,0.000000,0.691229,0.830431,0.108827,0.142312,0.849685,578.000000,565.000000,13.000000,17.000000,0.000000,0.000000,0.000000,0.000000,0.000000;
#CREDIT:;
#NOTES:
// measure 0
2010
0000
0000
0000
3100
0000
0010
0001
0010
0000
0100
1000
0000
1000
0001
0000
,  // measure 1
0201
0000
0000
0000
0310
0000
2000
3010
1000
0000
0010
0100
0000
0100
0001
0000
,  // measure 2
0021
0000
0000
0000
0130
0000
1000
0100
1000
0000
0100
0010
0000
0010
0001
0000
,  // measure 3
2001
0000
0000
0000
3010
0000
0100
0001
0100
0000
0010
1000
0000
0100
0001
0000
,  // measure 4
0102
0000
0000
0000
0013
0000
0100
1000
0100
0000
0010
0001
0000
0001
1000
0000
,  // measure 5
1020
0000
0000
0000
0130
0000
0001
0100
0001
0000
0100
0010
0000
0010
1000
0000
,  // measure 6
1200
0000
0000
0000
0310
0000
0001
0010
0001
0000
0010
0100
0000
0100
1000
0000
,  // measure 7
1002
0000
0000
0000
0103
0000
0010
1000
0010
0000
0100
0001
2000
0000
0000
0000
,  // measure 8
3001
0100
0010
1000
0001
0010
0001
1000
0100
0010
0001
1000
0001
0000
0000
0000
,  // measure 9
1000
0010
0100
0001
0010
0001
1000
0010
0100
0001
0010
0100
1000
0000
0000
0000
,  // measure 10
0001
1000
0100
1000
0010
0100
0001
0010
0100
0010
0001
1000
0010
0000
0000
0000
,  // measure 11
0100
0000
0001
0000
0100
0000
0001
0000
0000
0100
0000
0000
0010
0000
1000
0000
0010
0000
1000
0000
0000
0001
0000
0000
0100
0000
0000
0001
0000
0000
1000
0000
0000
0100
0000
0000
0020
0000
0000
0000
0000
0000
0000
0000
0000
0000
0000
0000
,  // measure 12
0130
0010
0001
0100
0010
1000
0001
0010
0100
1000
0010
0100
0001
0000
0000
0000
,  // measure 13
1000
0000
0000
0001
0000
0000
0100
0000
0000
0001
0000
0000
0010
0000
0000
0100
0000
0000
0010
0000
0000
0001
0000
0000
1000
0000
0001
0000
1000
0000
0001
0000
0000
1000
0000
0000
0100
0000
0000
0000
0000
0000
0000
0000
0000
0000
0000
0000
,  // measure 14
0010
0001
0100
0010
1000
0001
0010
0100
0010
0001
1000
0100
1000
0010
0100
0000
,  // measure 15
1001
0000
0000
0000
1001
0000
0000
0000
0001
0100
0000
0010
1000
0000
0100
0000
,  // measure 16
0110
0000
0000
0100
0000
0000
1000
0000
0000
0000
0000
0000
0001
0000
1000
0000
,  // measure 17
0010
0000
0000
0100
0000
0000
0001
0000
0000
0000
0010
0000
0100
0000
0010
0000
,  // measure 18
0001
0000
0000
0010
0000
0000
0100
0000
0000
0000
0010
0000
0100
0000
1000
0000
,  // measure 19
0010
0000
0000
0100
0000
0000
0001
0000
0000
0000
1000
0000
0001
0000
0100
0000
,  // measure 20
0001
0000
0000
0010
0000
0000
0001
0000
0000
0000
0010
0000
0100
0000
1000
0000
,  // measure 21
0010
0000
0000
0100
0000
0000
0001
0000
0000
0000
1000
0000
0100
0000
0010
0000
,  // measure 22
0100
0000
0000
0010
0000
0000
0001
0000
0000
0000
0100
0000
0010
0000
1000
0000
,  // measure 23
0001
0000
0000
0010
0000
0000
0100
0000
0000
0000
0010
0000
0100
1000
0010
0100
,  // measure 24
0001
0000
0000
1000
0000
0000
0010
0000
0000
0000
0100
0000
0001
0000
0010
0000
,  // measure 25
0100
0000
0000
0010
0000
0000
0001
0000
0000
0000
1000
0000
0100
0000
0001
0000
,  // measure 26
0100
0000
0000
0010
0000
0000
0001
0000
0000
0000
1000
0000
0001
0000
0010
0000
,  // measure 27
0001
0000
0000
0100
0000
0000
0010
0000
0000
0000
1000
0000
0010
0000
0001
0000
,  // measure 28
0010
0000
0000
0100
0000
0000
0001
0000
0000
0000
1000
0000
0001
0000
0010
0000
,  // measure 29
0100
0000
0000
0010
0000
0000
0001
0000
0000
0000
1000
0000
0001
0000
0100
0000
,  // measure 30
0010
1000
0010
1000
0001
0100
0001
0100
0001
0010
0001
0010
0100
0010
0100
0001
,  // measure 31
2000
3020
0200
0330
,  // measure 32
0001
0000
0100
0000
0010
0000
1000
0000
0100
0000
0000
0100
0000
0000
0010
0000
,  // measure 33
0100
0000
1000
0000
0010
0000
0100
0000
0001
0000
0000
0001
0000
0000
0010
0000
,  // measure 34
0100
0000
1000
0000
0001
0000
0100
0000
0010
0000
0000
0010
0000
0000
0100
0000
,  // measure 35
0001
0000
0010
0000
0001
0000
1000
0000
0100
0000
0000
0100
0000
0000
0100
0000
,  // measure 36
1000
0000
0010
0000
0100
0000
0001
0000
0010
0000
0000
0010
0000
0000
0010
0000
,  // measure 37
0100
0000
1000
0000
0100
0000
1000
0000
0001
0000
0000
0001
0000
0000
0001
0000
,  // measure 38
0100
0000
0010
0000
0100
0000
0001
0000
1000
0000
0000
1000
0000
0000
1000
0000
,  // measure 39
0100
0000
0010
0000
0100
0000
1000
0000
0010
0000
0000
0010
0000
0000
0010
0000
,  // measure 40
0100
0000
0000
0001
0100
0000
0010
0000
1000
0000
0000
0100
0010
0000
0001
0000
,  // measure 41
1000
0000
0000
0100
1000
0000
0010
0000
0100
0001
0000
0001
1000
0000
0100
0000
,  // measure 42
0010
0000
0000
0100
1000
0000
0010
0000
0100
0000
0000
0010
0100
0000
0001
0000
,  // measure 43
1000
0000
0000
0001
0010
0000
0100
0000
0010
0001
0000
0001
0100
0000
0010
0000
,  // measure 44
1000
0000
0100
0000
0010
0000
0001
0100
0010
0000
1000
0000
0001
0000
0010
0100
,  // measure 45
1000
0000
0010
0000
0001
0000
0010
0100
0001
0000
1000
0000
0100
0000
1000
0010
,  // measure 46
0100
0000
0000
0001
0000
0000
0010
0000
0000
0000
0000
0000
0100
0000
0000
1000
0000
0000
0010
0000
0000
0000
0000
0000
0100
0000
0000
0001
0000
0000
0010
0000
0001
0000
0010
0000
0001
0000
0000
0010
0000
0000
0100
0000
0000
1000
0000
0000
,  // measure 47
0020
0000
0000
0000
0230
0000
0000
0000
0301
0100
0000
0010
1000
0000
0000
0000
,  // measure 48
0100
0010
0001
0000
0100
0001
0000
1000
0000
0100
0000
1000
0010
0000
0100
0000
,  // measure 49
0001
0100
0001
0000
0100
0010
0000
1000
0000
0100
0000
0010
0100
0000
1000
0000
,  // measure 50
0001
1000
0100
0000
1000
0010
0000
0100
0000
0001
0000
0010
0100
0000
0010
0000
,  // measure 51
0001
0100
0001
0000
0100
0010
0000
1000
0000
0100
0000
1000
0010
0000
0100
0000
,  // measure 52
0010
0100
0001
0000
1000
0001
0000
0010
0000
0001
0000
0100
0010
0000
1000
0000
,  // measure 53
0001
1000
0001
0000
0010
0100
0000
0010
0000
0001
0000
1000
0010
0000
0100
0000
,  // measure 54
0010
1000
0001
0000
1000
0100
0000
0010
0000
0001
0000
0100
0010
0000
0100
0000
,  // measure 55
0001
1000
0001
0000
1000
0100
0000
0010
0000
0001
0000
0100
0010
0000
1000
0000
,  // measure 56
0001
0100
0010
0000
0100
0001
0000
0010
0000
0100
0000
1000
0010
0000
0100
0000
,  // measure 57
0001
1000
0010
0000
0100
0001
0000
0010
0000
0100
0000
0010
0001
0000
1000
0000
,  // measure 58
0001
0100
0010
0000
1000
0100
0000
0010
0000
0100
0000
1000
0010
0000
0100
0000
,  // measure 59
0001
1000
0100
0000
0010
0100
0000
1000
0000
0010
0000
0100
0001
0000
1000
0000
,  // measure 60
0001
0010
0100
0000
1000
0010
0000
0100
0000
0010
0000
1000
0001
0000
0010
0000
,  // measure 61
0100
0010
0001
0000
0010
0100
0000
1000
0000
0001
0000
1000
0010
0000
0100
0000
,  // measure 62
0001
0100
0010
0000
1000
0010
0000
1000
0000
0100
0000
0010
0100
0000
1000
0000
,  // measure 63
1001
0000
0000
0000
1001
0000
0000
0000
0001
0100
0000
0010
0200
0000
0000
0000
,  // measure 64
0300
0000
0000
0000
;
