#VERSION:0.81;
#TITLE:Train Of Love;
#SUBTITLE:;
#ARTIST:MACHOMAN;
#TITLETRANSLIT:;
#SUBTITLETRANSLIT:;
#ARTISTTRANSLIT:;
#GENRE:;
#ORIGIN:;
#CREDIT:;
#BANNER:Train Of Love.png;
#BACKGROUND:Train Of Love-background.png;
#PREVIEWVID:;
#JACKET:Train Of Love-jacket.png;
#CDIMAGE:;
#DISCIMAGE:;
#LYRICSPATH:;
#CDTITLE:;
#MUSIC:Train Of Love.ogg;
#OFFSET:-9.154000;
#SAMPLESTART:31.719999;
#SAMPLELENGTH:12.000000;
#SELECTABLE:YES;
#BPMS:0.000=138.000;
#STOPS:;
#DELAYS:;
#WARPS:;
#TIMESIGNATURES:0.000=4=4;
#TICKCOUNTS:0.000=4;
#COMBOS:0.000=1;
#SPEEDS:0.000=1.000=0.000=0;
#SCROLLS:0.000=1.000;
#FAKES:;
#LABELS:0.000=Song Start;
#BGCHANGES:;
#KEYSOUNDS:;
#ATTACKS:
;

//---------------dance-single - ----------------
#NOTEDATA:;
#CHARTNAME:;
#STEPSTYPE:dance-single;
#DESCRIPTION:;
#CHARTSTYLE:;
#DIFFICULTY:Hard;
#METER:7;
#RADARVALUES:0.467997,0.413808,0.335765,0.099822,0.181495,313.000000,37.000000,11.000000,0.000000,0.000000,0.000000,0.000000,0.000000,0.467997,0.413808,0.335765,0.099822,0.181495,313.000000,37.000000,11.000000,0.000000,0.000000,0.000000,0.000000,0.000000;
#CREDIT:;
#NOTES:
0001
0001
0001
0000
,
0000
0000
0000
0000
,
1000
1000
1000
0000
,
0000
0000
0000
0000
0010
0010
0010
0000
,
1001
0000
0001
0000
0001
0000
0000
1000
0100
0000
0010
0000
0001
0000
0100
0000
,
0001
0000
1000
0000
0100
0000
0000
0010
0000
0000
0100
0000
1000
0000
0001
0000
,
0100
0000
0010
0000
0001
0000
0000
0010
0000
0010
0000
0000
0100
0000
0001
0000
,
1000
0000
0001
0000
0100
0000
0000
0010
0000
0000
1000
0000
0100
0000
0010
0000
,
0001
0000
0010
0000
0001
0000
0000
1000
0000
0001
0000
0000
0100
0000
0001
0000
,
0100
0000
0010
0000
0100
0000
0000
0001
0000
0000
0010
0000
0100
0000
0001
0000
,
0100
0000
0010
0000
0001
0000
0000
1000
0000
0001
0000
0000
0010
0000
0100
0000
,
1000
0000
0001
0000
0010
0000
0000
0001
0000
0000
1000
0000
0010
0000
1000
0000
,
0100
0000
0001
0000
0100
0000
0000
1000
0000
0001
0000
0000
0010
0000
0100
0000
,
1100
1100
1100
0000
,
0100
0010
0001
1000
0010
0000
0100
0000
,
0101
0000
2000
3000
,
0001
1000
0001
1000
0001
1000
0001
0000
,
0101
1100
0101
0000
,
0100
0010
1000
0001
0010
0000
0100
0000
,
1200
0000
0310
0000
,
0001
0010
1000
0001
1000
0001
1000
0000
,
0011
0000
0000
0000
0011
0000
0000
0000
0010
0000
0100
1000
0000
0000
0001
0000
,
1000
0000
0100
0000
1000
0000
0001
0000
0100
0001
0000
1000
0000
0000
0000
0000
,
1001
0000
0000
0000
1001
0000
0000
0000
0010
0000
0100
0001
0000
0000
1000
0000
,
0001
0000
0100
0000
0010
1000
0000
0001
0000
0000
2000
0000
3000
0000
0001
0000
,
0010
0000
1000
0000
0000
0000
0000
0010
0001
0000
1000
0000
0100
0000
0000
1000
,
0010
0000
0100
0000
0001
0000
1000
0000
0100
1000
0000
0001
0000
0000
0000
0000
,
0100
0001
0000
0001
0100
0000
0010
0000
1000
0001
0000
1000
0000
0000
0100
0000
,
0010
0000
0001
0000
0010
0000
0100
1000
0000
0000
0000
0000
0000
0000
0000
0000
,
0001
0000
0100
0010
1000
0000
0002
0000
,
0103
0000
0010
1000
0200
0000
0310
0000
,
0100
0010
0001
1000
0010
0000
0100
0000
,
1001
0000
0110
0000
1001
1001
1001
0000
,
0011
1010
0011
0000
,
0010
1000
0010
0001
0100
0000
0010
0000
,
1000
0000
0102
0000
,
0103
1000
0100
0010
1000
0001
0010
0000
,
0110
1001
0110
0000
,
0010
0100
0001
1000
0010
0000
1000
0000
,
1200
0000
0320
0030
,
0100
0010
0001
1000
0010
0100
0001
0000
,
0101
1010
0101
0000
,
0100
1000
0100
0010
1000
0000
0001
0000
,
1001
0000
0120
0030
,
0100
0100
0010
0010
1000
1000
0001
0000
,
1001
0110
1010
0000
,
1000
0010
0100
0001
0010
0000
0100
0000
,
1002
0000
0203
0300
,
0001
0100
1000
0100
1000
0001
1001
0000
,
1000
0000
0010
0000
0100
0000
0000
0001
0000
0000
0010
0000
0100
0000
1000
0000
,
0010
0000
0100
0000
0010
0000
0000
0100
0000
0001
0000
0000
0100
0000
0010
0000
,
0100
0000
1000
0000
0001
0000
0000
1000
0000
0000
0010
0000
0100
0000
0001
0000
,
0010
0000
0100
0000
0010
0000
0000
0100
0000
1000
0000
0000
0001
0000
1000
0000
,
0010
0000
0100
0000
0010
0000
0000
1000
0000
0000
0100
0000
0010
0000
0001
0000
,
1000
0000
0001
0000
0100
0000
0000
0010
0000
1000
0000
0000
0100
0000
0010
0000
,
0001
0000
0010
0000
1000
0000
0000
0010
0000
0000
0001
0000
0010
0000
0100
0000
,
1000
0000
0001
0000
0100
0000
0000
0010
0000
0100
0000
0000
0010
0000
1000
0000
,
1001
0000
0000
0000
;

//---------------dance-single - ----------------
#NOTEDATA:;
#CHARTNAME:;
#STEPSTYPE:dance-single;
#DESCRIPTION:;
#CHARTSTYLE:;
#DIFFICULTY:Medium;
#METER:5;
#RADARVALUES:0.396696,0.413808,0.453737,0.108897,0.000000,244.000000,50.000000,12.000000,0.000000,0.000000,0.000000,0.000000,0.000000,0.396696,0.413808,0.453737,0.108897,0.000000,244.000000,50.000000,12.000000,0.000000,0.000000,0.000000,0.000000,0.000000;
#CREDIT:;
#NOTES:
0001
0001
0001
0000
,
0000
0000
0000
0000
,
1000
1000
1000
0000
,
0000
0000
0000
0000
0010
0100
0010
0000
,
2002
0000
0000
3003
,
0001
0000
1000
0000
0010
0000
1000
0001
,
0010
0000
0001
0000
0100
0000
0001
1000
,
0001
0000
0100
0000
0010
0000
1000
0010
,
0100
0000
0001
0000
1000
0000
0001
0001
,
1000
0000
0010
0000
0100
0000
0010
1000
,
0010
0000
0100
0000
0001
0000
0010
0100
,
1000
0000
0100
0000
1000
0000
0010
0100
,
0001
0000
1000
0000
0010
0000
0100
0100
,
0101
0101
0101
0000
,
0001
1000
0010
0100
,
1001
0000
0120
0000
,
0130
0001
0100
0001
0100
0001
0100
0000
,
0101
1010
0101
0000
,
0001
0010
0100
1000
,
1002
0000
1003
0000
,
1000
0100
0010
0001
0010
0100
1000
0000
,
1001
1001
0110
0110
,
0101
0101
1100
1100
,
1001
1001
0101
0101
,
0001
0100
0010
1000
0010
0000
0000
0000
,
0120
0130
0201
0301
,
0001
0100
0010
0000
0100
0010
1000
0000
,
0101
0000
1100
0000
0001
0100
1000
0000
,
1100
0000
0110
0000
0100
0010
1000
0000
,
0000
0000
0001
1000
0020
0000
0130
0000
,
0000
0000
0100
0010
2000
0000
3001
0000
,
0000
0000
0001
0010
0100
0000
0010
0000
,
1001
0110
1001
0110
,
0101
1010
0101
0000
,
0001
0010
0100
1000
,
1001
0000
0120
0000
,
0130
0010
1000
0001
0100
0010
1000
0000
,
1100
0110
0011
0000
,
0001
0010
0100
1000
,
1002
0000
0103
0000
,
0001
0100
0001
0100
0001
0100
0001
0000
,
0101
1010
0101
0000
,
0001
0010
0100
0010
0001
0000
1000
0000
,
0010
0000
0120
0000
,
0130
0010
0100
0010
0100
0010
0100
0000
,
1010
0101
1010
0000
,
1000
0100
0010
0001
0010
0000
0001
0000
,
1002
0000
0103
0000
,
0001
0100
0010
1000
0001
0100
0010
0000
,
0100
0000
0001
0000
1000
0100
1000
0000
,
0010
0000
0100
0000
0001
1000
0010
0000
,
1000
0000
0001
0000
0010
0100
1000
0000
,
0100
0000
1000
0000
0010
0000
0100
0100
,
0001
0000
1000
0000
0010
0000
0100
0001
,
0100
0000
0010
0000
1000
0000
0100
0010
,
0001
0000
0010
0000
0100
0000
0010
0100
,
1000
0000
0001
0000
0100
0000
0010
0010
,
1001
0000
0000
0000
;

//---------------dance-single - ----------------
#NOTEDATA:;
#CHARTNAME:;
#STEPSTYPE:dance-single;
#DESCRIPTION:;
#CHARTSTYLE:;
#DIFFICULTY:Easy;
#METER:3;
#RADARVALUES:0.261871,0.284493,0.208719,0.000000,0.000000,179.000000,23.000000,0.000000,0.000000,0.000000,0.000000,0.000000,0.000000,0.261871,0.284493,0.208719,0.000000,0.000000,179.000000,23.000000,0.000000,0.000000,0.000000,0.000000,0.000000,0.000000;
#CREDIT:;
#NOTES:
0001
1000
0001
0000
,
0000
0000
0000
0000
,
1000
0001
1000
0000
,
0000
0000
0001
0001
,
1001
0000
0000
0000
,
0001
0100
0010
0000
,
0100
0100
0001
0000
,
1000
0010
0100
0000
,
0010
0010
1000
0000
,
0001
1000
0100
0000
,
1000
0010
1000
0000
,
0010
0100
0001
0000
,
1000
1000
0001
0100
,
0010
0010
0010
0000
,
0100
0001
1000
0010
,
0100
0000
1001
0000
,
0001
0010
0001
1000
,
0100
0100
0100
0000
,
1000
0010
0100
0001
,
1001
0000
0110
0000
,
0100
0010
1000
0001
,
1000
1000
0001
0001
,
1000
0001
1000
0001
,
0110
0110
0100
0010
,
1000
1000
0010
0000
,
0100
0000
0001
0001
,
1000
0100
1000
0010
,
0100
0100
0010
0010
,
1000
0001
1001
0000
,
0000
0001
0100
0010
,
0000
0100
0010
1000
,
0000
0001
1000
0010
,
0110
0110
1001
1001
,
0001
1000
0001
0000
,
0100
0010
1000
0100
,
0010
0000
0110
0000
,
0100
0010
0001
0001
,
1000
1000
1000
0000
,
0001
1000
0100
1000
,
1010
0000
0010
0000
,
0100
0001
1000
0100
,
0110
0110
0110
0000
,
0100
0010
0001
1000
,
0001
0000
1001
0000
,
0001
0010
0001
0001
,
1001
1001
1001
0000
,
0001
1000
0010
1000
,
1001
0000
0110
0000
,
0100
0010
1000
0001
,
1000
0000
0001
0000
,
0100
0001
1000
0100
,
1000
0000
0001
0000
,
0100
0010
0100
0010
,
0010
0000
1000
0000
,
0001
0010
0100
0010
,
0001
0000
1000
0000
,
0001
1000
0010
0100
,
1001
0000
0000
0000
;

//---------------dance-single - ----------------
#NOTEDATA:;
#CHARTNAME:;
#STEPSTYPE:dance-single;
#DESCRIPTION:;
#CHARTSTYLE:;
#DIFFICULTY:Beginner;
#METER:1;
#RADARVALUES:0.136121,0.232767,0.063523,0.000000,0.000000,98.000000,7.000000,0.000000,0.000000,0.000000,0.000000,0.000000,0.000000,0.136121,0.232767,0.063523,0.000000,0.000000,98.000000,7.000000,0.000000,0.000000,0.000000,0.000000,0.000000,0.000000;
#CREDIT:;
#NOTES:
// measure 0
0000
0000
0000
0000
,  // measure 1
0000
0000
0000
0000
,  // measure 2
0000
0000
0000
0000
,  // measure 3
0000
0000
0000
0000
,  // measure 4
0000
0000
0000
0000
,  // measure 5
1000
0000
0000
0000
,  // measure 6
0001
0000
0100
0000
,  // measure 7
0001
0000
0000
0000
,  // measure 8
1000
0000
0100
0000
,  // measure 9
1000
0000
0000
0000
,  // measure 10
0010
0000
0100
0000
,  // measure 11
0010
0000
0000
0000
,  // measure 12
1000
0000
0001
0000
,  // measure 13
0100
0100
0100
0000
,  // measure 14
0001
0000
1000
0000
,  // measure 15
0010
0000
1001
0000
,  // measure 16
1000
0000
0000
0000
,  // measure 17
0001
0001
0001
0000
,  // measure 18
1000
0000
0010
0000
,  // measure 19
1001
0000
0100
0000
,  // measure 20
0010
0000
0000
0000
,  // measure 21
1001
0000
0001
0000
,  // measure 22
1000
0000
0000
0000
,  // measure 23
0010
0010
0000
0000
,  // measure 24
0100
0000
0000
0000
,  // measure 25
0001
0000
1000
1000
,  // measure 26
0001
0000
1000
0000
,  // measure 27
0010
0010
0000
0000
,  // measure 28
1000
0000
0001
0000
,  // measure 29
0000
0100
0100
0100
,  // measure 30
0000
0010
0010
0010
,  // measure 31
0000
1000
0000
0001
,  // measure 32
1000
0001
1001
1001
,  // measure 33
0001
0001
0001
0000
,  // measure 34
0100
0000
0010
0000
,  // measure 35
1000
0000
0001
0000
,  // measure 36
1000
0000
0000
0000
,  // measure 37
0100
0100
0100
0000
,  // measure 38
1000
0000
0001
0000
,  // measure 39
1001
0000
0010
0000
,  // measure 40
0100
0000
0000
0000
,  // measure 41
0001
0001
0001
0000
,  // measure 42
1000
0000
0010
0000
,  // measure 43
0100
0000
0001
0000
,  // measure 44
1000
0000
0000
0000
,  // measure 45
0001
0001
0001
0000
,  // measure 46
1000
0000
0100
0000
,  // measure 47
1000
0000
0010
0000
,  // measure 48
0100
0000
0000
0000
,  // measure 49
0001
0000
0000
0000
,  // measure 50
0100
0000
0000
0000
,  // measure 51
0010
0000
0000
0000
,  // measure 52
1000
0000
0001
0000
,  // measure 53
0100
0000
0000
0000
,  // measure 54
0001
0000
0000
0000
,  // measure 55
1000
0000
0000
0000
,  // measure 56
0100
0000
0010
0000
,  // measure 57
1001
0000
0000
0000
;
