#TITLE:Towards The Horizon;
#SUBTITLE:;
#ARTIST:かめりあ;
#TITLETRANSLIT:;
#SUBTITLETRANSLIT:;
#ARTISTTRANSLIT:Camellia;
#GENRE:;
#CREDIT:;
#BANNER:Towards The Horizon.png;
#BACKGROUND:Towards The Horizon-bg.png;
#LYRICSPATH:;
#CDTITLE:;
#MUSIC:Towards The Horizon.mp3;
#OFFSET:-4.086999;
#SAMPLESTART:41.387867;
#SAMPLELENGTH:18.650436;
#SELECTABLE:YES;
#BPMS:0.000000=154.419998
;
#STOPS:
;
#BGCHANGES:;
#KEYSOUNDS:;
#ATTACKS:;

//---------------dance-single - ----------------
#NOTES:
     dance-single:
     :
     Hard:
     9:
     0.491419,0.716455,0.094895,0.253052,0.423072,435.000000,423.000000,12.000000,32.000000,0.000000,0.000000,0.491419,0.716455,0.094895,0.253052,0.423072,435.000000,423.000000,12.000000,32.000000,0.000000,0.000000:
0000
0000
0000
0000
,
0000
0000
0000
0000
,
0000
0000
0000
0000
,
0000
0000
0000
0000
,
0000
0000
0000
0000
,
0000
0000
0000
0000
,
0000
0000
0000
0000
,
0000
0000
0000
0000
,
1000
0000
0000
0000
0001
0000
0000
0100
0000
0000
0100
0000
0010
0000
0000
0000
,
1000
0000
0000
0000
0001
0000
0000
0010
0000
0000
0010
0000
0100
0000
0000
0000
,
0010
0000
0000
0000
0001
0000
0000
1000
0000
0000
0100
0000
0010
0000
0000
0000
,
0001
0000
0000
0000
0100
0000
0000
0010
0000
0000
1000
0000
0001
0000
1000
0000
,
0200
0000
0000
0310
0002
0000
0000
0000
,
0003
1000
0100
0001
0100
0010
0001
0100
,
0020
0000
0000
0030
,
4004
0000
0000
3003
,
0210
0000
0000
0000
0300
0000
0001
0000
1000
0010
0000
0100
0001
0000
1000
0000
,
0100
0000
0000
0000
0000
0000
0010
0000
0001
0100
0000
0010
1000
0000
0001
0000
,
0100
0000
0000
0000
0001
0000
1000
0000
0001
0100
0000
1000
0100
0000
1000
0000
,
0001
0010
1000
0010
0001
0100
0001
1000
,
1100
0000
0000
0000
0010
0000
0001
0000
1000
0010
0000
0100
0001
0000
1000
0000
,
0100
0000
0000
0000
0000
0000
0010
0000
0001
0100
0000
0010
1000
0000
0100
0000
,
1000
0000
0001
0100
0010
0000
0100
0001
,
1000
0000
0010
0000
0100
0000
0001
0000
0010
0100
0010
0100
1000
0001
1000
0001
,
0010
1000
0010
0001
0100
0010
0010
0100
,
0001
1000
0100
1000
0001
0010
0100
0010
,
0001
0000
0000
1000
0020
0000
0000
0000
0130
0000
0000
0001
0020
0000
0000
0000
,
0130
0000
0000
0000
0010
0000
0000
0001
0000
1000
0000
0000
0010
0000
1000
0000
,
0100
0001
0100
0010
0001
1000
1000
0001
,
0100
0001
0010
0100
0010
0001
0000
1000
,
0001
0000
0000
0100
0020
0000
0000
0000
1030
0000
0000
0001
0020
0000
0000
0000
,
0130
0000
0010
0001
0000
0000
1000
0000
0010
0100
0000
0000
0001
0000
1000
0000
,
0010
0000
1001
0000
,
0000
0001
0100
0001
0000
0010
0000
0100
1000
0000
0001
0000
0000
0000
0000
0000
,
1000
0000
0000
0000
0000
0000
0001
0100
0001
0000
0000
0000
0000
0000
0000
0000
,
1000
0000
0000
0001
0000
0000
0010
0000
0100
0010
0100
0000
0001
0000
0000
0000
,
0000
0100
1001
0000
,
0000
1000
0001
0010
0000
0100
0000
0010
0001
0000
0100
0000
0000
0000
0000
0000
,
0010
0000
0000
0000
0000
0000
1000
0001
1000
0000
0000
0000
0000
0000
0000
0000
,
0010
0000
0000
1000
0000
0000
0001
0010
0100
0000
0010
0001
0000
0100
0010
0000
,
2000
0000
0000
0000
0000
0000
3001
1000
0020
0000
0000
0000
0000
0000
0000
0000
,
0030
0000
0100
0000
0010
1000
0100
0000
0010
0000
0001
0000
0100
0000
0010
0000
,
2000
0000
0000
0000
0000
0000
3001
1000
0002
0000
0000
0000
0000
0000
0003
0000
,
0000
0000
0000
0000
0000
0000
0000
0000
0000
0000
0000
0000
1000
0100
0010
0001
,
0200
0000
0000
0000
0000
0000
0310
1000
0002
0000
0000
0000
0000
0000
0000
0000
,
0003
0000
1000
0000
0001
0100
0001
0000
0010
0000
0001
0000
1000
0000
0100
0000
,
0020
0000
0000
0000
0000
0000
0130
1000
0020
0000
0000
0000
0000
0000
0130
0001
,
0020
0000
0032
0000
,
2003
0000
0000
0000
,
3000
0000
0000
0000
0002
0000
0000
0000
0203
0000
0000
0000
1300
0100
0001
0010
,
0100
0000
0000
0010
0000
0001
0000
1000
0010
0000
0000
0100
0000
0001
0000
1000
,
0100
0000
0000
0010
0100
0000
1000
0000
0010
0000
0100
0000
0001
0000
1000
0000
,
0200
0000
0000
0000
0000
0000
1300
0100
0010
0000
0001
0000
0100
0000
0001
0000
,
1000
0000
0001
0100
0020
0000
1030
0001
1000
0000
0100
0000
0001
0000
0100
0000
,
1000
0000
0000
0100
0000
0010
0000
0001
0100
0000
0000
0010
0000
1000
0000
0001
,
0100
0000
0000
0010
1000
0000
0100
0000
1000
0000
0001
0000
0100
0000
0010
0000
,
2000
0000
0000
0000
0000
0000
3001
1000
0010
0100
0010
1000
0001
0010
0100
0010
,
0002
0000
0000
0000
2003
0000
0000
0000
3001
0010
0100
1000
0010
0100
0001
1000
,
0100
0000
0000
0010
0001
0000
0100
0000
0010
0000
0000
1000
0010
0000
0100
0000
,
0001
0000
0000
1000
0001
0000
0100
0000
0010
0000
1000
0000
0100
0000
1000
0000
,
0002
0000
0000
0000
0000
0000
1003
0001
0010
0000
0100
0000
0010
0000
0001
0000
,
1000
0000
0010
0100
0010
0000
1000
0001
0010
0000
0100
0000
0010
0000
0001
0000
,
2000
0000
0000
0000
3000
0000
0001
0100
0001
0000
0010
0000
0001
0000
1000
0000
,
0200
0000
0000
0000
0300
0000
1000
0010
1000
0000
0001
0000
0100
0000
0001
0000
,
2000
0000
0000
3000
,
0440
0000
0000
0330
,
1001
0000
0000
0000
0001
0100
0001
0100
0001
0000
0100
0001
0000
1000
0000
0001
,
0010
0000
0000
0100
0000
0000
1000
0000
0001
0000
0100
0000
0010
0000
1001
0000
,
0000
0000
1000
0000
0001
1000
0000
0010
0100
0000
0001
0000
0010
0000
0100
0000
,
1000
0000
0000
0100
0000
0000
1000
0000
0010
0000
0001
0000
0010
0000
1000
0000
,
0010
0000
0000
0000
1001
0000
0000
0000
0000
1000
0010
1000
0010
1000
0000
0001
,
0010
0000
0000
0000
0100
0010
0001
0000
1000
0000
1000
0000
0001
0000
0010
0000
,
0110
0000
0000
0011
0000
0000
0100
0010
0001
0100
0010
1000
0001
1000
0001
0010
,
0100
0000
0000
2002
0000
0000
0000
0000
,
0000
0000
0000
0000
,
0000
0000
3003
0000
;

//---------------dance-single - ----------------
#NOTES:
     dance-single:
     :
     Medium:
     6:
     0.328742,0.447784,0.110710,0.268868,0.106757,291.000000,277.000000,14.000000,34.000000,0.000000,0.000000,0.328742,0.447784,0.110710,0.268868,0.106757,291.000000,277.000000,14.000000,34.000000,0.000000,0.000000:
0000
0000
0000
0000
,
0000
0000
0000
0000
,
0000
0000
0000
0000
,
0000
0000
0000
0000
,
0000
0000
0000
0000
,
0000
0000
0000
0000
,
0000
0000
0000
0000
,
0000
0000
0000
0000
,
1000
0001
0100
0100
,
0001
1000
0010
0010
,
1000
0100
0010
0010
,
0001
0100
0010
0010
,
0200
0000
0320
0000
,
0030
0100
0010
1000
,
0002
0000
0000
0000
0000
0000
0000
0003
,
2200
0000
0000
3300
,
1010
0000
0000
0000
0000
0000
1000
0000
0001
0000
0000
0100
0000
0000
0001
0000
,
0010
0000
0000
0000
0000
0000
0100
0000
1000
0000
0000
0001
0000
0000
0100
0000
,
0010
0000
0000
0000
0000
0000
0100
0000
0010
0000
0000
1000
0000
0000
0001
0000
,
0010
0000
0100
0000
0010
0001
0100
0010
,
1000
0000
0000
0000
0000
0000
0001
0000
1000
0000
0000
0010
0000
0000
0100
0000
,
0010
0000
0000
0000
0000
0000
0100
0000
0001
0000
0000
0010
0000
0000
0100
0000
,
1000
0000
1000
0100
0001
0000
0001
0100
,
1000
0000
0010
0000
0100
0010
1000
0100
,
0010
0000
0001
0000
0100
0010
1000
0000
,
0010
0000
0100
0000
0001
1000
0010
0000
,
1000
0000
0000
0001
0200
0000
0000
0000
0000
0000
0000
0000
0000
0000
0000
0000
,
0300
0000
0000
0000
,
0010
0000
1000
0000
0100
1000
0010
0000
,
0100
0000
0001
0000
0010
0100
0000
0010
,
0001
0000
0000
1000
0020
0000
0000
0000
0000
0000
0000
0000
0000
0000
0000
0000
,
0130
0000
0000
0010
0000
0000
1000
0000
,
1001
0000
0110
0000
,
0000
0100
0010
1000
0001
0000
0000
0000
,
1000
0000
1100
0000
,
0100
0000
0000
0010
0000
0000
0001
0000
1000
0000
0000
0000
1000
0000
0000
0000
,
0000
0110
0001
0000
,
0000
1000
0001
0100
0001
0000
0000
0000
,
0010
0000
0001
0000
,
1000
0000
0000
0001
0000
0000
0100
0000
0010
0000
0000
0000
1000
0000
0000
0000
,
0201
0000
0000
0310
2000
0000
0000
0000
,
3000
0001
1000
0000
0100
0000
1000
0000
,
0020
0000
0000
0130
0020
0000
0000
0000
,
0030
0000
0000
0000
0000
0000
0100
0010
,
2000
0000
0000
3001
0020
0000
0000
0000
,
0000
0031
0010
0000
0100
0000
0010
0000
,
0002
0000
0000
1003
0020
0000
0000
1030
,
0002
0000
2003
0000
,
0200
0000
0000
0000
,
3300
0000
0020
0000
0032
0000
0013
0100
,
1000
0000
0000
0001
0000
0001
0000
0000
0100
0000
0000
0010
0000
0010
0000
0000
,
1000
0000
0000
0100
0000
0100
0000
0000
0010
0000
0001
0000
0010
0000
0100
0000
,
0010
0000
0000
0001
1000
0010
1000
0001
,
0010
0100
2000
0000
0000
0000
3000
0000
,
0001
0000
0000
0100
0000
0010
0000
0000
1000
0000
0000
0100
0000
0010
0000
0000
,
0001
0000
0000
1000
0000
0010
0000
0000
0100
0000
0010
0000
1000
0000
0100
0000
,
0020
0000
0030
0100
0010
0001
1000
0010
,
0200
0000
0302
0000
0013
0100
1000
0001
,
0100
0000
0000
0001
1000
0000
0000
0000
0100
0000
0000
0010
0001
0000
0000
0000
,
0100
0000
0000
0010
1000
0000
0000
0000
0001
0000
0000
0010
0100
0000
0010
0000
,
0100
0000
0000
0010
0001
0100
0010
1000
,
0100
1000
0002
0000
0000
0000
0013
0100
,
2000
0000
0000
3100
0010
0001
0100
0010
,
2000
0000
0000
3010
1000
0100
0010
0001
,
2000
0000
0000
3000
,
0202
0000
0000
0303
,
2010
0000
3100
0010
0001
0000
0010
0100
,
1000
0000
0001
0100
0010
0000
0100
1010
,
0000
1000
0001
0000
0010
0100
1000
0000
,
0100
0000
1000
0000
0010
0100
0001
1000
,
0100
0000
0011
0000
0001
0100
1000
0100
,
0010
0000
1000
0010
0100
0001
0020
0000
,
0130
0000
0000
0110
0000
0000
0000
0000
0001
0000
0000
1001
0000
0000
0000
0000
,
0010
0000
0000
2002
0000
0000
0000
0000
,
0000
0000
0000
0000
,
0000
0000
3003
0000
;

//---------------dance-single - ----------------
#NOTES:
     dance-single:
     :
     Easy:
     3:
     0.192049,0.268670,0.063263,0.166066,0.000000,170.000000,162.000000,8.000000,21.000000,0.000000,0.000000,0.192049,0.268670,0.063263,0.166066,0.000000,170.000000,162.000000,8.000000,21.000000,0.000000,0.000000:
0000
0000
0000
0000
,
0000
0000
0000
0000
,
0000
0000
0000
0000
,
0000
0000
0000
0000
,
0000
0000
0000
0000
,
0000
0000
0000
0000
,
0000
0000
0000
0000
,
0000
0000
0000
0000
,
1000
0000
0001
0000
,
0000
0100
0001
0010
,
0100
0000
0010
0000
,
0000
0000
0000
0000
,
0100
0000
1000
0000
,
0000
0001
1000
0010
,
0200
0000
0000
0300
,
2002
0000
0000
3003
,
0110
0000
0100
0001
,
0010
0000
0100
0010
,
0001
0000
1000
0001
,
1000
0010
0100
0001
,
1000
0000
0100
1000
,
0010
0000
0100
0001
,
0010
0000
0001
0000
,
1000
0000
0001
1000
,
0010
1000
0100
0010
,
0100
1000
0001
0100
,
0010
2000
0000
0000
,
3000
0000
0000
0000
,
0001
0010
0001
1000
,
0100
1000
0010
0100
,
0001
0020
0000
0000
,
0030
0000
0000
0000
,
0100
0000
1001
0000
,
0000
0010
0100
0000
,
0010
0000
1001
0000
,
1000
0001
0100
0000
,
0010
1001
0100
0000
,
0000
0010
1000
0000
,
0100
1000
0001
0000
,
1000
0000
0010
0000
,
0100
0000
0002
0000
,
0003
1000
0001
0010
,
0200
0300
0200
0000
,
0300
0000
0000
0010
,
0002
0000
2003
0000
,
3000
0001
1000
0010
,
2000
3000
0020
0030
,
0200
0300
0002
0000
,
2000
0000
0000
0000
,
3003
0001
0010
0100
,
1000
0000
0100
0000
,
1000
0000
0001
0000
,
0100
0000
0010
0100
,
0001
1000
0000
0000
,
0001
0000
0010
0000
,
0001
0000
1000
0000
,
0100
0000
1000
0000
,
0010
0100
0001
1000
,
0001
0000
1000
0000
,
0010
0000
1000
0000
,
0100
0000
1000
0000
,
0010
0200
0000
0300
,
0010
0000
1000
0001
,
0100
0000
0001
1000
,
0020
0000
0000
0030
,
2002
0000
0000
3003
,
0110
0010
0100
0010
,
0100
0001
1000
0100
,
0000
1000
0001
0010
,
0001
0100
1000
0100
,
0010
1000
0010
0001
,
0010
1000
0100
0001
,
0100
0010
0001
1000
,
0010
0000
0000
2002
0000
0000
0000
0000
,
0000
0000
0000
0000
,
0000
0000
3003
0000
;

//---------------dance-single - ----------------
#NOTES:
     dance-single:
     :
     Beginner:
     2:
     0.110710,0.203776,0.063263,0.000000,0.000000,98.000000,90.000000,8.000000,0.000000,0.000000,0.000000,0.110710,0.203776,0.063263,0.000000,0.000000,98.000000,90.000000,8.000000,0.000000,0.000000,0.000000:
0000
0000
0000
0000
,
0000
0000
0000
0000
,
0000
0000
0000
0000
,
0000
0000
0000
0000
,
0000
0000
0000
0000
,
0000
0000
0000
0000
,
0000
0000
0000
0000
,
0000
0000
0000
0000
,
0010
0000
0000
0000
,
1000
0000
0000
0000
,
0001
0000
0000
0000
,
0100
0000
0000
0000
,
0010
0000
1000
0000
,
0000
1000
0000
0000
,
0001
0000
0000
0000
,
0110
0000
0000
0000
,
1001
0000
0000
0000
,
0100
0000
0000
0000
,
0010
0000
0000
0000
,
1000
0000
0001
0000
,
1000
0000
0000
0000
,
0010
0000
0000
0000
,
0100
0000
0010
0000
,
1000
0000
0000
0000
,
0001
0000
0000
0000
,
0100
0000
0000
0000
,
0010
0010
0000
0000
,
0000
0000
0000
0000
,
1000
0000
0000
0000
,
0100
0000
0000
0000
,
1000
1000
0000
0000
,
1001
0000
0000
0000
,
0000
0000
0110
0000
,
0000
0000
0010
0000
,
0000
0000
0100
0000
,
0000
0000
0001
1000
,
0000
0001
1000
0000
,
0000
0000
0010
0000
,
0000
0000
0100
0000
,
0000
0000
0001
0000
,
1000
0000
0001
0000
,
0000
0100
0000
0000
,
0010
0000
0010
0000
,
0000
0000
0000
0000
,
0100
0000
0001
0000
,
0000
1000
0000
0000
,
0010
0000
0100
0000
,
0010
0000
1000
0000
,
0001
0000
0000
0000
,
0000
0000
0000
0000
,
0100
0000
0100
0000
,
0100
0000
0100
0000
,
0100
0000
0000
0000
,
0010
0000
0000
0000
,
1000
0000
1000
0000
,
1000
0000
1000
0000
,
0001
0000
0000
0000
,
0100
0000
0010
0000
,
1000
0000
0001
0000
,
1000
0000
0001
0000
,
0100
0000
0010
0000
,
0100
0000
0000
0000
,
1001
0000
0000
0000
,
0010
0000
0000
0000
,
1001
0000
0000
0000
,
0000
0000
0000
0000
,
0110
0000
0010
0000
,
0100
0100
0100
0000
,
0010
0000
1000
0000
,
0001
0000
1000
0000
,
0000
0000
0001
0000
,
1000
0000
0010
0000
,
1000
1000
0000
0000
,
0001
0000
0000
0000
0000
0110
0000
0000
;

//---------------dance-single - ----------------
#NOTES:
     dance-single:
     :
     Challenge:
     11:
     0.655225,0.897051,0.181881,0.284684,0.869868,580.000000,557.000000,23.000000,36.000000,0.000000,0.000000,0.655225,0.897051,0.181881,0.284684,0.869868,580.000000,557.000000,23.000000,36.000000,0.000000,0.000000:
// measure 0
0000
0000
0000
0000
,  // measure 1
0000
0000
0000
0000
,  // measure 2
0000
0000
0000
0000
,  // measure 3
0000
0000
0000
0000
,  // measure 4
0000
0000
0000
0000
,  // measure 5
0000
0000
0000
0000
,  // measure 6
0000
0000
0000
0000
,  // measure 7
0000
0000
0000
0000
,  // measure 8
1000
0000
0000
0000
0101
0000
0000
0001
0000
0000
1000
0000
1001
0000
0000
0000
,  // measure 9
0001
0000
0000
0000
1010
0000
0000
1000
0000
0000
0001
0000
1001
0000
0000
0000
,  // measure 10
0001
0000
0000
0000
0110
0000
0000
1000
0000
0000
0010
0000
1001
0000
0000
0000
,  // measure 11
1000
0000
0000
0000
0110
0000
0000
0010
0000
0000
1000
0000
1001
0000
0001
1000
,  // measure 12
0200
0000
0000
0000
0000
0000
0310
0001
0200
0000
0000
0000
0000
0000
0000
0000
,  // measure 13
0300
0000
0010
0100
0001
0000
1000
0000
0100
0000
1000
0000
0001
0010
0100
1000
,  // measure 14
0020
0000
0000
0000
0130
0010
0100
0010
0100
0010
0100
0010
0100
0010
0100
0010
,  // measure 15
4000
0004
0000
0000
0000
0000
0000
0000
0000
0000
0000
0000
0000
0000
3003
0000
,  // measure 16
0202
0000
0000
0000
0303
0000
0001
0000
1000
0010
0000
0100
0010
1000
0001
0010
,  // measure 17
0200
0000
0000
0000
0300
0000
0010
0000
0001
0100
0000
0100
0001
1000
0100
0010
,  // measure 18
0100
0000
0000
0000
0000
0000
0010
0000
0100
0010
0000
0010
0001
0100
0010
1000
,  // measure 19
0001
0000
0100
0000
1000
0000
0100
0010
1000
0001
0010
0100
1000
0001
0100
0001
,  // measure 20
0010
0000
0000
0000
0000
0000
0100
0000
0010
0001
0000
0001
0100
0010
1000
0001
,  // measure 21
0010
0000
0000
0000
0100
0000
1000
0000
0100
0010
0000
0100
0010
0001
0100
0010
,  // measure 22
1000
0000
0001
0100
1010
0000
1000
0100
,  // measure 23
0011
0000
0000
1100
0000
0000
1000
0001
0010
0100
0010
0001
0100
0010
1000
0001
,  // measure 24
0100
0000
0010
0100
0001
1000
0001
1000
0100
0000
0010
0000
0100
0000
1000
0000
,  // measure 25
0010
0000
0100
0001
0010
0001
0100
0010
1000
0001
1000
0000
0000
0000
0100
1000
,  // measure 26
0020
0000
0000
0130
0002
0000
0000
0000
1003
0000
0000
0100
0020
0000
0000
0000
,  // measure 27
0130
0000
0000
0000
0010
0000
0000
0001
0000
1000
0000
0010
0100
0000
0001
0000
,  // measure 28
1000
0000
0001
0100
0010
0100
0001
1000
0100
0000
1000
0000
0010
0000
0100
0000
,  // measure 29
0001
1000
0001
1000
0100
1000
0001
0100
0010
1000
0001
0000
0000
0000
0100
0010
,  // measure 30
2000
0000
0000
3001
0020
0000
0000
0000
0130
0000
0000
0010
0002
0000
0000
0000
,  // measure 31
0103
0000
0010
0100
0000
0000
0010
0000
0100
0010
0000
0100
0010
0000
1000
0000
,  // measure 32
1001
0000
0000
0000
0000
0000
0000
0000
0000
0001
1000
0001
0100
0000
0000
0000
0000
0000
0000
0000
0000
0000
0000
0000
,  // measure 33
0000
0000
0010
0000
0100
0000
0010
0000
0000
0100
0000
0000
0010
0000
0000
1000
0000
0000
0001
0000
0000
1000
0000
0000
0001
0000
0000
0000
0000
0000
1000
0000
0000
0000
0000
0000
0000
0000
0000
0000
0000
0000
0000
0000
0000
0000
0000
0000
,  // measure 34
0101
0000
0000
0000
0000
0000
0000
0000
0000
1000
0010
1000
0100
0000
0000
0000
0000
0000
0000
0000
0000
0000
0000
0000
,  // measure 35
0100
0000
0000
0100
0000
0000
0010
0000
0001
0000
0000
0000
0100
0000
0000
0000
,  // measure 36
0010
0100
1001
0000
,  // measure 37
0000
0000
0001
0000
0100
0000
0001
0000
0000
0010
0000
0000
0100
0000
0000
0010
0000
0000
0000
0000
0000
0001
0000
0000
1000
0000
0000
0000
0000
0000
0001
0000
0000
0000
0000
0000
0000
0000
0000
0000
0000
0000
0000
0000
0000
0000
0000
0000
,  // measure 38
0100
0000
0000
0000
0000
0000
0000
0000
0000
0010
0100
0001
1000
0000
0000
0000
0000
0000
0000
0000
0000
0000
0000
0000
,  // measure 39
0001
0000
0000
0000
0000
0000
0000
0000
0000
1000
0000
0000
0000
0000
0000
0000
0001
0000
1000
0000
0001
0000
0000
0000
1000
0000
0000
0000
0000
0000
0010
0000
0000
0000
0000
0000
0100
0000
0000
0010
0000
0000
0100
0000
0000
0001
0000
0000
,  // measure 40
2000
0000
0000
0000
0000
0000
0000
0000
0000
3001
0100
0001
2000
0000
0000
0000
0000
0000
0000
0000
0000
0000
0000
0000
,  // measure 41
3000
0000
0000
0001
0000
0000
1000
0001
0100
0001
0000
0000
0010
0000
0000
0001
0000
0000
0100
0000
0000
0010
0000
0000
,  // measure 42
2000
0000
0000
0000
0000
0000
3001
1000
0002
0000
0000
0000
0000
0000
0003
0000
,  // measure 43
0000
0000
0000
0000
0000
0000
0000
0000
0000
0000
0000
0000
0010
0100
1000
0001
,  // measure 44
0200
0000
0000
0000
0000
0000
0000
0000
0000
0310
1000
0001
2000
0000
0000
0000
0000
0000
0000
0000
0000
0000
0000
0000
,  // measure 45
3000
0000
0000
0000
0000
0000
0001
0000
0000
0000
0000
0000
1000
0000
0100
0000
1000
0000
0010
0000
0000
0000
0000
0000
0100
0000
0000
0000
0000
0000
0010
0000
0000
0000
0000
0000
1000
0000
0000
0000
0000
0000
0001
0000
0000
1000
0000
0000
,  // measure 46
0020
0000
0000
0000
0000
0000
0130
0001
2000
0000
0000
0000
0000
0000
3001
1000
,  // measure 47
0200
0000
0000
0000
0320
0000
0000
0030
,  // measure 48
2002
0000
0000
0000
0000
0000
0000
3003
,  // measure 49
1000
0001
0000
1000
0001
0000
1000
0001
0000
1000
0001
0000
0010
0100
1000
0001
,  // measure 50
0100
0000
0000
0010
1000
0001
0010
0001
1000
0000
0000
0010
0100
0001
1000
0100
,  // measure 51
1000
0000
0000
0001
1000
0010
1000
0100
0010
0001
0010
0001
0010
0001
1000
0001
,  // measure 52
0200
0000
0000
0000
0300
0000
0010
0100
0001
0000
1000
0000
0100
0000
1000
0000
,  // measure 53
0010
0000
0000
0000
0000
0000
0100
0000
0010
0000
1000
0000
0002
0000
0000
0000
0000
0000
1003
0000
0000
0100
0000
0000
0001
0000
0000
0000
0000
0000
0100
0000
0000
0000
0000
0000
0010
0000
0000
0000
0000
0000
0001
0000
0000
0000
0000
0000
,  // measure 54
1000
0000
0000
0001
0100
0010
1000
0100
0010
0000
0000
0100
0010
0001
1000
0001
,  // measure 55
0100
0000
0000
0010
0100
0001
1000
0001
0010
0100
0010
0100
0010
0100
0010
0001
,  // measure 56
2000
0000
0000
0000
3000
0000
0001
0010
0100
0010
0001
0100
0010
1000
0001
0010
,  // measure 57
0200
0000
0000
0000
2300
0000
0000
0000
3001
1000
0010
1000
0001
0010
0100
1000
,  // measure 58
0001
0000
0000
1000
0010
0100
0001
0010
0100
0000
0000
0010
0001
0100
0010
1000
,  // measure 59
0100
0000
0000
0010
0100
1000
0010
0100
0001
1000
0010
0100
0001
0010
0100
0010
,  // measure 60
0002
0000
0000
0000
0003
0000
1000
0001
0010
0000
0100
0000
0010
0000
0001
0000
,  // measure 61
1000
0000
0001
0100
0010
0000
0100
0001
1000
0000
0100
0000
0010
0001
0100
0010
,  // measure 62
0200
0000
0000
0000
0300
0000
0010
0100
0001
0000
1000
0000
0100
0000
0001
0000
,  // measure 63
0200
0000
0000
0000
0300
0000
0010
0100
1000
0000
0010
0000
0001
0000
0010
0000
,  // measure 64
2000
0000
0000
0000
,  // measure 65
3040
0400
0000
0000
0000
0000
0000
0000
0000
0000
0000
0000
0000
0000
0330
0000
,  // measure 66
1001
0000
0000
0000
0000
0000
0000
0000
0000
0000
0000
0000
0010
0000
0100
0000
0010
0000
0100
0000
0010
0000
0100
0000
0010
0000
0000
0000
0000
0000
1000
0000
0001
0000
1000
0000
0001
0000
0000
1000
0000
0000
0000
0000
0000
0001
0000
0000
,  // measure 67
0100
0000
0000
0000
0000
0000
0000
0000
0000
0010
0000
0000
1000
0000
0001
0000
1000
0000
0001
0000
0000
0100
0000
0000
0010
0000
0000
1000
0000
0000
0001
0000
0000
0010
0000
0000
0100
0000
0000
0000
0000
0000
1001
0000
0000
0000
0000
0000
,  // measure 68
0000
0000
0001
0100
0010
1000
0001
0010
0100
0010
0001
0100
0010
1000
0001
0010
,  // measure 69
0100
0000
0000
0010
0000
0000
0001
0100
0010
1000
0001
0010
0100
0010
0001
1000
,  // measure 70
0010
0000
0000
1000
0001
1000
1001
0000
0000
0000
0000
0000
0000
0000
0000
0001
0100
0001
0100
0001
0100
0010
0000
0000
,  // measure 71
0100
0000
0000
0000
0000
0000
0000
0000
0000
0010
0000
0000
1000
0000
0001
0000
1000
0000
0001
0000
1000
0000
0001
0000
1000
0000
0000
0000
0000
0000
0101
0000
0000
0000
0000
0000
1020
0000
0000
0000
0000
0000
0000
0000
0000
0000
0000
0000
,  // measure 72
0130
0000
0000
0110
0000
0000
0100
0010
1000
0001
0010
0100
0010
0001
1000
0010
,  // measure 73
0100
0000
0000
2002
0000
0000
0000
0000
,  // measure 74
0000
0000
0000
0000
,  // measure 75
0000
0000
0000
0000
0000
3003
0000
0000
;
