#TITLE:Time to Air;
#SUBTITLE:;
#ARTIST:青龍;
#TITLETRANSLIT:;
#SUBTITLETRANSLIT:;
#ARTISTTRANSLIT:Seiryu;
#GENRE:;
#CREDIT:;
#BANNER:Time to Air.png;
#BACKGROUND:Time to Air-bg.png;
#LYRICSPATH:;
#CDTITLE:;
#MUSIC:Time to Air.mp3;
#OFFSET:-5.159000;
#SAMPLESTART:10.185179;
#SAMPLELENGTH:10.052355;
#SELECTABLE:YES;
#BPMS:0.000000=191.000000
;
#STOPS:12.000000=0.942000
;
#BGCHANGES:;
#KEYSOUNDS:;
#ATTACKS:;

//---------------dance-single - ----------------
#NOTES:
     dance-single:
     :
     Hard:
     9:
     0.673022,0.748224,0.287575,0.000000,0.088810,557.000000,523.000000,34.000000,0.000000,0.000000,0.000000,0.673022,0.748224,0.287575,0.000000,0.088810,557.000000,523.000000,34.000000,0.000000,0.000000,0.000000:
0000
0000
0000
0000
,
0000
0000
0000
0000
,
0000
0000
0000
0000
,
0000
1001
1000
0010
,
1000
0000
0000
0000
0100
0000
1000
0000
0000
0000
0001
0000
0100
0000
0010
1000
,
0000
1000
0001
0000
1000
0000
0000
0000
0001
0000
0000
0000
0010
0000
0000
0000
,
0001
0000
0100
0010
0000
0100
0010
1000
,
0001
0010
0100
0000
0010
0000
0001
0000
,
1000
0000
0000
0000
0001
0000
0100
0000
0000
0000
0010
0000
1000
0000
0100
0010
,
0000
0010
0001
0000
1000
0000
0001
0000
0000
0000
0100
0000
0001
0000
0010
0000
,
1000
0010
0100
1000
0010
0100
0010
0100
,
0010
0100
0010
1000
0100
1000
0001
1000
,
0010
0100
0001
1000
0010
1000
0001
0010
,
1000
0010
0001
1000
0100
1000
0010
0100
,
0001
0010
0001
1000
0100
0010
0100
1000
,
0001
0010
0100
0010
0001
1000
0010
0100
,
0010
1000
0001
0010
0001
1000
0100
0010
,
0001
0100
0010
1000
0010
0100
0001
0100
,
0010
1000
0001
0010
0001
0010
0100
0010
,
0100
1000
0100
0010
0100
1000
0000
1000
,
0100
0010
0001
0010
0001
0000
0000
0001
,
0010
0100
1000
0100
1000
0001
0000
0001
,
1000
0100
1000
0010
1000
0000
0000
0001
,
1000
0001
0100
0001
0100
0010
0000
0100
,
0010
1000
0001
0010
0001
0000
0000
1000
,
0010
1000
0001
0100
0001
0010
0000
0100
,
0010
0001
1000
0001
0100
0000
0000
0010
,
0100
0001
1001
0001
0010
0110
0000
0100
,
1000
0010
1010
1000
1010
0000
0000
1000
,
0010
0100
0101
0001
0010
0011
0000
0010
,
0100
1000
1001
0001
0101
0000
0000
0001
,
0010
0100
1100
1000
0010
1010
0000
1000
,
0010
0100
0101
0001
0011
0000
0000
0010
,
0100
1000
1001
0001
0010
0011
0000
0010
,
0001
0100
0101
0001
0101
0000
0000
0001
,
0100
0001
1000
0100
0010
0001
0010
0100
,
0010
0001
1000
0100
0010
0001
0010
1000
,
0010
0001
1000
0100
0010
0001
0010
0100
,
0010
0001
1000
0001
0100
0001
1000
0010
,
1000
0000
0001
0000
1000
0000
0000
0000
0000
0000
0000
0000
0001
0100
0001
0100
,
0001
0100
0001
0100
0001
0000
0000
0000
0000
0000
0000
0000
1000
0010
1000
0010
,
1000
0010
1000
0010
1000
0000
0000
0000
0000
0000
0010
0000
1001
0000
0000
0000
,
0000
0100
1001
0000
0110
0000
1001
0000
,
0110
1001
0000
0000
,
0000
0000
0000
0000
,
0000
0000
0000
0000
,
0000
0000
0000
0000
,
0000
0010
1000
0001
,
0001
1000
0010
0100
,
0100
0010
1000
0010
,
0100
0001
0010
0100
,
1000
1001
0001
0010
,
0010
0001
1000
0100
,
0100
1001
0001
0010
,
0100
1000
0100
0010
,
0001
1001
0001
1000
,
0010
1001
1000
0001
,
0100
0000
1001
0000
0010
0100
0010
0100
,
0010
0100
0010
0100
0010
0100
0010
0100
,
0010
0100
0001
0001
0001
0001
0001
0000
,
0000
0000
1000
0010
0100
0001
0010
0100
,
1000
0100
1000
0001
0010
0001
1000
0100
,
0010
0001
1000
1000
0001
0100
0010
0100
,
0100
0010
1000
0001
0001
0100
0100
0010
,
0010
1000
1000
0010
0100
0001
0010
0100
,
0010
0001
1000
0001
0100
0010
0100
0001
,
0010
0001
1000
1000
0001
0100
0010
1000
,
1000
0000
0010
0000
0100
0000
0000
0100
0000
0000
0100
0000
0010
0000
1000
0000
,
0001
0010
0001
1000
0100
1000
0010
0001
,
0010
1000
0001
0100
0001
1000
0100
0001
,
0100
1000
0001
0001
1000
0010
0100
0001
,
0001
0100
0010
1000
1000
0100
0100
0010
,
0010
0100
0010
0100
1000
0010
0100
0001
,
0100
1000
0100
0010
0100
0001
1000
0001
,
0100
1000
0100
0001
0001
0100
0010
1000
,
1000
0100
0001
0100
1000
1000
0001
0001
,
0010
0010
0001
0010
0001
0010
0100
0010
,
0100
0010
0100
1000
0100
1000
0001
1000
,
0001
1000
0010
1000
0010
1000
0010
0100
,
0010
0100
0001
0100
0001
0100
0001
0010
,
0001
0000
0010
0000
0100
0000
0000
0000
0000
0000
0000
0000
0010
0001
1000
0001
,
1000
0001
1000
0001
1000
0000
0000
0000
0000
0000
0000
0000
0100
1000
0001
1000
,
0001
1000
0001
1000
0001
0000
0000
0000
0000
0000
0010
0000
1001
0000
0000
0000
,
0000
0100
1001
0000
0110
0000
1001
0000
,
0110
1001
0000
0000
;

//---------------dance-single - ----------------
#NOTES:
     dance-single:
     :
     Medium:
     7:
     0.447070,0.605705,0.236827,0.008458,0.000000,370.000000,342.000000,28.000000,1.000000,0.000000,0.000000,0.447070,0.605705,0.236827,0.008458,0.000000,370.000000,342.000000,28.000000,1.000000,0.000000,0.000000:
0000
0000
0000
0000
,
0000
0000
0000
0000
,
0000
0000
0000
0000
,
0000
1000
0010
1000
,
0100
1000
0001
0100
,
0100
0010
1000
0001
,
0010
0000
0100
0000
0010
0000
0001
1000
,
0001
1000
0100
0000
1000
0000
0010
0000
,
0100
0001
0010
0001
,
1000
0100
1000
0010
,
0100
0000
0001
0000
1000
0010
1000
0010
,
1000
0010
1000
0000
0010
0000
0100
0000
,
0001
0010
1000
0010
,
0100
1000
0001
0010
,
0001
0100
1000
0100
,
0001
1001
0001
0010
,
0001
1001
1000
0010
,
1000
1001
0010
1001
,
1001
1001
0000
0000
,
0000
0000
0001
0000
0000
0100
0000
0000
,
0010
0000
1000
0001
1000
0000
0000
0000
,
0000
0000
1000
0000
0000
0010
0000
0000
,
0100
0000
0010
1000
0100
0000
0000
0000
,
0000
0010
0001
0100
,
0010
1000
0001
0100
,
0000
0001
0100
0010
,
1000
1200
0000
0000
,
0300
0000
1000
0010
1000
0010
0000
0000
,
0000
0000
0100
0001
0100
0000
0000
0000
,
0000
0000
0001
0010
0001
0010
0000
0000
,
0000
0000
0100
1000
0100
0000
0000
0000
,
0000
0000
1000
0001
0100
1000
0000
0000
,
0000
0000
1000
0100
0001
0000
0000
0000
,
0000
0000
0001
0010
1000
0010
0000
0000
,
0000
0000
0010
0100
1000
0000
0000
0000
,
0000
0000
0001
0000
0100
0000
0010
1000
,
0010
0100
0001
0000
1000
0000
0010
0100
,
0001
1000
0010
0000
0100
0000
0001
1000
,
0010
0000
0100
0010
0100
0000
1000
0001
,
1000
0000
1001
0000
0000
0000
0001
0001
,
1000
1000
1001
0000
0000
0000
1000
1000
,
0001
0001
1001
0000
0000
0010
1001
0000
,
0000
1001
0110
1001
,
0110
1001
0000
0000
,
0000
0000
0000
0000
,
0000
0000
0000
0000
,
0000
0000
0000
0000
,
0000
1000
0100
0010
,
0001
1000
0100
0010
,
0001
1000
0100
0010
,
0100
1000
0100
0010
,
0001
0010
0001
0010
,
0010
0001
1000
0010
,
0010
1001
0001
0010
,
0000
0001
1000
0100
,
1000
1001
0001
0100
,
0010
1010
0010
1000
,
0001
0000
1000
0000
0001
0100
0001
0100
,
0001
0100
0001
0100
0001
0100
0001
0100
,
0001
0100
0001
0100
0010
1000
0001
0000
,
0000
0000
1000
0000
0100
0000
1000
0010
,
0100
0000
0001
0000
0100
0000
0010
1000
,
0001
0000
0010
0000
0100
0000
1000
0100
,
1000
0000
0100
0010
0001
0010
0100
1000
,
0100
0010
0100
0000
0010
0000
0010
0100
,
0001
0000
0100
0000
0010
0000
1000
0010
,
0100
0000
0001
0000
1000
0000
0001
1000
,
0010
0000
1000
0001
0010
0100
1000
0001
,
0010
0100
1000
0000
0100
0000
1000
0010
,
0100
0000
0001
0000
1000
0000
0010
1000
,
0001
0000
0100
0000
0010
0000
1000
0010
,
0100
0000
0001
0010
0100
1000
0100
0010
,
0100
1000
0100
0000
1000
0000
0100
1000
,
0010
0000
0100
0000
0001
0000
1000
0001
,
0100
0001
0100
0010
,
1000
0000
0001
0010
0100
0010
0001
0010
,
0100
1000
0001
0000
0001
0000
1000
0000
,
1000
0010
0010
0100
,
0100
0001
0100
0010
,
1000
0001
0010
0100
,
1000
0000
1100
0000
0000
0000
1000
0100
,
0010
0001
0011
0000
0000
0000
0001
0010
,
0100
1000
1100
0000
0000
0000
1001
0000
,
0000
0110
1001
0110
,
1001
0110
0000
0000
;

//---------------dance-single - ----------------
#NOTES:
     dance-single:
     :
     Easy:
     5:
     0.321407,0.540789,0.219910,0.016916,0.000000,266.000000,240.000000,26.000000,2.000000,0.000000,0.000000,0.321407,0.540789,0.219910,0.016916,0.000000,266.000000,240.000000,26.000000,2.000000,0.000000,0.000000:
0000
0000
0000
0000
,
0000
0000
0000
0000
,
0000
0000
0000
0000
,
0000
1001
0000
0000
,
0000
0001
1000
0010
,
0010
0000
0000
0000
,
0000
1000
0001
0100
,
0010
0000
0000
0000
,
0000
0100
0010
1000
,
1000
0010
0100
0001
,
0001
1000
0010
0010
,
0010
1000
0010
0100
,
0001
0100
0010
1000
,
1000
0001
0010
0001
,
1000
0001
0010
0100
,
1000
0100
1000
0010
,
0100
0001
1000
0100
,
1000
0010
0100
0001
,
0010
0100
0100
1000
,
1000
0001
1000
0000
,
0000
1000
0001
0000
,
0000
0001
0100
0000
,
0000
0100
0010
0000
,
0000
0010
1000
0010
,
1000
0010
1000
0010
,
0000
0100
0001
0100
,
0001
1001
0000
0000
,
0000
0001
0010
0100
,
0000
0010
0100
0000
,
0010
0100
1000
0000
,
0100
1000
0010
0000
,
0100
0001
0100
0000
,
0010
1000
0001
0000
,
1000
0001
0100
0000
,
0010
1000
0100
0000
,
1000
0001
0001
1000
,
0001
1000
1000
0001
,
1000
0010
0010
0100
,
0010
0100
0100
0010
,
0010
1010
0000
1000
,
0001
0101
0000
0001
,
1000
1100
0000
0011
,
0000
0001
0010
0100
,
1000
1001
0000
0000
,
0000
0000
0000
0000
,
0000
0000
0000
0000
,
0000
0000
0000
0000
,
0000
1000
0000
0000
,
0000
0100
0000
0000
,
0000
0010
0000
0000
,
0000
0001
0000
0000
,
0000
1001
0000
0000
,
0000
0010
0000
0000
,
0000
0110
0000
0000
,
0000
0100
0000
0000
,
0000
1001
0000
0000
,
0000
0110
0000
0000
,
0000
1001
0000
0110
,
0000
1001
0110
1001
,
0110
0000
0010
0100
0010
0100
0010
0000
,
0000
0010
1000
0010
,
0010
0000
0100
0001
0000
0000
0100
0000
,
0100
0001
0010
0001
,
1000
0100
0010
0100
,
1000
0001
1000
0010
,
0010
1000
0001
0100
,
0100
0001
1000
0010
,
1000
0001
0010
0100
,
1000
0100
1000
0010
,
0100
0001
0010
0100
,
0010
0001
1000
0010
,
0100
0001
0010
0100
,
1000
0100
1000
0010
,
0100
0001
1000
0010
,
1000
0001
0100
0010
,
1000
0001
0010
0100
,
1000
0100
0100
0100
,
0100
0010
0010
0010
,
0010
0001
0001
0001
,
0001
1000
1000
1000
,
1000
1001
0000
0001
,
0100
0110
0000
0010
,
1000
1010
0000
0101
,
0000
0011
1100
1010
,
0101
2002
0000
0000
,
0000
3003
0000
0000
;

//---------------dance-single - ----------------
#NOTES:
     dance-single:
     :
     Beginner:
     2:
     0.132913,0.285038,0.033832,0.000000,0.000000,110.000000,106.000000,4.000000,0.000000,0.000000,0.000000,0.132913,0.285038,0.033832,0.000000,0.000000,110.000000,106.000000,4.000000,0.000000,0.000000,0.000000:
// measure 0
0000
0000
0000
0000
,  // measure 1
0000
0000
0000
0000
,  // measure 2
0000
0000
0000
0000
,  // measure 3
0000
1000
0000
0000
,  // measure 4
0000
0001
0000
1000
,  // measure 5
0000
0000
0000
0000
,  // measure 6
0000
0001
0000
0100
,  // measure 7
0100
0000
0000
0000
,  // measure 8
0000
0010
0000
1000
,  // measure 9
0000
0010
0000
1000
,  // measure 10
0000
0001
1000
1000
,  // measure 11
1000
0000
0000
0000
,  // measure 12
0000
0001
0000
1000
,  // measure 13
0000
0010
0000
0000
,  // measure 14
0000
1000
0000
1000
,  // measure 15
0000
0001
0000
0000
,  // measure 16
0000
0100
0000
0000
,  // measure 17
0000
0010
0000
1000
,  // measure 18
0001
1000
0000
0000
,  // measure 19
0000
0001
0000
0000
,  // measure 20
0000
0100
0000
0000
,  // measure 21
0000
0001
0000
0000
,  // measure 22
0000
0010
0000
0000
,  // measure 23
0000
0001
0000
0000
,  // measure 24
0000
1000
0000
0000
,  // measure 25
0000
0001
0000
0000
,  // measure 26
0000
1000
0000
0000
,  // measure 27
0000
1000
0000
0000
,  // measure 28
0000
0010
0010
0000
,  // measure 29
0000
0100
0000
0000
,  // measure 30
0000
0001
0001
0000
,  // measure 31
0000
0010
0000
0000
,  // measure 32
0000
0100
0100
0000
,  // measure 33
0000
1000
0000
0000
,  // measure 34
0000
0100
0100
0000
,  // measure 35
0000
1000
0000
0000
,  // measure 36
0000
0010
0000
0000
,  // measure 37
0000
0100
0000
0001
,  // measure 38
0000
0010
0000
0001
,  // measure 39
0000
1001
0000
0000
,  // measure 40
0000
0110
0000
0000
,  // measure 41
0000
0010
0000
0100
,  // measure 42
0000
0001
1000
0001
,  // measure 43
0001
1001
0000
0000
,  // measure 44
0000
0000
0000
0000
,  // measure 45
0000
0000
0000
0000
,  // measure 46
0000
0000
0000
0000
,  // measure 47
0000
1000
0000
0000
,  // measure 48
0000
0100
0000
0000
,  // measure 49
0000
1000
0000
0000
,  // measure 50
0000
0001
0000
1000
,  // measure 51
0000
0001
0000
0000
,  // measure 52
0000
0100
0000
0000
,  // measure 53
0000
0010
0000
0000
,  // measure 54
0000
1000
0000
0000
,  // measure 55
0000
0010
0000
0000
,  // measure 56
0000
0100
0000
0000
,  // measure 57
0000
0001
0000
0000
,  // measure 58
0000
1000
0000
0000
,  // measure 59
0000
0010
0010
0010
,  // measure 60
0000
1000
0000
0000
,  // measure 61
0000
0001
0000
0000
,  // measure 62
0000
0010
0000
0000
,  // measure 63
0000
0001
0000
1000
,  // measure 64
0000
0001
0000
0000
,  // measure 65
0000
0100
0000
0000
,  // measure 66
0000
0010
0000
1000
,  // measure 67
0000
0100
0100
0100
,  // measure 68
0000
1000
0000
0000
,  // measure 69
0000
0010
0000
0000
,  // measure 70
0000
1000
0000
0000
,  // measure 71
0000
0001
0000
0000
,  // measure 72
0000
0100
0000
0000
,  // measure 73
0000
0001
0000
0000
,  // measure 74
0000
0010
0000
0001
,  // measure 75
0000
1000
0000
0000
,  // measure 76
0000
0001
0000
0000
,  // measure 77
0000
0100
0000
0000
,  // measure 78
0000
0010
0000
0000
,  // measure 79
0000
1000
0000
0000
,  // measure 80
0000
0010
0000
0000
,  // measure 81
0000
0100
0000
0000
,  // measure 82
0000
0001
0000
0000
,  // measure 83
0000
1000
0000
0000
,  // measure 84
0000
0110
0000
0000
;
