#VERSION:0.83;
#TITLE:The Star of the Underground;
#SUBTITLE:;
#ARTIST:Kiryu;
#TITLETRANSLIT:;
#SUBTITLETRANSLIT:;
#ARTISTTRANSLIT:;
#GENRE:;
#ORIGIN:;
#CREDIT:;
#BANNER:The Star of the Underground.png;
#BACKGROUND:The Star of the Underground-bg.png;
#PREVIEWVID:;
#JACKET:The Star of the Underground-jacket.png;
#CDIMAGE:;
#DISCIMAGE:;
#LYRICSPATH:;
#CDTITLE:;
#MUSIC:The Star of the Underground.ogg;
#OFFSET:1.679001;
#SAMPLESTART:53.662117;
#SAMPLELENGTH:13.943657;
#SELECTABLE:YES;
#BPMS:0.000=142.000;
#STOPS:;
#DELAYS:;
#WARPS:;
#TIMESIGNATURES:0.000=4=4;
#TICKCOUNTS:0.000=4;
#COMBOS:0.000=1;
#SPEEDS:0.000=1.000=0.000=0;
#SCROLLS:0.000=1.000;
#FAKES:;
#LABELS:0.000=Song Start;
#BGCHANGES:;
#KEYSOUNDS:;
#ATTACKS:
;

//---------------dance-single - ----------------
#NOTEDATA:;
#CHARTNAME:;
#STEPSTYPE:dance-single;
#DESCRIPTION:;
#CHARTSTYLE:;
#DIFFICULTY:Hard;
#METER:8;
#RADARVALUES:0.518552,0.588573,0.244091,0.149604,0.322830,461.000000,430.000000,31.000000,19.000000,0.000000,0.000000,2.000000,0.000000,0.000000,0.518552,0.588573,0.244091,0.149604,0.322830,461.000000,430.000000,31.000000,19.000000,0.000000,0.000000,2.000000,0.000000,0.000000;
#CREDIT:;
#NOTES:
0000
0000
0000
0000
,
0000
0000
0000
0000
,
0000
0000
0000
0000
,
0000
0000
0000
0000
,
0000
0000
0000
0000
,
1000
0000
0000
0001
1000
0000
0100
0000
1000
0000
0000
0010
0000
0000
0100
0000
,
0000
0000
0010
0000
1000
0000
0000
0000
0001
0000
0000
0100
0000
0000
0000
0000
,
0001
0000
0000
0100
0010
0000
1000
0000
0100
0000
0000
1000
0000
0000
0001
0000
,
0200
0000
0000
0000
0020
0000
0000
0330
,
1001
0000
0001
0000
0010
0000
0001
0000
1000
0000
0000
1000
0000
0000
0010
0000
,
1000
0000
0001
0000
0010
0100
0000
0010
0000
0001
1000
0000
0001
0000
0100
0000
,
0010
1000
0100
0000
0000
0000
0000
0000
,
0010
0000
0000
0001
0100
0000
0010
0000
1000
0000
1000
0000
0001
0000
0000
0000
,
0010
0000
0100
0000
1000
0000
0001
0000
0100
0000
0000
0010
0000
0000
0100
0000
,
0010
0000
1000
0000
0100
1000
0000
0001
0000
0010
0001
0000
0010
0000
0100
0000
,
1000
0100
0001
0000
0000
0000
0000
0000
,
0001
0000
0000
0100
0010
0000
0001
0000
0100
0000
0100
0000
0010
0000
0000
0000
,
1000
0000
0001
0000
0010
0000
0001
0000
1000
0000
0010
1000
0000
1000
0010
0000
,
0100
0000
0001
0000
0010
0100
0000
0010
0000
0001
1000
0000
0010
0000
0100
0000
,
0001
1000
0001
0000
0000
0000
0000
0000
,
1000
0000
0000
0001
0100
0000
0010
0000
1000
0000
1000
0000
0100
0000
0000
0000
,
0010
0000
0001
0000
0100
0000
0010
0000
1000
0000
0001
1000
0000
1000
0001
0000
,
0010
0000
0001
0000
0100
0001
0000
0100
0000
0010
1000
0000
0100
0000
1000
0000
,
0010
0000
0100
0000
0010
0000
0000
0000
0100
0010
0100
0010
0000
0000
0000
0000
,
0010
0000
0100
0000
0010
0000
0100
0000
0010
1000
0000
0010
0100
0000
0001
0000
,
1000
0000
0000
0000
0001
0000
0000
0000
0200
0000
0000
0010
0000
0000
0310
0000
,
0000
0000
0100
0000
0001
0000
0000
0000
2000
0000
0000
0001
0000
0000
3001
0000
,
1000
0000
0000
0000
0010
0000
0000
0000
0200
0000
0000
0001
0000
0000
0301
0000
,
0000
0000
1000
0000
0100
0000
1000
0000
0020
0000
0000
0100
0000
0000
0130
0000
,
0001
0000
0000
0000
0010
0000
0000
0000
0200
0000
0000
1000
0000
0000
1300
0000
,
0000
0000
1000
0000
0100
0000
0010
0000
0200
0000
0000
0010
0000
0000
0310
0000
,
0001
0000
0000
0000
1000
0000
0000
0000
0020
0000
0000
0100
0000
0000
0130
0000
,
4004
0000
0000
0000
0000
3003
1000
0001
,
0010
0000
0000
0010
0000
0000
0001
0000
0100
0000
0000
0000
0001
0000
0000
0000
,
0011
0000
0101
0000
1000
0100
0010
0001
,
0100
0000
0000
0001
0100
0000
0010
0000
1000
0000
0000
0000
0001
0000
1000
0000
,
0001
0010
0001
0000
1000
0100
1000
0000
1001
0000
0000
0000
1000
0000
0001
0000
,
0010
0000
0000
0100
0000
0000
1000
0000
0100
0000
0000
0010
0001
0000
1000
0000
,
0010
0000
1000
0010
1000
0200
0310
0002
,
1003
0000
0000
0001
0000
0000
0010
0000
0100
0000
0000
0000
0010
0000
0001
0000
,
1000
0000
0010
0100
1000
0000
0100
0000
0001
0000
0000
0000
1000
0000
0001
0000
,
0010
0000
0000
0100
0000
0000
0010
0000
0001
0000
0000
0100
0000
0000
0010
0000
,
1000
0000
0000
0100
0010
0000
0000
0010
0001
0000
0000
0001
1000
0000
0000
1000
,
0010
0000
0000
0100
0010
0000
1000
0000
0001
0000
0000
0010
0100
0000
1000
0000
,
0001
0100
0001
0000
1000
0010
1000
0000
1001
0000
0000
0000
1000
0000
0100
0000
,
2000
0000
0000
3010
0000
0000
0100
0000
0001
0100
0000
0010
0000
0000
1000
0000
,
1010
0011
1100
0101
,
1002
0000
0000
0100
0200
0000
0303
0000
,
0001
0000
0000
0001
0000
0000
1000
0000
0001
0000
0000
0000
0010
0000
0000
0000
,
1001
0000
0000
0000
0000
0000
0000
0100
,
1001
0000
0000
0000
0000
0000
0010
0000
1001
0000
0000
0100
0000
0000
0010
0000
,
1001
0000
0000
0100
0110
0000
0000
0010
,
1001
0000
0000
1000
0000
0000
0100
0000
0010
0000
0000
0000
0100
0000
1000
0000
,
0000
0000
0001
0000
1000
0000
0010
0100
0000
0000
0000
0000
0010
0000
0100
0000
,
0001
0000
1000
0000
0010
0000
0100
0001
0000
0000
0000
0000
0001
0000
0100
0000
,
0020
0000
0000
1000
0000
0000
0100
0000
0130
0000
0000
0000
0010
0000
0100
0000
,
0002
0000
0000
0100
0000
0000
0010
0000
0013
0000
0000
0000
0010
0000
0100
0000
,
1000
0000
0000
0000
1000
0000
0001
0100
0000
0000
0000
0000
0010
0000
0100
0000
,
0001
0000
1000
0000
0100
0000
0010
0100
0000
0000
0000
0000
0010
0000
0001
0000
,
0200
0000
0000
0001
0000
0000
0010
0000
0310
0000
0000
0000
0100
0000
0001
0000
,
2000
0000
0000
0100
0000
0000
0001
0000
3001
0000
0000
0000
0010
0000
0001
0000
,
0000
0000
0100
0000
0010
0000
1000
0100
0000
0000
0000
0000
0010
0000
0100
0000
,
1000
0000
0001
0000
0100
0000
0010
1000
0000
0000
0000
0000
0100
0000
0010
0000
,
0200
0000
0000
1000
0000
0000
0010
0000
0310
0000
0000
0000
0100
0000
0010
0000
,
0001
0000
0000
0010
0000
0000
0100
0000
1000
0000
0000
0000
0010
0000
0100
0000
,
1001
0000
0000
0000
0001
0000
0000
0000
0101
0000
0000
0100
0000
0000
1001
0000
,
0000
0000
1000
0000
1100
0000
0000
0000
1001
0000
0000
0001
0000
0000
0000
0000
,
0101
0000
0000
0000
0100
0000
0000
0000
1010
0000
0000
1000
0000
0000
1001
0000
,
0000
0000
0001
0000
0101
0000
0000
0000
1001
0000
0000
1000
0000
0000
0000
0000
,
0101
0000
0000
0000
0001
0000
0000
0000
0011
0000
0000
0100
0000
0000
1100
0000
,
0000
0000
1000
0000
0010
0000
0000
0000
0110
0000
0000
0001
0000
0000
1000
0000
,
0001
0010
0001
1000
0010
1000
0100
1000
,
0001
0000
0010
0000
0100
0000
1000
0000
0001
1000
0000
0010
0000
0000
0100
0000
,
0001
0010
0100
1000
0100
0001
0100
1000
,
0001
0000
0000
1000
0010
0000
0100
0000
0001
0000
0001
0000
1000
0000
0000
0000
;

//---------------dance-single - ----------------
#NOTEDATA:;
#CHARTNAME:;
#STEPSTYPE:dance-single;
#DESCRIPTION:;
#CHARTSTYLE:;
#DIFFICULTY:Medium;
#METER:6;
#RADARVALUES:0.398194,0.470859,0.314956,0.157478,0.078739,354.000000,314.000000,40.000000,20.000000,0.000000,0.000000,2.000000,0.000000,0.000000,0.398194,0.470859,0.314956,0.157478,0.078739,354.000000,314.000000,40.000000,20.000000,0.000000,0.000000,2.000000,0.000000,0.000000;
#CREDIT:;
#NOTES:
0000
0000
0000
0000
,
0000
0000
0000
0000
,
0000
0000
0000
0000
,
0000
0000
0000
0000
,
0000
0000
0000
0000
,
1000
0001
0010
0001
,
1000
0100
1000
1000
,
0001
1000
0010
1000
,
0200
0000
0000
0000
0020
0000
0000
0330
,
1001
0000
0000
0000
0001
0000
0000
0000
0100
0000
0000
0100
0000
0000
0001
0000
,
0000
0000
1000
0000
0001
0000
0000
0000
1000
0000
0000
0100
0000
0000
1000
0000
,
0010
1000
0100
0000
0000
0000
0000
0000
,
0100
0000
0010
0001
1000
1000
0001
0000
,
1010
0000
0000
0000
0010
0000
0000
0000
0100
0000
0000
0001
0000
0000
0010
0000
,
0000
0000
0100
0000
0010
0000
0000
0000
0001
0000
0000
1000
0000
0000
0010
0000
,
1000
0001
0010
0000
0000
0000
0000
0000
,
0100
0000
1000
0000
0010
0010
0100
0000
,
0102
1000
1000
1000
,
0010
0013
0001
1000
,
2100
0001
0001
0001
,
0010
0010
3002
0103
,
1020
0100
0100
0100
,
1000
1000
2030
3001
,
0021
0100
0100
0100
,
0001
0000
0001
0000
0031
1000
0001
1000
,
0100
1000
0020
1030
,
0001
0100
0020
1030
,
0001
0010
0200
0310
,
0001
0000
1000
0000
0001
0100
0010
0000
,
1000
0010
0200
0301
,
0010
0001
2000
3100
,
1000
0010
0200
0301
,
4004
0000
0000
3003
,
0101
0001
1001
1000
,
1100
1000
1001
0110
,
1001
0000
0001
0100
0001
0000
0100
0000
,
0010
1000
0010
1000
0100
0000
1000
0000
,
1001
0001
0011
0001
,
1000
0000
0010
0000
1000
0100
0010
0001
,
1000
0001
0100
0001
,
1000
0100
0001
0100
1000
0000
0001
0100
,
0110
0010
1010
1000
,
1001
0001
0011
1100
,
1001
0000
1000
0001
0100
0000
0010
0000
,
1000
0010
0100
0001
0010
0000
0100
0000
,
0010
0000
0000
0001
0000
0000
1000
0000
0010
0000
0000
0100
0000
0000
0010
0000
,
1010
0011
1100
0101
,
1002
0000
0000
1000
2000
0000
0000
3003
,
0010
0000
0000
0010
0000
0000
0010
0000
0100
0000
0000
0000
0010
0000
0000
0000
,
1001
0000
0000
0000
0000
0000
0000
1000
,
0001
0000
0000
0000
0000
0000
1000
0000
0001
0000
0000
1000
0000
0000
0001
0000
,
1000
0000
0000
0001
1000
0000
0000
0001
,
1000
0000
0000
0001
0000
0000
1000
0000
0010
0000
0000
0000
1000
0000
0010
0000
,
0000
0100
0010
0000
1000
0000
0001
0000
,
0010
0000
0001
0100
0001
0000
1000
0000
,
0001
0000
0000
0001
0000
0000
0001
0000
1000
0000
0000
0000
0001
0000
0100
0000
,
0010
0000
0000
0010
0000
0000
0010
0000
1000
0000
0000
0000
1000
0000
0010
0000
,
0100
0001
0010
0001
,
1000
1100
0110
1100
,
1001
0001
0100
1010
,
0101
0000
0001
0000
0010
0000
0001
1000
,
0100
0000
1000
0000
0010
0000
0100
0010
,
1000
0000
0010
0000
0100
0000
0001
0100
,
0010
0000
0000
0010
0000
0000
0100
0000
0001
0000
0000
0000
1000
0000
0100
0000
,
0010
0000
0000
0010
0000
0000
0100
0000
0010
0000
0000
0000
0001
0000
1000
0000
,
1001
0000
0000
0000
0001
0000
0000
0000
1000
0000
0000
0010
0000
0000
1000
0000
,
0000
0000
0010
0000
0100
0000
0000
0000
0001
0000
0000
1000
0000
0000
0000
0000
,
0001
0000
0000
0000
0010
0000
0000
0000
0001
0000
0000
1000
0000
0000
0100
0000
,
0000
0000
1000
0000
0010
0000
0000
0000
0100
0000
0000
0010
0000
0000
0000
0000
,
0100
0000
0000
0000
0001
0000
0000
0000
0010
0000
0000
0001
0000
0000
1000
0000
,
0000
0000
0100
0000
1000
0000
0000
0000
0001
0000
0000
0100
0000
0000
0000
0000
,
0101
0001
1001
1000
,
1100
0000
0000
0000
0011
0000
0000
0000
0101
0000
0000
1010
0000
0000
0000
0000
,
0002
0023
0230
2300
,
3001
0000
1000
0010
0100
0100
0010
0000
;

//---------------dance-single - ----------------
#NOTEDATA:;
#CHARTNAME:;
#STEPSTYPE:dance-single;
#DESCRIPTION:;
#CHARTSTYLE:;
#DIFFICULTY:Easy;
#METER:3;
#RADARVALUES:0.192348,0.294287,0.070865,0.078739,0.000000,171.000000,162.000000,9.000000,10.000000,0.000000,0.000000,0.000000,0.000000,0.000000,0.192348,0.294287,0.070865,0.078739,0.000000,171.000000,162.000000,9.000000,10.000000,0.000000,0.000000,0.000000,0.000000,0.000000;
#CREDIT:;
#NOTES:
0000
0000
0000
0000
,
0000
0000
0000
0000
,
0000
0000
0000
0000
,
0000
0000
0000
0000
,
0000
0000
0000
0000
,
1000
0000
0001
0000
,
1000
0000
0001
0000
,
0100
0000
0010
0000
,
2000
0000
0002
3003
,
1001
0000
0001
0000
,
1000
0010
1000
0000
,
0100
0100
0000
0000
,
1000
0001
0100
0100
,
0001
0000
0010
0000
,
0001
1000
0001
0000
,
0100
0100
0000
0000
,
0010
0000
1000
0000
,
0002
0000
0000
0000
,
0000
0000
1003
0001
,
2000
0000
0000
0000
,
0000
0000
3010
1000
,
0200
0000
0000
0000
,
0000
0000
0000
0310
,
2002
0000
0000
0000
,
0000
0000
0000
3003
,
0001
0000
1000
0000
,
0010
0000
1000
0000
,
0001
0000
0100
0000
,
0010
0000
1000
0010
,
1000
0000
0001
0000
,
0010
0000
0001
0000
,
1000
0000
0100
0000
,
2002
0000
0000
3003
,
0010
0000
1000
0000
,
0001
0100
0001
1000
,
0001
0000
0010
0000
,
0100
0100
0010
0000
,
0100
0000
1000
0000
,
0001
0000
1000
0010
,
0100
0000
0001
0000
,
0010
0001
1000
0000
,
0001
0000
1000
0000
,
0010
1000
0001
0100
,
0010
0000
0100
0000
,
0001
1000
0010
0000
,
1000
0000
0001
0000
,
0100
0100
0010
0010
,
1000
0000
0001
0000
,
0100
0000
0000
0000
,
0001
0000
0000
0000
,
0001
0000
1000
0000
,
0001
0000
1000
0000
,
0001
0001
0001
1000
,
0000
0001
0100
0000
,
0001
1000
0100
0000
,
1000
1000
0010
0000
,
0100
0100
0001
1000
,
0001
0000
0010
0000
,
0001
0010
0100
1000
,
0001
0000
1000
0010
,
0100
0000
0010
0000
,
1000
0000
0001
0000
,
0100
0001
0100
0000
,
0010
1000
0010
0000
,
0100
0001
0100
0000
,
1001
0000
0010
0000
,
1000
0000
0001
1000
,
1001
0000
1000
0000
,
0001
0000
0010
0001
,
1001
0000
0001
0000
,
0100
0000
0010
1000
,
1100
0000
0011
0000
,
1001
0001
1000
0000
,
0002
0000
0000
0000
,
0103
0010
1000
1000
;

//---------------dance-single - ----------------
#NOTEDATA:;
#CHARTNAME:;
#STEPSTYPE:dance-single;
#DESCRIPTION:;
#CHARTSTYLE:;
#DIFFICULTY:Beginner;
#METER:1;
#RADARVALUES:0.119233,0.235429,0.047243,0.000000,0.000000,106.000000,100.000000,6.000000,0.000000,0.000000,0.000000,0.000000,0.000000,0.000000,0.119233,0.235429,0.047243,0.000000,0.000000,106.000000,100.000000,6.000000,0.000000,0.000000,0.000000,0.000000,0.000000,0.000000;
#CREDIT:;
#NOTES:
// measure 0
0000
0000
0000
0000
,  // measure 1
0000
0000
0000
0000
,  // measure 2
0000
0000
0000
0000
,  // measure 3
0000
0000
0000
0000
,  // measure 4
0000
0000
0000
0000
,  // measure 5
1000
0000
0000
0000
,  // measure 6
1000
0000
0000
0000
,  // measure 7
0001
0000
0000
0000
,  // measure 8
0100
0000
0100
0000
,  // measure 9
1001
0000
0000
0000
,  // measure 10
0010
0000
0000
0000
,  // measure 11
1000
0000
0000
0000
,  // measure 12
0001
0000
1000
0000
,  // measure 13
0010
0000
0000
0000
,  // measure 14
0100
0000
0000
0000
,  // measure 15
0010
0000
0000
0000
,  // measure 16
1000
0000
0001
0000
,  // measure 17
0010
0000
0000
0000
,  // measure 18
0000
0000
0100
0100
,  // measure 19
0100
0000
0000
0000
,  // measure 20
0000
0000
1000
1000
,  // measure 21
1000
0000
0000
0000
,  // measure 22
0000
0000
0000
0001
,  // measure 23
1000
0000
0000
0000
,  // measure 24
0001
0000
1000
0000
,  // measure 25
0110
0000
0100
0000
,  // measure 26
0000
0000
0010
0000
,  // measure 27
0000
0000
1000
0000
,  // measure 28
0000
0000
0001
0000
,  // measure 29
0000
0000
1000
0000
,  // measure 30
0000
0000
0010
0000
,  // measure 31
0000
0000
0100
0000
,  // measure 32
1001
0000
0000
0010
,  // measure 33
1001
0000
0001
0000
,  // measure 34
1000
0000
0000
0000
,  // measure 35
0100
0000
0100
0000
,  // measure 36
0010
0000
0000
0000
,  // measure 37
0001
0000
0001
0000
,  // measure 38
1000
0000
0000
0000
,  // measure 39
0010
0000
0010
0000
,  // measure 40
0100
0100
0100
0000
,  // measure 41
0010
0000
1000
0000
,  // measure 42
0001
0000
0001
0001
,  // measure 43
0001
0000
1000
0000
,  // measure 44
0010
0010
0010
0000
,  // measure 45
0100
0000
0010
0000
,  // measure 46
1000
1000
0001
0001
,  // measure 47
1000
0000
0001
0000
,  // measure 48
0110
0000
0000
0000
,  // measure 49
1001
0000
0000
0000
,  // measure 50
1000
0000
0000
0000
,  // measure 51
0001
0000
0000
0000
,  // measure 52
1000
0000
0000
0000
,  // measure 53
0010
0000
0000
0000
,  // measure 54
0100
0000
0000
0000
,  // measure 55
0010
0000
0010
0000
,  // measure 56
1000
0000
1000
0000
,  // measure 57
0001
0000
0000
0000
,  // measure 58
1000
0000
0000
0000
,  // measure 59
0010
0000
0000
0000
,  // measure 60
0100
0000
0000
0000
,  // measure 61
0001
0000
0000
0000
,  // measure 62
1000
0000
0000
0000
,  // measure 63
0100
0000
0000
0000
,  // measure 64
1000
0000
0000
0000
,  // measure 65
0010
0000
0000
0000
,  // measure 66
0100
0000
0000
0000
,  // measure 67
0001
0000
0000
0000
,  // measure 68
1000
0000
0000
0000
,  // measure 69
0010
0000
0000
0000
,  // measure 70
0100
0000
0000
0000
,  // measure 71
0001
0000
1000
0000
,  // measure 72
0010
0000
0100
0000
,  // measure 73
0010
0000
0000
0000
,  // measure 74
0000
0000
0100
0100
;
