#TITLE:The Lemon Squash;
#SUBTITLE:;
#ARTIST:Takahiro Eguchi;
#TITLETRANSLIT:;
#SUBTITLETRANSLIT:;
#ARTISTTRANSLIT:;
#GENRE:;
#CREDIT:;
#BANNER:The Lemon Squash.png;
#BACKGROUND:The Lemon Squash-bg.png;
#LYRICSPATH:;
#CDTITLE:;
#MUSIC:The Lemon Squash.ogg;
#OFFSET:2.111001;
#SAMPLESTART:10.548578;
#SAMPLELENGTH:10.105263;
#LASTBEATHINT:3.454835;
#SELECTABLE:YES;
#BPMS:0.000000=190.000000
,200.000000=47.500000
,208.000000=95.000000
,220.000000=190.000000
,291.000000=95.000000
,303.000000=47.500000
;
#STOPS:259.000000=0.316000
;
#BGCHANGES:;
#KEYSOUNDS:;
#ATTACKS:;

//---------------dance-single - ----------------
#NOTES:
     dance-single:
     :
     Hard:
     9:
     0.545166,0.919782,0.346924,0.529059,0.277539,440.000000,400.000000,40.000000,61.000000,0.000000,0.000000,0.545166,0.919782,0.346924,0.529059,0.277539,440.000000,400.000000,40.000000,61.000000,0.000000,0.000000:
0000
0000
0000
0000
,
0000
0000
0000
0000
,
0000
0000
0000
0000
,
0000
0000
0000
0000
,
0000
0000
0000
0000
,
0000
0000
0000
0000
,
1000
0000
0010
0000
0100
0000
0001
0010
,
0000
0001
0000
1000
0000
0001
0100
0000
,
0010
1000
0100
1000
0010
1000
0001
0000
,
1000
0100
0010
0001
0010
1000
0010
0001
,
1000
0000
0001
0000
0100
0000
0010
1000
,
0100
0001
0100
0020
,
0000
0000
0031
0000
1000
0000
0010
1000
0010
0000
1000
0000
0000
0000
0001
0000
,
0200
0000
0000
0000
,
0301
1000
0001
0000
0010
0000
0100
0000
0010
0000
0001
0000
0000
0000
1000
0000
,
0000
0010
0000
0100
0000
0001
1000
0000
,
0100
0100
0010
0001
0000
0010
0100
1000
,
0000
0000
0000
0000
0001
0100
0001
1000
,
0100
1000
0010
0000
0100
0000
0001
0010
,
0100
0010
0001
2000
,
0000
0000
3010
0000
1000
0000
0001
0100
0001
0000
0010
0000
0000
0000
0100
0000
,
0020
0000
0000
0000
0000
0000
0000
0100
,
0130
0000
0010
0000
0001
1000
0001
0000
,
0100
0001
0000
0010
0000
0100
1000
0001
,
0000
0100
0001
0000
0010
0000
0100
0010
,
0001
0000
0100
0000
0001
0000
0100
0000
0001
0000
1000
0010
1000
0000
0000
0000
,
0002
0000
1003
0200
0000
1300
0020
0000
,
1030
0200
0000
1300
0002
0000
2003
0000
,
3200
0000
0310
0002
0000
2003
0000
0020
,
0000
0000
0000
3030
,
2000
0000
3001
0020
0000
0031
0200
0000
,
0301
0020
0000
0031
2000
0000
3002
0000
,
0023
0000
0130
2000
0000
3002
0000
0203
,
0301
0010
0100
1000
0100
0010
0100
1000
,
0002
0000
0103
0020
0000
1030
0200
0000
,
0310
0002
0000
0103
0020
0000
2030
0000
,
3002
0000
1003
0200
0000
2300
0000
0020
,
0000
0000
0000
0000
3030
1000
0001
0200
,
0001
0000
0000
0001
0000
0310
1000
0200
,
0010
0000
0000
0010
0000
0310
0002
0000
,
2003
0000
3001
0020
0000
0130
2000
0000
,
3001
0100
0100
0010
1000
1000
0100
0010
,
0001
0000
1000
0000
0010
0000
0100
0001
,
0010
0100
1000
0002
,
0003
1000
0001
0010
0001
0010
0001
0010
,
0001
0010
0001
0010
0001
0010
0001
0010
0002
0000
0000
0000
0000
0000
0000
0000
,
0203
0000
0000
0000
,
0000
0000
0000
0000
,
0310
1000
1000
0001
0010
0010
0100
1000
,
1000
0000
0100
0000
0010
0000
0010
0000
0001
0000
1000
0001
1000
0000
0000
0000
,
0100
0000
0000
0010
0000
0000
0001
0000
0000
0100
0000
0000
0010
0000
1000
0000
0100
0000
0010
0001
0000
0100
0000
0001
0000
0000
0000
0000
0000
0000
0000
0000
,
1000
0000
0000
0010
0000
0000
0100
0000
0000
0001
0000
0000
0010
0000
0100
0000
0010
0000
0001
1000
0000
0010
0000
1000
0000
0000
0000
0000
0000
0000
0000
0000
,
0001
0010
0100
1000
0000
0001
1000
0100
0010
0000
0000
0000
0001
0000
0000
0000
,
0101
0000
0100
0001
0000
1000
0000
0001
0020
0000
0000
0000
0000
0000
0000
0130
,
1000
0000
0010
0000
0100
0001
0100
0000
0010
0010
0000
1000
0000
0001
1000
0100
,
0010
0100
0100
1000
0010
0010
0001
0010
,
0100
0100
0010
0010
1000
0001
1000
0000
,
0002
0000
0103
0010
0000
1000
0100
0000
,
0110
0000
0000
0011
0000
0000
0110
0000
0000
0011
0000
0000
0201
0000
0000
0000
,
0310
0000
1000
0001
0000
0010
0000
0100
,
1100
0000
0000
1010
0000
0000
1100
0000
0000
1010
0000
0000
1200
0000
0000
0000
,
0310
0000
0001
1000
0000
1000
0010
0000
,
0101
0000
0000
1010
0000
0000
0101
0000
0000
1010
0000
0000
0102
0000
0000
0000
,
2003
0000
3010
0200
0000
0302
0000
0013
,
0110
0000
0000
1100
0000
0000
1010
0000
0000
0101
0000
0000
1001
0000
0000
0000
,
0201
0000
0000
0000
0000
0000
0310
0000
1000
0000
0100
0000
1100
0000
0000
0011
,
0000
0000
1100
0000
0000
0011
0000
0000
1002
0000
0000
0000
1003
0000
0000
0000
,
0010
0000
0100
0000
0000
0000
0001
0000
0000
0000
0010
0000
0110
0000
0000
1100
,
0000
0000
0110
0000
0000
1100
0000
0000
0120
0000
0000
0000
0032
0000
0000
0000
,
1000
0000
0000
0000
0000
0000
1003
0000
0001
0000
0010
0000
0110
0000
0000
0011
,
0000
0000
0110
0000
0000
0011
0000
0000
0210
0000
0000
0000
2300
0000
0000
0000
,
3001
0000
0020
0000
0000
0000
0031
0000
1000
0000
0000
0000
0101
0000
0000
1010
,
0000
1100
0100
0010
0001
1000
0010
0100
,
0001
0000
1000
0001
0100
0000
0001
0000
1000
0000
0020
0000
0130
0001
1000
0001
,
1000
0000
0001
0000
1000
0000
0001
0000
0100
0010
0100
0010
0100
0010
0100
0010
0200
0000
0000
0000
0000
0000
0000
0000
0302
0000
0000
0000
0000
0000
0000
0000
,
0000
0000
0000
0013
;

//---------------dance-single - ----------------
#NOTES:
     dance-single:
     :
     Medium:
     7:
     0.349402,0.689837,0.017346,0.164789,0.138770,282.000000,280.000000,2.000000,19.000000,0.000000,0.000000,0.349402,0.689837,0.017346,0.164789,0.138770,282.000000,280.000000,2.000000,19.000000,0.000000,0.000000:
0000
0000
0000
0000
,
0000
0000
0000
0000
,
0000
0000
0000
0000
,
0000
0000
0000
0000
,
0000
0000
0000
0000
,
0000
0000
0000
0000
,
1000
0100
1000
0000
,
0010
1000
0010
0000
,
0100
0100
0010
1000
,
0002
0000
0000
0000
0000
0013
0100
1000
,
0000
0000
0100
0000
1000
0000
0010
1000
,
0010
0100
0001
0010
,
0000
0100
1000
0001
1000
1000
0000
0001
,
0000
0000
0000
0000
,
1000
0001
0001
1000
0100
0001
0000
0100
,
0000
1000
0000
1000
0000
0010
1000
0000
,
1000
0010
0100
0001
0000
0001
0100
0010
,
0000
0000
0000
0000
,
0000
0100
0010
0000
1000
0000
0010
0100
,
0010
1000
0001
0010
,
0100
0010
0001
0010
0001
1000
0000
0001
,
0000
0000
0000
0000
0000
0000
0000
0100
,
0001
0000
0010
0000
0100
0100
0010
0000
,
0100
1000
0000
0100
0000
0100
1000
0010
,
0000
0000
0100
0000
0010
0000
1000
0001
,
0100
0001
0010
0001
0010
0001
0010
0000
,
0100
0000
0000
1000
0000
0000
0010
0000
,
0000
0100
0000
0000
0001
0000
1000
0000
,
0001
0000
0100
0001
0000
0020
0000
0200
,
0000
0000
0000
0330
,
0010
0000
0000
0001
0000
0000
0100
0000
,
0000
1000
0000
0000
0100
0000
0010
0000
,
1000
0000
0010
1000
0000
0002
0000
0203
,
2000
0000
0000
3300
,
0100
0000
0000
0010
0000
0000
1000
0000
,
0000
0001
0000
0000
0010
0000
0001
0000
,
1000
0000
0100
1000
0000
0002
0000
0200
,
0000
0000
0000
0000
0303
0010
1000
0200
,
0000
0000
0000
0000
0000
0000
0310
0200
,
0000
0000
0000
0000
0000
0310
0000
0000
,
0002
0000
0000
2003
0000
0000
3020
0000
,
0000
0000
0000
0000
1030
0000
0001
0100
,
0010
0000
1000
0000
0010
0000
0100
0001
,
0100
0010
1000
0001
,
0000
1000
0100
0010
0001
0010
0100
1000
,
0004
0400
0000
0000
0000
0000
0000
0000
0000
0000
0000
0000
0303
0000
0000
0000
,
0200
0000
0000
0000
,
0000
0000
0000
0000
,
0310
0000
1000
0010
0000
0010
0100
0000
,
0100
0001
0000
0001
1000
0000
0001
0000
,
1200
0000
0000
0000
,
0000
0000
0000
0000
,
0310
0000
0001
0000
0010
0000
0100
1000
0100
0000
1000
0000
0010
0000
0100
0000
,
0000
0010
0100
0001
1000
0001
0000
1000
0000
0000
0000
0000
0000
0000
0000
0000
,
0100
0000
1000
0000
0010
0100
0010
0000
0100
0010
0000
1000
0000
0010
0100
0001
,
2000
0000
0000
0002
,
0000
0000
0000
3003
,
1000
0000
0000
0010
0000
0000
0100
0000
,
0010
0000
0000
0010
0000
0000
0100
0000
0000
0100
0000
0000
0001
0000
0000
0000
,
1000
0000
0001
1000
0000
0001
0000
0100
,
0001
0000
0000
0001
0000
0000
1000
0000
0000
1000
0000
0000
0100
0000
0000
0000
,
1000
0000
0000
0010
0000
0000
0100
0000
,
0010
0000
0000
0010
0000
0000
1000
0000
0000
1000
0000
0000
0100
0000
0000
0000
,
1000
0000
0100
1000
0000
0100
0000
0100
,
0010
0000
0000
0010
0000
0000
0001
0000
0000
0001
0000
0000
1000
0000
0000
0000
,
0001
0000
0000
0000
0000
0000
0100
0000
0000
0000
0000
0000
0010
0000
0000
0010
,
0000
0000
1000
0000
0000
1000
0000
0000
0001
0000
0000
0000
1000
0000
0000
0000
,
0001
0000
0100
0000
0000
0000
0001
0000
0000
0000
0010
0000
0100
0000
0000
0100
,
0000
0000
1000
0000
0000
1000
0000
0000
0001
0000
0000
0000
2000
0000
0000
0000
,
0000
0000
0000
0000
0000
0000
0000
0000
3100
0000
0010
0000
0001
0000
0000
0001
,
0000
0000
0010
0000
0000
0010
0000
0000
0100
0000
0000
0000
0010
0000
0000
0000
,
0000
0000
0001
0000
0000
0000
0000
0000
0100
0000
0000
0000
0010
0000
0000
1000
,
0000
0001
0010
0001
0100
0001
1000
0001
,
0100
0000
0010
1000
0010
0000
0100
0000
0001
0000
1000
0000
0000
0001
0100
0010
,
1000
0000
0001
0000
0100
0000
0010
0000
4000
0004
0000
0000
0000
0000
0000
0000
0000
0000
0000
0000
3003
0000
0000
0000
0201
0000
0000
0000
0000
0000
0000
0000
,
0000
0000
0000
0310
;

//---------------dance-single - ----------------
#NOTES:
     dance-single:
     :
     Easy:
     4:
     0.250281,0.492741,0.008673,0.208154,0.000000,202.000000,201.000000,1.000000,24.000000,0.000000,0.000000,0.250281,0.492741,0.008673,0.208154,0.000000,202.000000,201.000000,1.000000,24.000000,0.000000,0.000000:
0000
0000
0000
0000
,
0000
0000
0000
0000
,
0000
0000
0000
0000
,
0000
0000
0000
0000
,
0000
0000
0000
0000
,
0000
0000
0000
0000
,
1000
0000
0010
0000
,
0100
0000
0010
0000
,
1000
0000
0001
0000
,
0010
0100
0010
0000
,
0000
0100
1000
0010
,
0010
0100
0001
1000
,
0000
0001
1000
0100
,
0020
0000
0000
0000
,
0130
0010
0010
0100
,
1000
0001
0100
0001
,
0010
0010
0100
1000
,
0100
0000
1000
0100
,
0000
1000
1000
0001
,
0100
0001
0001
0010
,
0000
0100
0010
0001
,
2000
0000
0000
0000
0000
0000
0000
3000
,
0100
0100
1000
1000
,
0010
0100
0010
0100
,
0001
0100
0010
1000
,
0001
0001
1000
1000
,
0001
0000
0000
0100
0000
0000
0010
0000
,
0000
1000
0000
0000
0010
0000
0100
0000
,
0001
0000
1000
0001
0000
1000
0000
0002
,
0000
0000
0000
0003
,
1000
0000
0000
0100
0000
0000
0010
0000
,
0000
0100
0000
0000
1000
0000
0010
0000
,
0100
0000
0010
0100
0000
0001
0000
1000
,
0200
0000
0000
0000
,
0310
0000
0000
0100
0000
0000
1000
0000
,
0000
0010
0000
0000
0100
0000
0001
0000
,
1000
0000
0001
1000
0000
0001
0000
0020
,
0000
0000
0000
0000
0030
0100
0010
0200
,
0000
0000
0000
0000
0000
0000
0310
0200
,
0000
0000
0000
0000
0000
0300
0010
0000
,
0100
0000
0000
0010
0000
0000
0002
0000
,
0000
0000
0000
0000
1003
0000
0001
1000
,
0000
0010
1000
0010
,
0100
0100
0010
1000
,
0000
0001
0010
0100
,
1000
1000
2000
0000
,
3002
0000
0000
0000
,
0000
0000
0000
0103
,
0000
0010
0000
0100
,
0000
0001
0000
0000
0010
0000
0001
0000
,
1001
0000
0000
0000
,
0010
0000
0000
0000
,
0100
0000
0010
0000
1000
0001
0010
0001
,
1000
0100
2000
0000
,
3010
0000
0100
0000
0001
0100
0010
0000
,
1000
0000
0000
0010
0000
0000
0100
0000
,
0001
1000
0010
0100
,
0001
0000
0000
1000
0000
0000
0100
0000
,
2000
0000
0000
3000
,
0010
0000
0000
0100
0000
0000
0010
0000
,
2000
0000
0000
3000
,
0001
0000
0000
0010
0000
0000
0001
0000
,
0200
0000
0000
0300
,
0010
0000
0000
1000
0000
0001
0000
1000
,
0200
0000
0000
0300
,
1000
0000
0000
0010
0000
0000
0200
0000
,
0000
0000
0300
0010
,
0000
1000
0000
0010
0000
0000
0200
0000
,
0000
0000
0300
0002
,
0000
0000
0000
0000
1003
0001
0200
0000
,
0000
0000
0000
0300
0000
0000
0020
0000
,
0000
1030
0000
0000
0200
0000
0020
0000
,
0000
0330
0010
0000
0001
0010
0000
0100
,
1000
0100
0010
0010
0001
1000
0000
0001
,
0100
0010
1000
1000
2000
0000
3200
0000
,
0000
0000
0000
0310
;

//---------------dance-single - ----------------
#NOTES:
     dance-single:
     :
     Beginner:
     2:
     0.113989,0.197096,0.086731,0.000000,0.000000,92.000000,82.000000,10.000000,0.000000,0.000000,0.000000,0.113989,0.197096,0.086731,0.000000,0.000000,92.000000,82.000000,10.000000,0.000000,0.000000,0.000000:
0000
0000
0000
0000
,
0000
0000
0000
0000
,
0000
0000
0000
0000
,
0000
0000
0000
0000
,
0000
0000
0000
0000
,
0000
0000
0000
0000
,
1000
0000
0000
0000
,
0001
0000
0000
0000
,
0100
0000
0000
0000
,
0010
0000
0000
0100
,
0100
0000
0000
0000
,
0010
0000
0000
0000
,
1000
0000
1000
0000
,
0001
0000
0000
0000
,
0100
0000
0000
0000
,
0010
0000
0000
0000
,
1000
0000
1000
0000
,
1000
0000
0000
0000
,
0001
0000
0000
0000
,
0010
0000
0000
0000
,
0001
0000
0000
0000
,
1000
0000
0000
0000
,
0100
0000
0100
0000
,
0010
0000
0000
0001
,
0000
0000
1000
0000
,
0001
0000
0000
0000
,
1000
0000
0000
0000
,
1000
0000
0000
0000
,
0010
0000
0010
0000
,
0010
0000
0000
0000
,
0100
0000
0000
0000
,
0100
0000
0000
0000
,
0001
0000
0001
0000
,
0001
0000
0000
0000
,
1000
0000
0000
0000
,
0001
0000
0000
0000
,
0100
0000
0010
0000
,
0100
0000
0000
0000
,
0010
0000
0000
0000
,
0010
0000
0000
0000
,
0010
0000
0000
0000
,
1000
0000
0001
0000
,
1001
0000
0000
0000
,
0000
0000
0000
0000
,
0010
0000
0000
0000
,
0000
0000
0100
0000
,
0100
0000
0000
0000
,
0000
0000
0000
0000
,
0010
0000
0000
1000
,
0000
0000
0001
1000
,
1001
0000
0000
0000
,
0000
0000
0000
0000
,
0100
0000
0000
0000
,
0010
0000
0000
0000
,
1000
0000
0001
0000
,
0100
0000
0000
0010
,
0000
0000
0000
0000
,
1000
0000
0000
0000
,
1001
0000
0000
0000
,
0001
0000
0000
0000
,
0110
0000
0000
0000
,
0010
0000
0000
0000
,
1001
0000
0000
0000
,
1000
0000
0000
0000
,
0110
0000
0000
0000
,
0010
0000
0000
1001
,
0000
0000
0000
1000
,
0000
0000
0000
1001
,
0000
0000
0000
0001
,
0000
0000
0000
0110
,
0000
0000
0000
0100
,
0000
0000
0000
1001
,
0000
0000
0001
1000
,
0000
0000
0000
1000
,
0000
0000
0010
0100
,
0000
0000
0000
0001
;
