#VERSION:0.83;
#TITLE:The Alchemist;
#SUBTITLE:;
#ARTIST:Savant;
#TITLETRANSLIT:;
#SUBTITLETRANSLIT:;
#ARTISTTRANSLIT:;
#GENRE:;
#ORIGIN:;
#CREDIT:;
#BANNER:The Alchemist.png;
#BACKGROUND:The Alchemist-bg.png;
#PREVIEWVID:;
#JACKET:The Alchemist-jacket.png;
#CDIMAGE:;
#DISCIMAGE:;
#LYRICSPATH:;
#CDTITLE:cdtitle.png;
#MUSIC:The Alchemist.mp3;
#OFFSET:-3.873000;
#SAMPLESTART:14.082766;
#SAMPLELENGTH:10.851065;
#SELECTABLE:YES;
#BPMS:0.000=94.000;
#STOPS:56.000=1.915,
121.000=1.935;
#DELAYS:;
#WARPS:;
#TIMESIGNATURES:0.000=4=4;
#TICKCOUNTS:0.000=4;
#COMBOS:0.000=1;
#SPEEDS:0.000=1.000=0.000=0;
#SCROLLS:0.000=1.000;
#FAKES:;
#LABELS:0.000=Song Start;
#BGCHANGES:;
#KEYSOUNDS:;
#ATTACKS:
;

//---------------dance-single - ----------------
#NOTEDATA:;
#CHARTNAME:;
#STEPSTYPE:dance-single;
#DESCRIPTION:;
#CHARTSTYLE:;
#DIFFICULTY:Hard;
#METER:11;
#RADARVALUES:0.724335,0.761123,0.289299,0.540532,1.199068,666.000000,628.000000,38.000000,71.000000,0.000000,0.000000,0.000000,0.000000,0.000000,0.724335,0.761123,0.289299,0.540532,1.199068,666.000000,628.000000,38.000000,71.000000,0.000000,0.000000,0.000000,0.000000,0.000000;
#CREDIT:;
#NOTES:
1000
0010
1000
0010
1000
0100
0000
0010
0000
0010
0001
0000
1000
0001
0100
0001
,
0010
0100
0010
0100
0010
0001
0000
0000
1000
0000
0010
0000
0100
0001
1000
0100
,
0010
0001
0010
0001
0010
0100
0000
0000
1000
0000
0010
0000
0100
0001
1000
0001
,
1000
0000
0100
0000
1000
0000
0100
0000
1000
0000
0001
0000
0000
0000
0000
0000
1000
0010
1000
0010
0100
0010
0100
0010
0100
0001
0100
0001
1000
0100
0010
0001
,
1000
0000
0000
0000
0001
0000
0000
0000
0100
0000
0010
0000
1000
0000
0100
0010
0001
0000
0000
0000
0100
0000
0010
1000
0001
0000
1000
0000
0020
0000
0000
0000
,
1030
0000
0000
0000
0010
0000
0100
0000
0001
0000
0000
0000
1000
0000
0000
0000
0002
0000
0000
0000
0103
0000
0010
1000
0001
0000
1000
0000
0020
0000
0000
0000
,
1030
0000
0000
0000
0000
0000
0002
0000
0000
0000
0000
0000
0013
0000
0100
0000
1000
0000
0001
0000
1000
0000
0010
0000
1000
0000
0000
0001
0000
0000
0100
0000
0010
0000
1000
0000
0001
0000
0100
0000
0010
0000
1000
0000
0010
0000
0100
0000
,
0002
0000
0000
0000
0103
0000
0000
0000
0020
0000
0000
0000
1030
0000
0000
0000
0001
1000
0001
1000
0001
1000
0001
1000
0001
0000
1000
0000
0100
0000
0010
0000
,
0011
0000
0010
0000
0100
0000
0010
0000
0100
0010
0100
1000
0001
1000
0002
0000
,
0003
0000
0000
0000
0001
0000
1000
0000
0010
0100
0010
0100
0020
0000
0000
0030
,
1001
0000
0001
0000
1000
0000
0100
0000
0010
0001
1000
0010
0100
0010
2000
0000
,
3001
0000
0000
0000
0000
0000
0000
0000
0010
0000
0000
0000
0001
0000
0000
0000
0100
0000
0010
0100
0010
0000
0100
0010
0100
0000
0010
1000
0001
0000
1000
0000
,
0001
0000
0000
0001
0010
0000
0000
0010
0100
0000
0000
0100
1000
0000
0000
1000
0010
0000
0000
0010
0100
0000
0000
0100
0001
0000
0000
0001
1000
0000
0000
1000
,
0100
0000
0000
0010
0000
0000
0001
0000
0000
0100
0000
0000
0010
0000
0000
1000
0000
0000
0100
0000
0000
0001
0000
0000
0100
0000
1000
0000
0010
0000
0100
0000
0001
0000
1000
0000
0100
0000
0010
0000
0001
0000
1000
0000
0001
0000
1000
0000
,
0100
0000
0000
0000
0000
0000
0000
0000
0000
0000
0000
0000
0000
0000
0000
0000
0000
0000
0000
0000
0000
0000
0000
0000
0000
0000
0000
0000
0000
0000
0000
0000
0000
0000
0000
0000
0000
0000
0000
0000
0000
0000
0000
0000
0000
0000
0000
0000
2002
0000
0000
0000
0000
0000
0000
0000
0000
0000
0000
0000
3003
0000
0000
0000
0000
0000
0000
0000
0000
0000
0000
0000
1000
0000
0000
0000
0000
0000
0010
0000
0000
0000
0000
0000
0100
0000
0000
0000
0000
0000
0001
0000
0000
0000
0000
0000
0000
0000
0000
0000
0000
0000
0000
0000
0000
0000
0000
0000
0000
0000
0000
0000
2200
0000
0000
0000
0000
0000
0000
0000
0000
0000
0000
0000
0000
0000
0000
0000
3300
0000
0000
0000
0000
0000
0000
0000
0000
0000
0000
0000
0000
0000
0000
0000
0011
0000
0000
0000
0000
0000
0000
0000
0000
0000
0000
0000
0000
0000
0000
0000
0000
0000
0000
0000
0000
0000
0000
0000
0001
0000
0000
0000
0000
0000
0010
0000
0000
0000
0000
0000
0100
0000
0000
0000
0000
0000
1000
0000
0000
0000
0000
0000
,
0000
0000
0202
0000
0303
0000
1001
0000
0000
0011
0000
1000
0020
0000
0200
0000
0330
0000
0010
0100
0001
1000
0100
1000
,
0002
0000
0000
0000
0000
0003
2020
0000
0000
3030
0000
1000
0000
0010
0000
0100
0000
0001
1000
0000
0000
1000
0000
0001
,
1000
0000
0020
0000
0000
0000
0130
0000
0010
1000
0000
0100
0001
0000
0100
0010
0000
0010
1000
0000
0000
0001
0010
0100
,
1000
0000
0000
0000
0000
0000
0000
0000
0010
0000
0000
0000
0000
0000
0000
0000
1000
0000
0000
0000
0000
0000
0000
0000
0010
0000
0000
0000
0000
0000
0000
0000
1000
0000
0000
0000
0000
0000
0000
0000
0010
0000
0000
0000
0000
0000
0000
0000
1000
0000
0000
0000
0000
0000
0000
0000
0000
0000
0000
0000
0000
0000
0000
0000
0000
0000
0000
0000
0000
0000
0000
0000
1000
0000
0000
0000
0000
0000
0010
0000
0000
0000
0000
0000
0100
0000
0000
0000
0000
0000
0001
0000
0000
0000
0000
0000
0000
0000
0000
0000
0000
0000
0000
0000
0000
0000
0000
0000
0000
0000
0000
0000
2002
0000
0000
0000
0000
0000
0000
0000
0000
0000
0000
0000
0000
0000
3003
0000
0000
0000
0000
0000
0000
0000
0000
0000
0000
0000
0000
0000
0000
0000
0000
0000
0110
0000
0000
0000
0000
0000
0000
0000
0000
0000
0000
0000
0000
0000
0000
0000
0000
0000
0000
0000
0000
0000
0000
0000
0010
0000
0000
0000
0000
0000
0100
0000
0000
0000
0000
0000
0001
0000
0000
0000
0000
0000
1000
0000
0000
0000
0000
0000
,
0000
0000
0000
0000
0220
0000
0000
0000
0000
0330
0000
0000
1001
0000
0000
0000
0001
0000
0000
0000
1000
0000
0000
0000
1010
0000
0000
0000
0010
0000
0000
0000
0100
0000
0000
0000
0101
0000
0000
0000
0000
0000
0001
0000
0100
0000
0010
0000
,
1000
0100
0010
0001
1000
0100
0010
0000
0000
0001
0010
0100
0020
0000
0000
0000
0000
0030
1001
0000
0000
0100
0010
0001
,
2000
0000
0000
0000
0000
3000
0101
0000
0000
0100
0001
1000
0020
0000
0000
0000
0000
0030
1100
0000
0000
0001
1000
0010
,
2000
0000
0000
0000
0000
3000
0021
0000
0000
0230
0000
0000
1300
0000
0001
1000
0000
1000
0001
0100
0001
0020
0000
0000
,
0130
0000
0010
0001
0000
0001
0200
0000
0000
0010
0000
0000
0310
0000
0000
1000
0000
0000
0001
0000
0000
0010
0100
1000
,
0001
1000
0001
1000
0001
1000
0010
0000
0000
0210
0000
0000
0310
0000
1000
0000
0001
0000
1001
0000
0000
0120
0000
0000
,
0130
0000
0000
0000
0000
0000
0000
0000
0000
0000
0000
0000
0000
0000
0000
0000
0010
0000
0000
0000
0000
0000
0000
0000
0000
0000
0000
0000
0000
0000
0000
0000
1000
0000
0000
0000
0000
0000
0000
0000
0000
0000
0000
0000
0000
0000
0000
0000
0020
0000
0000
0000
0000
0000
0030
0000
0000
0000
0000
0000
0000
0000
0000
0000
0000
0000
0000
0000
0000
0000
0000
0000
0020
0000
0000
0000
0000
0000
0030
0000
0000
0000
0000
0000
0000
0000
0000
0000
0000
0000
0000
0000
0000
0000
0000
0000
0100
0000
0000
0000
0000
0000
0000
0000
0000
0000
0000
0000
0000
0000
0000
0000
0001
0000
0000
0000
0000
0000
0000
0000
0000
0000
0000
0000
0000
0000
0000
0000
0100
0000
0000
0000
0000
0000
0000
0000
0000
0000
0000
0000
0000
0000
0000
0000
0010
0000
0000
0000
0000
0000
0000
0000
0000
0000
0000
0000
0000
0000
0000
0000
0000
0000
0000
0000
0000
0000
0000
0000
0100
0000
0000
0000
0000
0000
0000
0000
0001
0000
0000
0000
0000
0000
0000
0000
1000
0000
0000
0000
0000
0000
0000
0000
,
0100
0010
0001
1000
0001
0100
0010
0000
0000
0000
0000
0000
1000
0000
0001
2000
0000
0000
0000
3000
0100
1000
0000
1000
,
0010
0000
0010
0100
0000
0001
1000
0000
0000
0000
0000
0000
0001
0000
0000
0010
0000
0000
0002
0000
0000
0000
0000
0000
,
2003
0000
0000
0000
0000
0000
3010
0000
0000
0000
0000
0000
0100
0000
0001
0200
0000
0000
0000
0000
0310
2000
0000
0000
,
3001
0000
0001
0010
0000
0100
1000
0000
0000
0000
0000
0000
0200
0000
0000
0000
0000
0000
0320
0000
0000
0000
0000
0000
,
0032
0000
0000
0000
0000
0000
0000
0000
0000
0000
0000
0000
0000
0000
0000
0000
0000
0000
0000
0000
0000
0000
0000
0000
0000
0000
0000
0000
0000
0000
0000
0000
0000
0000
0000
0000
0000
0000
0000
0000
0000
0000
0000
0000
0000
0000
0000
0000
1003
0000
0000
0000
0000
0000
0000
0000
0000
0000
0000
0000
0000
0000
0000
0000
0000
0000
0000
0000
0000
0000
0000
0000
0000
0000
0000
0000
0000
0000
0000
0000
0000
0000
0000
0000
0000
0000
0000
0000
0000
0000
0000
0000
0000
0000
0000
0000
2002
0000
0000
0000
0000
0000
0000
0000
0000
0000
0000
0000
0000
0000
0000
0000
0000
0000
3003
0000
0000
0000
0000
0000
1000
0000
0000
0000
0000
0000
0000
0000
0010
0000
0000
0000
0000
0000
0000
0000
0100
0000
0000
0000
0000
0000
0000
0000
0001
0000
0000
0000
0000
0000
0000
0000
1000
0000
0000
0000
0000
0000
0000
0000
0010
0000
0000
0000
0000
0000
0000
0000
0100
0000
0000
0000
0000
0000
0000
0000
0001
0000
0000
0000
0000
0000
0000
0000
1000
0000
0000
0000
0000
0000
0000
0000
,
0100
0010
0001
0010
0100
0010
0001
0000
0000
1000
0000
0000
0010
1000
0010
0100
0001
1000
0100
0010
0100
0010
0100
0010
,
0001
0010
0100
0010
0001
1000
0010
0000
0000
1000
0000
0000
1001
0000
0000
0001
0100
0010
1000
0100
0010
0001
0100
0010
,
1000
0001
1000
0001
1000
0001
0200
0000
0000
0310
0000
0000
0100
0010
0100
0010
0100
0010
1000
0001
0010
0001
1000
0001
,
0010
0001
0100
0010
1000
0100
0010
0000
0000
0011
0000
0000
2001
0000
0000
3001
1000
0010
0200
0300
0200
0300
0200
0300
,
0001
0100
0001
0010
1000
0010
0001
0100
1000
0100
0010
1000
0001
0000
0000
1000
0100
0010
0100
1000
0001
0010
0100
0010
,
0001
1000
0010
1000
0001
1000
0200
0000
0000
0000
0000
0000
0310
0000
0000
0001
0010
0100
0020
0030
0020
0030
0020
0030
,
0100
1000
0010
0100
0001
1000
0010
0100
0010
1000
0001
1000
0002
0000
0000
1003
0100
1000
0010
0100
0001
1000
0100
1000
,
0001
0000
0000
0000
0000
0000
0000
0000
0010
0000
0000
0000
0000
0000
0000
0000
0001
0000
0000
0000
0000
0000
0000
0000
0100
0000
0000
0000
0000
0000
0000
0000
0010
0000
0000
0000
0000
0000
0000
0000
1000
0000
0000
0000
0000
0000
0000
0000
0100
0000
0000
0000
0000
0000
0000
0000
1000
0000
0000
0000
0000
0000
0000
0000
0010
0000
0000
0000
0000
0000
0000
0000
0100
0000
0000
0000
0000
0000
0000
0000
0001
0000
0000
0000
0000
0000
0000
0000
1000
0000
0000
0000
0000
0000
0000
0000
0100
0000
0000
0000
0000
0000
0000
0000
0000
0000
0000
0000
0000
0000
0000
0000
0000
0000
0000
0000
0000
0000
0000
0000
0010
0000
0000
0000
0000
0000
0001
0000
0000
0000
0000
0000
1000
0000
0000
0000
0000
0000
0001
0000
0000
0000
0000
0000
2000
0000
0000
0000
0000
0000
0000
0000
0000
0000
0000
0000
0000
0000
0000
0000
0020
0000
0000
0000
0000
0000
0000
0000
0000
0000
0000
0000
0000
0000
0000
0000
3030
0000
0000
0000
0000
0000
0000
0000
0000
0000
0000
0000
0000
0000
0000
0000
,
1001
0000
0000
0000
0000
0000
0000
0000
0000
0000
0000
0000
0000
0000
0000
0000
0000
0000
0000
0000
0000
0000
0000
0000
1000
0000
0000
0000
0000
0000
0010
0000
0000
0000
0000
0000
0100
0000
0000
0000
0000
0000
0001
0000
0000
0000
0000
0000
0020
0000
0000
0000
0000
0000
0000
0000
0000
0000
0000
0000
0000
0000
0000
0000
0200
0000
0000
0000
0000
0000
0000
0000
0000
0000
0000
0000
0000
0000
0000
0000
0330
0000
0000
0000
0000
0000
0000
0000
0000
0000
0000
0000
0000
0000
0000
0000
0110
0000
0000
0000
0000
0000
0000
0000
0000
0000
0000
0000
0000
0000
0000
0000
0000
0000
0000
0000
0000
0000
0000
0000
0011
0000
0000
0000
0000
0000
0000
0000
0000
0000
0000
0000
0000
0000
0000
0000
0001
0000
0000
0000
0000
0000
0000
0000
0100
0000
0000
0000
0000
0000
0000
0000
0000
0000
0000
0000
0000
0000
0000
0000
0020
0000
0000
0000
0000
0000
0000
0000
0000
0000
0000
0000
0000
0000
0000
0000
0030
0000
0000
0000
0000
0000
0000
0000
0000
0000
0000
0000
0000
0000
0000
0000
,
1001
0000
0000
0000
0000
0000
0000
0000
0000
0000
0000
0000
0000
0000
0000
0000
0000
0000
0000
0000
0000
0000
0000
0000
0001
0000
0000
0000
0000
0000
0000
0000
0000
0000
0000
0000
0000
0000
0000
0000
0000
0000
0000
0000
0000
0000
0000
0000
1000
0000
0000
0000
0000
0000
0000
0000
0100
0000
0000
0000
0000
0000
0000
0000
0010
0000
0000
0000
0000
0000
0000
0000
0001
0000
0000
0000
0000
0000
0000
0000
1000
0000
0000
0000
0000
0000
0000
0000
0100
0000
0000
0000
0000
0000
0000
0000
0010
0000
0000
0000
0000
0000
0000
0000
0000
0000
0000
0000
0000
0000
0000
0000
0000
0000
0000
0000
0000
0000
0000
0000
0001
0000
0000
0000
0000
0000
0010
0000
0000
0000
0000
0000
0100
0000
0000
0000
0000
0000
1000
0000
0000
0000
0000
0000
0001
0000
0000
0000
0000
0000
0000
0000
0000
0000
0000
0000
0000
0000
0000
0000
2020
0000
0000
0000
0000
0000
0000
0000
0000
0000
0000
0000
0000
0000
0000
0000
3030
0000
0000
0000
0000
0000
0000
0000
0000
0000
0000
0000
0000
0000
0000
0000
,
1001
0000
0000
0000
0000
0000
0000
0000
0000
0000
0000
0000
0000
0000
0000
0000
0000
0000
0000
0000
0000
0000
0000
0000
1000
0000
0000
0000
0000
0000
0100
0000
0000
0000
0000
0000
0010
0000
0000
0000
0000
0000
0001
0000
0000
0000
0000
0000
1000
0000
0000
0000
0000
0000
0000
0000
0000
0000
0000
0000
0000
0000
0000
0000
0202
0000
0000
0000
0000
0000
0000
0000
0000
0000
0000
0000
0000
0000
0000
0000
0303
0000
0000
0000
0000
0000
0000
0000
0000
0000
0000
0000
0000
0000
0000
0000
1001
0000
0000
0000
0000
0000
0000
0000
0000
0000
0000
0000
0000
0000
0000
0000
0000
0000
0000
0000
0000
0000
0000
0000
1010
0000
0000
0000
0000
0000
0000
0000
0000
0000
0000
0000
0000
0000
0000
0000
1000
0000
0000
0000
0000
0000
0000
0000
0100
0000
0000
0000
0000
0000
0000
0000
0000
0000
0000
0000
0000
0000
0000
0000
0010
0000
0000
0000
0000
0000
0000
0000
0000
0000
0000
0000
0000
0000
0000
0000
0000
0000
0000
0000
0000
0000
0000
0000
0000
0000
0000
0000
0000
0000
0000
0000
,
0011
0000
0000
1100
0000
0000
0100
0010
0001
0010
0100
1000
0001
0000
0000
0000
0000
0000
1000
0000
0001
2000
0000
0000
,
0000
3000
0100
1000
0000
1000
0010
0000
0010
0100
0000
0001
1000
0000
0000
0000
0000
0000
0001
0000
0000
0010
0000
0000
,
0002
0000
0000
0000
0000
0000
2003
0000
0000
0000
0000
0000
3010
0000
0000
0000
0000
0000
0100
0000
0010
2000
0000
0000
,
3000
0000
1000
0002
0000
0000
1003
0000
1000
0100
0000
0010
0001
0000
0000
0100
0000
0000
1000
0000
0000
0100
0000
0000
,
0001
0000
1000
0100
0001
0010
1000
0000
1001
0000
0000
0000
0000
0000
0000
0000
;

//---------------dance-single - ----------------
#NOTEDATA:;
#CHARTNAME:;
#STEPSTYPE:dance-single;
#DESCRIPTION:;
#CHARTSTYLE:;
#DIFFICULTY:Easy;
#METER:6;
#RADARVALUES:0.351292,0.389412,0.266460,0.281686,0.000000,323.000000,288.000000,35.000000,37.000000,0.000000,0.000000,0.000000,0.000000,0.000000,0.351292,0.389412,0.266460,0.281686,0.000000,323.000000,288.000000,35.000000,37.000000,0.000000,0.000000,0.000000,0.000000,0.000000;
#CREDIT:;
#NOTES:
0001
1000
0001
0000
0000
0000
1000
0100
,
0010
0010
0100
0000
0000
0000
0010
0001
,
0100
0100
0010
0000
0000
0000
0100
0010
,
1000
1000
0010
0000
1000
0100
0010
0001
,
1000
0100
1000
0010
0100
0001
0010
0200
,
0000
0300
0000
0000
0010
0001
0010
0200
,
0000
1300
0100
0001
0100
0010
0001
1000
,
1001
0000
0110
0000
1001
1001
0110
0110
,
0100
0010
1000
0001
0010
0010
0001
0001
,
0000
0000
0010
0100
1000
1000
0200
0000
,
1300
0010
0100
0010
1000
1000
0001
0001
,
0000
0000
0100
0001
1000
0100
1000
0000
,
0110
1001
0101
1010
,
0101
0100
0110
0010
1010
0101
0011
1100
,
0000
0000
0001
0200
0300
0000
0001
2000
,
3000
0000
0100
1000
0100
0000
1000
0010
,
0200
0300
0010
0000
0100
0001
1000
0100
,
1000
0000
0001
0100
0001
0100
0010
1000
,
0020
0000
0130
0002
0003
0000
0100
0020
,
0030
0000
0100
0010
1000
0010
0100
0001
,
0020
0000
0130
1000
2002
3003
0001
0100
,
0220
0330
1000
0010
0202
0303
0001
0010
,
2200
3300
1100
0000
1100
0000
0100
0100
,
1000
0000
0110
0000
0101
0000
0001
0100
,
0010
0100
0001
0000
1000
0001
0100
0000
,
0001
1000
0010
0010
0010
0100
0010
1000
,
0200
0000
0310
0000
0001
2000
0000
3100
,
0010
0100
1000
0000
0010
0100
0002
0000
,
2003
0000
3100
0000
0010
0200
0000
1300
,
0010
0100
0001
0000
0100
0000
0002
0000
,
2003
0000
3100
0000
1001
0001
0001
1000
,
1000
0010
0010
0100
0001
0001
0100
0100
,
0010
0010
1000
0010
0100
0001
0001
1000
,
1000
0100
0100
1000
0010
0010
0100
0100
,
0010
0010
1000
1000
0101
0001
1000
0100
,
1000
0100
0001
0100
0010
0001
0100
1000
,
0100
0010
2000
0000
3010
0100
0100
0100
,
0001
0001
1000
1000
0010
0100
0001
0010
,
0001
1000
0100
1000
2020
3030
0010
0000
,
0202
0303
1000
0000
0101
0101
0101
0000
,
0001
0100
0020
0000
0130
0010
2000
3000
,
0010
0100
0002
0003
1010
1010
1010
0000
,
0010
1000
0002
0000
1003
0000
0100
1000
,
0000
0100
0010
0100
1000
0000
0100
0010
,
0002
0000
2003
0000
3100
0000
1000
0020
,
0000
0130
0001
1000
0001
0010
1000
0010
,
0100
1000
0010
0100
1001
0000
0000
0000
;

//---------------dance-single - ----------------
#NOTEDATA:;
#CHARTNAME:;
#STEPSTYPE:dance-single;
#DESCRIPTION:;
#CHARTSTYLE:;
#DIFFICULTY:Medium;
#METER:9;
#RADARVALUES:0.566634,0.725722,0.190328,0.205555,0.772733,521.000000,496.000000,25.000000,27.000000,0.000000,0.000000,0.000000,0.000000,0.000000,0.566634,0.725722,0.190328,0.205555,0.772733,521.000000,496.000000,25.000000,27.000000,0.000000,0.000000,0.000000,0.000000,0.000000;
#CREDIT:;
#NOTES:
0001
1000
0001
0100
0001
1000
0000
0000
0000
0000
0000
0000
0100
0010
0001
0100
,
0010
1000
0001
1000
0010
0100
0000
0000
0000
0000
0000
0000
0010
0100
0001
1000
,
0001
0010
0001
1000
0001
1000
0000
0000
0000
0000
0000
0000
0001
0100
0001
0010
,
0100
1000
0100
1000
0100
0010
0000
0000
0002
0000
0000
0000
0000
0000
0000
0000
,
1003
0000
0010
0000
1000
0000
0001
1000
0100
0000
0010
0000
0001
1000
0020
0000
,
0000
0000
0030
0000
0000
0000
0000
0000
0100
0000
0010
0000
0100
0001
2000
0000
,
3000
0002
0103
0001
0020
1030
0010
0100
,
2100
3010
0102
0013
1001
0110
1001
0110
,
1001
0000
1000
0000
0100
0000
0010
0000
0100
1000
0001
0100
0010
0100
0001
0000
,
0000
0000
0000
0000
1000
0000
0100
0000
1000
0001
1000
0001
0020
0000
0000
0000
,
0130
0000
1000
0000
0010
0000
0100
0000
0100
0001
0010
0100
1000
0001
1000
0000
,
0000
0000
0000
0000
0100
0000
0010
0000
0001
0001
1000
0001
0020
0000
0000
0000
,
0031
0011
0010
0110
0100
1100
0100
1100
,
1100
0000
0011
0000
0101
0000
1010
0000
0001
1000
0001
1000
0001
1000
0001
1000
,
0000
0000
0000
0000
0000
0000
1001
0000
0000
2000
0000
0000
3000
0000
0010
0000
0000
0000
1000
0000
0000
0200
0000
0000
,
0300
0000
0010
0000
0000
0000
0100
0000
0000
1000
0000
0100
1000
0000
0001
0000
0000
0000
0100
0000
0000
0010
0000
0000
,
2000
0000
0000
0000
0000
0000
3001
0000
0000
0000
0000
1000
0000
0010
0000
0000
0000
0000
1000
0000
0000
0100
0000
1000
,
0001
0000
1000
0000
0000
0000
0010
0000
0100
0001
0000
0001
1000
0000
1000
0100
0000
0100
0010
0000
0000
0100
0010
0001
,
2000
0000
0000
0000
0000
0000
3001
0000
0000
0200
0000
0000
0300
0000
0010
0000
0000
0000
0100
0000
0000
0002
0000
0000
,
0003
0000
0100
0000
0000
0000
0010
0000
0010
0000
1000
0000
0010
0000
0010
0000
1000
0000
0001
0000
0000
1000
0000
0000
,
0001
0010
0100
1000
0001
0010
0100
0000
0000
1000
0010
0100
0002
0000
0000
0000
0000
0000
1003
0000
0000
0100
0010
0001
,
0200
0000
0000
0000
0000
0000
0310
0000
0000
0100
0001
1000
0002
0000
0000
0000
0000
0000
0013
0000
0000
0100
1000
0001
,
2000
0000
0000
0000
0000
0000
3010
0000
0000
0100
0000
0000
0010
0000
1000
0001
0000
1000
0001
0010
0100
1000
0000
0000
,
0100
0000
0010
0001
0000
0001
2000
0000
0000
0000
0000
0000
3001
0000
0001
0100
0000
0010
1000
0000
0000
0001
0100
0001
,
0020
0000
0000
0000
0000
0000
0130
0000
0000
1000
0000
0000
0010
0000
0001
0000
0010
0000
1000
0000
0000
0100
0000
0000
,
1000
0000
0100
0000
0001
0000
0100
0000
0000
0010
0000
0000
0100
0000
1000
0000
0010
0000
0100
0000
0000
0001
0000
0000
,
1000
0100
0010
0001
0010
0100
1000
0000
0000
0000
0000
0000
0100
0000
0010
0001
0000
0000
0000
0000
1000
0001
0000
0000
,
0010
0000
0100
1000
0000
1000
0001
0000
0000
0000
0000
0000
0100
0000
0000
0001
0000
0000
1000
0000
0000
0000
0000
0000
,
0010
0000
0000
0000
0000
0000
1001
0000
0000
0000
0000
0000
0001
0000
1000
0100
0000
0000
0000
0000
1000
0010
0000
0000
,
1000
0000
1000
0010
0000
0000
0100
0000
0000
0000
0000
0000
0001
0000
0000
0000
0000
0000
0010
0000
0000
0000
0000
0000
,
0100
0000
0000
0000
0000
0000
0110
0000
0000
0000
0000
0000
1001
0000
0000
0001
0100
0001
0100
0001
0100
0001
0100
0001
,
0100
0001
0100
0001
0100
0001
0100
0000
0000
0010
0000
0000
1000
0001
1000
0001
1000
0001
1000
0001
1000
0001
1000
0001
,
1000
0001
1000
0001
1000
0001
1000
0000
0000
0010
0000
0000
0100
0000
0000
0010
1000
0010
1000
0010
1000
0010
1000
0010
,
1000
0010
1000
0010
1000
0010
1000
0000
0000
0010
0000
0000
0100
0001
0100
0001
0100
0001
0100
0001
0100
0001
0100
0001
,
0100
0001
0100
0001
0100
0001
0100
0000
0000
0010
0000
0000
1001
0000
0000
0001
1000
0001
1000
0000
0100
0000
0010
0000
,
0001
0010
0100
0010
0001
1000
0010
0100
0001
0010
0001
1000
0001
0000
0000
0010
0100
1000
0001
0100
0001
0010
0001
0100
,
0010
1000
0001
0010
0100
1000
0002
0000
0000
0000
0000
0000
0103
0000
0000
0010
1000
0010
1000
0000
1000
0000
1000
0000
,
1000
0100
0010
0001
0010
0100
0010
0001
0010
0100
1000
0001
0010
0000
0000
0100
0010
0001
0100
0010
1000
0001
0010
0001
,
0100
0010
1000
0001
0000
0000
1002
0000
0000
0103
0000
0000
1001
0000
0000
2000
0000
0000
3100
0000
0010
0000
0000
0000
,
0011
0000
0000
0010
0000
0000
0100
0000
0100
0000
0000
0000
1000
0000
0000
1000
0000
0100
1000
0000
0001
0000
0000
0000
,
1000
0000
0000
0010
0000
0000
0100
0010
1000
0001
1000
0100
0010
0000
0000
0002
0000
0000
1003
0000
0100
0000
0000
0000
,
0011
0000
0000
0010
0000
0000
0100
0000
0100
0000
0000
0000
1000
0000
0000
0100
0000
0010
0001
0000
1000
0000
0000
0000
,
0001
0000
0000
0100
0000
0000
0010
1000
0100
0010
0100
1000
0001
0000
0000
0000
0000
0000
0100
0000
0001
1000
0000
0000
,
0000
0000
1000
0001
0000
0000
0100
0000
0001
1000
0000
0000
0001
0000
0000
0000
0000
0000
0001
0000
0000
0100
0000
0000
,
0020
0000
0000
0000
0000
0000
0230
0000
0000
0000
0000
0000
0301
0000
0000
0000
0000
0000
1000
0000
0001
0100
0000
0000
,
0000
0000
0100
0010
0000
0000
0100
0000
0001
1000
0000
0000
0001
0000
0000
0010
0000
0000
0100
0000
0000
1000
0000
0000
,
0010
0000
0100
0000
0001
1000
0100
0000
1001
0000
0000
0000
0000
0000
0000
0000
;

//---------------dance-single - ----------------
#NOTEDATA:;
#CHARTNAME:;
#STEPSTYPE:dance-single;
#DESCRIPTION:;
#CHARTSTYLE:;
#DIFFICULTY:Challenge;
#METER:12;
#RADARVALUES:0.811342,1.097433,0.319752,0.472014,1.457915,746.000000,704.000000,42.000000,62.000000,0.000000,0.000000,0.000000,0.000000,0.000000,0.811342,1.097433,0.319752,0.472014,1.457915,746.000000,704.000000,42.000000,62.000000,0.000000,0.000000,0.000000,0.000000,0.000000;
#CREDIT:;
#NOTES:
// measure 0
0001
0100
0001
0100
0001
0020
0000
0130
0000
0100
1000
0000
0001
1000
0010
1000
,  // measure 1
0100
0010
0100
0010
0100
1000
0000
0000
0001
0000
0100
0000
0010
1000
0001
0010
,  // measure 2
0100
1000
0100
1000
0100
0010
0000
0000
0001
0000
0100
0000
0010
1000
0001
1000
,  // measure 3
0001
0000
0010
0000
0001
0000
0010
0000
0001
0000
1000
0000
0000
0000
0000
0000
0001
0100
0001
0100
0010
0100
0010
0100
0010
1000
0010
1000
0001
0010
0100
1000
,  // measure 4
0001
0000
0000
0000
1000
0000
0000
0000
0010
0000
0100
0000
0001
0000
0010
0100
1000
0000
0000
0000
0010
0000
0100
0001
1000
0000
0001
0000
0200
0000
0000
0000
,  // measure 5
0301
0000
0000
0000
0000
0000
0100
0000
0000
0010
0000
0000
1000
0000
0000
0000
0000
0000
1001
0000
0000
0000
0000
0000
1010
0000
0000
0000
0000
0000
0010
0000
0000
0100
0001
0100
0001
0000
0000
1000
0000
0000
0200
0000
0000
0000
0000
0000
,  // measure 6
0310
0000
0100
0000
1000
0000
0001
0000
0100
0010
1000
0001
0100
0010
1000
0001
1000
0000
0001
0000
0100
1000
0100
0001
0100
1000
0100
0010
1000
0010
1000
0001
,  // measure 7
1000
0000
0000
0000
0100
0000
0000
0000
1000
0000
0000
0000
0100
0000
0000
0000
1000
0000
0000
0000
0000
0000
0000
0000
0001
0000
0000
0000
0000
0000
1000
0000
0000
0000
0000
0000
0001
0000
0000
0000
0000
0000
1000
0000
0000
0000
0000
0000
0010
0000
0000
0000
0000
0000
0000
0000
0000
0000
0000
0000
0100
0000
0000
0000
0000
0000
0010
0000
0000
0000
0000
0000
1000
0000
0000
0000
0000
0000
0001
0000
0000
0000
0000
0000
0100
0000
0000
0000
0000
0000
0001
0000
0000
0000
0000
0000
0100
0000
0000
0000
0010
0000
0000
0000
0100
0000
0000
0000
0010
0000
0000
0000
0100
0000
0000
0000
0010
0000
0000
0000
0100
0000
0000
0000
0010
0000
0000
0000
0100
0000
0000
0000
0010
0000
0000
0000
0100
0000
0000
0000
0010
0000
0000
0000
0100
0000
0000
0000
0000
0000
0000
0000
0000
0000
0000
0000
0010
0000
0000
0000
0000
0000
1000
0000
0000
0000
0000
0000
0001
0000
0000
0000
0000
0000
0010
0000
0000
0000
0000
0000
0100
0000
0000
0000
0000
0000
1000
0000
0000
0000
0000
0000
,  // measure 8
0001
0000
0100
0000
0010
0000
1000
0000
0100
0100
0010
0001
1000
0100
0001
0100
,  // measure 9
1100
0000
0000
0000
1000
0000
0001
0000
0100
0100
0100
0100
2002
0000
0000
3003
,  // measure 10
0110
0000
0100
0000
0001
0000
0010
0000
0100
0100
1000
0010
0100
0100
0002
0000
,  // measure 11
1003
0000
0000
0000
0000
0000
0000
0000
0100
0000
0000
0000
1000
0000
0000
0000
0010
0000
0100
0010
0100
0000
0010
0100
0010
0000
0100
0001
1000
0000
0001
0000
,  // measure 12
1000
0000
0000
1000
0100
0000
0000
0100
0010
0000
0000
0010
0001
0000
0000
0001
0100
0000
0000
0100
0010
0000
0000
0010
1000
0000
0000
1000
0001
0000
0000
0001
,  // measure 13
0010
0000
0000
0100
0000
0000
1000
0000
0000
0010
0000
0000
0100
0000
0000
0001
0000
0000
0010
0000
0000
1000
0000
0000
0010
0000
0001
0000
0100
0000
0010
0000
1000
0000
0001
0000
0010
0000
0100
0000
1000
0000
0001
0000
1000
0000
0001
0000
,  // measure 14
0010
0000
0000
0000
0000
0000
0000
0000
0000
0000
0000
0000
0000
0000
0000
0000
0000
0000
0000
0000
0000
0000
0000
0000
0000
0000
0000
0000
0000
0000
0000
0000
0000
0000
0000
0000
0000
0000
0000
0000
0000
0000
0000
0000
0000
0000
0000
0000
2002
0000
0000
0000
0000
0000
0000
0000
0000
0000
0000
0000
3003
0000
0000
0000
0000
0000
0000
0000
0000
0000
0000
0000
0001
0000
0000
0000
0000
0000
0100
0000
0000
0000
0000
0000
0010
0000
0000
0000
0000
0000
1000
0000
0000
0000
0000
0000
0000
0000
0000
0000
0000
0000
0000
0000
0000
0000
0000
0000
0000
0000
0000
0000
0022
0000
0000
0000
0000
0000
0000
0000
0000
0000
0000
0000
0000
0000
0000
0000
0033
0000
0000
0000
0000
0000
0000
0000
0000
0000
0000
0000
0000
0000
0000
0000
1100
0000
0000
0000
0000
0000
0000
0000
0000
0000
0000
0000
0000
0000
0000
0000
0000
0000
0000
0000
0000
0000
0000
0000
1000
0000
0000
0000
0000
0000
0100
0000
0000
0000
0000
0000
0010
0000
0000
0000
0000
0000
0001
0000
0000
0000
0000
0000
,  // measure 15
0000
0000
2020
0000
3030
0000
1001
0000
0000
1100
0000
0001
0201
0000
0020
0000
0330
0000
0100
0010
1000
0001
0010
0001
,  // measure 16
2000
0000
0000
0000
0000
3000
0202
0000
0000
0303
0000
0001
0000
0100
0000
0010
0000
1000
1001
0000
0000
0011
0000
0010
,  // measure 17
0100
0000
0100
1000
0000
1000
0010
0000
0100
0002
0000
0013
2000
0000
3010
0200
0000
1300
0001
0000
0000
1000
0100
0010
,  // measure 18
0001
0000
0000
0000
0000
0000
0000
0000
0100
0000
0000
0000
0000
0000
0000
0000
0001
0000
0000
0000
0000
0000
0000
0000
0100
0000
0000
0000
0000
0000
0000
0000
0001
0000
0000
0000
0000
0000
0000
0000
0100
0000
0000
0000
0000
0000
0000
0000
0001
0000
0000
0000
0000
0000
0000
0000
0000
0000
0000
0000
0000
0000
0000
0000
0000
0000
0000
0000
0000
0000
0000
0000
0001
0000
0000
0000
0000
0000
0100
0000
0000
0000
0000
0000
0010
0000
0000
0000
0000
0000
1000
0000
0000
0000
0000
0000
0000
0000
0000
0000
0000
0000
0000
0000
0000
0000
0000
0000
0000
0000
0000
0000
2002
0000
0000
0000
0000
0000
0000
0000
0000
0000
0000
0000
0000
0000
3003
0000
0000
0000
0000
0000
0000
0000
0000
0000
0000
0000
0000
0000
0000
0000
0000
0000
0110
0000
0000
0000
0000
0000
0000
0000
0000
0000
0000
0000
0000
0000
0000
0000
0000
0000
0000
0000
0000
0000
0000
0000
0100
0000
0000
0000
0000
0000
0010
0000
0000
0000
0000
0000
1000
0000
0000
0000
0000
0000
0001
0000
0000
0000
0000
0000
,  // measure 19
0000
0000
0000
0000
0220
0000
0000
0000
0000
0330
0000
0000
1001
0000
0000
0000
1000
0000
0000
0000
0001
0000
0000
0000
0101
0000
0000
0000
0100
0000
0000
0000
0010
0000
0000
0000
1010
0000
0000
0000
0000
0000
1000
0000
0010
0000
0100
0000
,  // measure 20
0001
0001
1000
0100
0100
0010
0011
0000
0000
1000
0100
0010
0200
0000
0000
0000
0000
0300
1001
0000
0000
0010
0100
1000
,  // measure 21
0002
0000
0000
0000
0000
0003
1010
0000
0000
0010
1000
0001
0200
0000
0000
0000
0000
0300
0011
0000
0000
1000
0001
0100
,  // measure 22
0001
1000
0001
1000
0001
1000
0200
0000
0000
0320
0000
0000
0031
0000
1000
0001
0000
0001
1000
0010
1000
0200
0000
0000
,  // measure 23
0310
0000
0100
1000
0000
1000
0020
0000
0000
1000
0000
0000
0130
0000
0001
0100
0000
0100
0010
0000
0000
0100
0010
1000
,  // measure 24
0001
1000
0001
1000
0001
1000
0002
0000
0000
0023
0000
0000
0130
0000
1000
0000
0001
0000
1001
0000
0000
1200
0000
0000
,  // measure 25
0310
0000
0000
0000
0000
0000
0000
0000
0000
0000
0000
0000
0000
0000
0000
0000
0001
0000
0000
0000
0000
0000
0000
0000
0000
0000
0000
0000
0000
0000
0000
0000
1000
0000
0000
0000
0000
0000
0000
0000
0000
0000
0000
0000
0000
0000
0000
0000
0002
0000
0000
0000
0000
0000
0003
0000
0000
0000
0000
0000
0000
0000
0000
0000
0000
0000
0000
0000
0000
0000
0000
0000
0002
0000
0000
0000
0000
0000
0003
0000
0000
0000
0000
0000
0000
0000
0000
0000
0000
0000
0000
0000
0000
0000
0000
0000
0002
0000
0000
0000
0000
0000
0003
0000
0000
0000
0000
0000
0000
0000
0000
0000
1000
0000
0000
0000
0000
0000
0000
0000
0000
0000
0000
0000
0000
0000
0000
0000
0010
0000
0000
0000
0000
0000
0000
0000
0000
0000
0000
0000
0000
0000
0000
0000
0100
0000
0000
0000
0000
0000
0000
0000
0000
0000
0000
0000
0000
0000
0000
0000
0000
0000
0000
0000
0000
0000
0000
0000
0010
0000
0000
0000
0000
0000
0000
0000
1000
0000
0000
0000
0000
0000
0000
0000
0001
0000
0000
0000
0000
0000
0000
0000
,  // measure 26
0010
0010
0100
1000
1000
0010
0100
0000
0000
0000
0000
0000
0001
0000
1000
0002
0000
0000
0000
0003
0010
0001
0000
0001
,  // measure 27
0100
0000
0100
0010
0000
1000
0001
0000
0000
0000
0000
0000
1000
0000
0000
0100
0000
0000
2000
0000
0000
0000
0000
0000
,  // measure 28
3010
1000
0100
0010
0001
1000
0100
0000
0000
0000
0000
0000
0010
0000
0001
0200
0000
0000
0000
0000
0310
2000
0000
0000
,  // measure 29
3001
0000
0001
0010
0000
0100
1000
0000
0000
0000
0000
0000
0200
0000
0000
0000
0000
0000
0320
0000
0000
0000
0000
0000
,  // measure 30
0031
0000
0000
0000
0000
0000
0000
0000
0100
0000
0000
0000
0000
0000
0000
0000
0010
0000
0000
0000
0000
0000
0000
0000
1000
0000
0000
0000
0000
0000
0000
0000
0001
0000
0000
0000
0000
0000
0000
0000
0010
0000
0000
0000
0000
0000
0000
0000
0100
0000
0000
0000
0000
0000
0000
0000
0000
0000
0000
0000
0000
0000
0000
0000
0000
0000
0000
0000
0000
0000
0000
0000
0000
0000
0000
0000
0000
0000
0000
0000
0000
0000
0000
0000
0000
0000
0000
0000
0000
0000
0000
0000
0000
0000
0000
0000
2002
0000
0000
0000
0000
0000
0000
0000
0000
0000
0000
0000
0000
0000
0000
0000
0000
0000
3003
0000
0000
0000
0000
0000
0001
0000
0000
0000
0000
0000
0000
0000
0100
0000
0000
0000
0000
0000
0000
0000
0010
0000
0000
0000
0000
0000
0000
0000
1000
0000
0000
0000
0000
0000
0000
0000
0001
0000
0000
0000
0000
0000
0000
0000
0100
0000
0000
0000
0000
0000
0000
0000
0010
0000
0000
0000
0000
0000
0000
0000
1000
0000
0000
0000
0000
0000
0000
0000
0001
0000
0000
0000
0000
0000
0000
0000
,  // measure 31
0010
0100
1000
0100
0010
0100
1000
0001
0100
0010
1000
0001
0010
0010
0100
1000
1000
0001
0100
0100
0010
1000
1000
0010
,  // measure 32
0100
0001
0100
0010
1000
0001
0010
0100
1000
0100
0010
0100
1000
0000
0000
0010
0010
1000
0010
0010
0100
0001
0001
0100
,  // measure 33
0001
0001
1000
0100
0100
0010
0002
0000
0000
0103
0000
0000
0010
1000
0010
0001
0010
1000
0100
0001
0100
1000
0100
0001
,  // measure 34
0100
1000
0010
0100
0001
0010
0100
0010
0001
1000
0010
0100
0002
0000
0003
1000
1000
0100
0010
0010
0001
1000
1000
0001
,  // measure 35
0100
0010
1000
0001
0100
0010
1000
0001
0010
0100
0010
0001
2000
0000
0000
3001
0010
0100
0010
0001
1000
0100
0010
0001
,  // measure 36
0010
0100
1000
0001
0100
0001
2000
0000
0000
0000
0000
0000
3100
0000
0000
1000
1000
0010
0100
0100
0001
0010
0010
0100
,  // measure 37
1000
1000
0001
0100
0100
0001
0010
0010
0100
1000
1000
0100
0010
0000
0000
0100
0010
0001
0100
0010
1000
0001
0010
0001
,  // measure 38
1000
0000
0000
0000
0000
0000
0000
0000
0100
0000
0000
0000
0000
0000
0000
0000
1000
0000
0000
0000
0000
0000
0000
0000
0010
0000
0000
0000
0000
0000
0000
0000
0100
0000
0000
0000
0000
0000
0000
0000
0001
0000
0000
0000
0000
0000
0000
0000
0010
0000
0000
0000
0000
0000
0000
0000
0001
0000
0000
0000
0000
0000
0000
0000
0100
0000
0000
0000
0000
0000
0000
0000
0010
0000
0000
0000
0000
0000
0000
0000
1000
0000
0000
0000
0000
0000
0000
0000
0001
0000
0000
0000
0000
0000
0000
0000
0010
0000
0000
0000
0000
0000
0000
0000
0000
0000
0000
0000
0000
0000
0000
0000
0000
0000
0000
0000
0000
0000
0000
0000
0100
0000
0000
0000
0000
0000
1000
0000
0000
0000
0000
0000
0001
0000
0000
0000
0000
0000
1000
0000
0000
0000
0000
0000
0002
0000
0000
0000
0000
0000
0000
0000
0000
0000
0000
0000
0000
0000
0000
0000
0200
0000
0000
0000
0000
0000
0000
0000
0000
0000
0000
0000
0000
0000
0000
0000
0303
0000
0000
0000
0000
0000
0000
0000
0000
0000
0000
0000
0000
0000
0000
0000
,  // measure 39
1001
0000
0000
0000
0000
0000
0000
0000
0000
0000
0000
0000
0000
0000
0000
0000
0000
0000
0000
0000
0000
0000
0000
0000
0001
0000
0000
0000
0000
0000
0100
0000
0000
0000
0000
0000
0010
0000
0000
0000
0000
0000
1000
0000
0000
0000
0000
0000
0200
0000
0000
0000
0000
0000
0000
0000
0000
0000
0000
0000
0000
0000
0000
0000
0020
0000
0000
0000
0000
0000
0000
0000
0000
0000
0000
0000
0000
0000
0000
0000
0330
0000
0000
0000
0000
0000
0000
0000
0000
0000
0000
0000
0000
0000
0000
0000
0110
0000
0000
0000
0000
0000
0000
0000
0000
0000
0000
0000
0000
0000
0000
0000
0000
0000
0000
0000
0000
0000
0000
0000
1100
0000
0000
0000
0000
0000
0000
0000
0000
0000
0000
0000
0000
0000
0000
0000
1000
0000
0000
0000
0000
0000
0000
0000
1010
0000
0000
0000
0000
0000
0000
0000
0000
0000
0000
0000
0000
0000
0000
0000
0200
0000
0000
0000
0000
0000
0000
0000
0000
0000
0000
0000
0000
0000
0000
0000
0300
0000
0000
0000
0000
0000
0000
0000
0000
0000
0000
0000
0000
0000
0000
0000
,  // measure 40
1001
0000
0000
0000
0000
0000
0000
0000
0000
0000
0000
0000
0000
0000
0000
0000
0000
0000
0000
0000
0000
0000
0000
0000
1000
0000
0000
0000
0000
0000
0000
0000
0000
0000
0000
0000
0000
0000
0000
0000
0000
0000
0000
0000
0000
0000
0000
0000
0001
0000
0000
0000
0000
0000
0000
0000
0010
0000
0000
0000
0000
0000
0000
0000
0100
0000
0000
0000
0000
0000
0000
0000
1000
0000
0000
0000
0000
0000
0000
0000
0001
0000
0000
0000
0000
0000
0000
0000
0010
0000
0000
0000
0000
0000
0000
0000
0100
0000
0000
0000
0000
0000
0000
0000
0000
0000
0000
0000
0000
0000
0000
0000
0000
0000
0000
0000
0000
0000
0000
0000
1000
0000
0000
0000
0000
0000
0100
0000
0000
0000
0000
0000
0010
0000
0000
0000
0000
0000
0001
0000
0000
0000
0000
0000
1000
0000
0000
0000
0000
0000
0000
0000
0000
0000
0000
0000
0000
0000
0000
0000
0202
0000
0000
0000
0000
0000
0000
0000
0000
0000
0000
0000
0000
0000
0000
0000
0303
0000
0000
0000
0000
0000
0000
0000
0000
0000
0000
0000
0000
0000
0000
0000
,  // measure 41
1001
0000
0000
0000
0000
0000
0000
0000
0000
0000
0000
0000
0000
0000
0000
0000
0000
0000
0000
0000
0000
0000
0000
0000
0001
0000
0000
0000
0000
0000
0010
0000
0000
0000
0000
0000
0100
0000
0000
0000
0000
0000
1000
0000
0000
0000
0000
0000
0001
0000
0000
0000
0000
0000
0000
0000
0000
0000
0000
0000
0000
0000
0000
0000
2020
0000
0000
0000
0000
0000
0000
0000
0000
0000
0000
0000
0000
0000
0000
0000
3030
0000
0000
0000
0000
0000
0000
0000
0000
0000
0000
0000
0000
0000
0000
0000
1001
0000
0000
0000
0000
0000
0000
0000
0000
0000
0000
0000
0000
0000
0000
0000
0000
0000
0000
0000
0000
0000
0000
0000
0101
0000
0000
0000
0000
0000
0000
0000
0000
0000
0000
0000
0000
0000
0000
0000
0001
0000
0000
0000
0000
0000
0000
0000
0011
0000
0000
0000
0000
0000
0000
0000
0000
0000
0000
0000
0000
0000
0000
0000
1100
0000
0000
0000
0000
0000
0000
0000
0000
0000
0000
0000
0000
0000
0000
0000
0000
0000
0000
0000
0000
0000
0000
0000
0000
0000
0000
0000
0000
0000
0000
0000
,  // measure 42
1010
0000
0000
0010
0000
0000
0100
0010
1000
0001
0010
0100
1000
0000
0000
0000
0000
0000
0001
0000
1000
0002
0000
0000
,  // measure 43
0000
0003
0010
0001
0000
0001
0100
0000
0100
0010
0000
1000
0001
0000
0000
0000
0000
0000
1000
0000
0000
0100
0000
0000
,  // measure 44
2000
0000
0000
0000
0000
0000
3001
0100
0010
1000
0001
1000
0001
0000
0000
0000
0000
0000
1000
0000
0001
0200
0000
0000
,  // measure 45
0000
0000
0310
2000
0000
0000
3001
0000
0001
0010
0000
0100
1000
0000
1000
0001
0000
0001
0100
0000
0100
0010
0000
0010
,  // measure 46
1000
0000
0000
0000
1000
0000
0100
0000
0000
0000
0100
0000
0010
0000
0000
0001
0000
0000
0100
0000
0000
0000
0000
0000
1001
0000
0000
0000
0000
0000
0000
0000
0000
0000
0000
0000
0000
0000
0000
0000
0000
0000
0000
0000
0000
0000
0000
0000
;

//---------------dance-single - ----------------
#NOTEDATA:;
#CHARTNAME:;
#STEPSTYPE:dance-single;
#DESCRIPTION:;
#CHARTSTYLE:;
#DIFFICULTY:Beginner;
#METER:2;
#RADARVALUES:0.168576,0.230107,0.152263,0.000000,0.000000,155.000000,135.000000,20.000000,0.000000,0.000000,0.000000,0.000000,0.000000,0.000000,0.168576,0.230107,0.152263,0.000000,0.000000,155.000000,135.000000,20.000000,0.000000,0.000000,0.000000,0.000000,0.000000,0.000000;
#CREDIT:;
#NOTES:
1000
0000
0000
0000
,
1000
0000
0000
0000
,
0001
0000
0000
0000
,
0001
0000
0100
0000
,
0010
0000
1000
0000
,
0100
0000
1000
1000
,
1000
0001
0000
0000
,
0100
0100
0010
0010
,
1001
0000
0000
0000
,
1000
0000
0000
0010
,
0100
0000
0000
0000
,
0010
0000
0000
1000
,
0001
0000
1000
0000
,
0010
0010
0100
0100
,
1001
1000
0000
0010
,
0000
1000
1000
0001
,
1000
0100
0000
0010
,
0000
0100
0100
1000
,
0001
0100
0000
0100
,
0000
0010
1000
0010
,
1000
1001
0000
0110
,
0000
1001
0000
0110
,
0000
1001
0001
1000
,
0000
0001
0100
0100
,
0010
0100
0000
0010
,
0000
1000
1000
0001
,
1000
1001
1000
0000
,
0001
0100
0000
0010
,
0100
0010
1000
0000
,
0001
1000
0100
1000
,
0001
0100
0110
0000
,
0100
0000
0010
0010
,
0010
1000
0001
1000
,
1000
1000
0001
0001
,
0001
0001
1001
0010
,
0100
0010
1000
1000
,
0001
0001
1001
0010
,
0100
0100
0010
1000
,
0001
1000
1001
0000
,
0110
0000
0100
0100
,
0010
1000
1001
0000
,
0110
0000
1001
0110
,
1001
0001
1001
1000
,
0000
0010
1000
0100
,
1000
0001
0100
0001
,
0000
0100
0010
0100
,
0001
1000
1001
0000
;
