#TITLE:Thank You;
#SUBTITLE:;
#ARTIST:Solarstone;
#TITLETRANSLIT:;
#SUBTITLETRANSLIT:;
#ARTISTTRANSLIT:;
#GENRE:;
#CREDIT:;
#BANNER:Thank You.png;
#BACKGROUND:Thank You-bg.png;
#LYRICSPATH:;
#CDTITLE:;
#MUSIC:Thank You.ogg;
#OFFSET:-0.486000;
#SAMPLESTART:87.442520;
#SAMPLELENGTH:13.913048;
#SELECTABLE:YES;
#BPMS:0.000000=69.000000
,32.000000=138.000000
,232.000000=69.000000
;
#STOPS:
;
#BGCHANGES:;
#KEYSOUNDS:;
#ATTACKS:;

//---------------dance-single - ----------------
#NOTES:
     dance-single:
     :
     Hard:
     6:
     0.296779,0.380602,0.277522,0.015858,0.031717,262.000000,227.000000,35.000000,2.000000,0.000000,0.000000,0.296779,0.380602,0.277522,0.015858,0.031717,262.000000,227.000000,35.000000,2.000000,0.000000,0.000000:
// measure 0
0000
0000
0000
0000
,  // measure 1
0000
0000
0000
0000
,  // measure 2
0000
0000
0000
0000
0000
0000
0000
0000
0000
0000
0000
0000
0000
0000
0000
1000
,  // measure 3
0010
0000
0000
0000
0000
0000
0000
1000
0010
0000
0000
0100
0000
0000
0001
0000
,  // measure 4
1001
0000
0000
0000
0000
0000
0000
0000
0110
0000
0000
0000
0000
0000
0000
1000
,  // measure 5
0001
0000
0000
0000
0000
0000
0000
1000
0001
0000
0000
0100
0000
0000
0001
0000
,  // measure 6
0011
0000
0000
0000
0000
0000
0000
0000
0101
0000
0000
0000
0000
0000
0000
0100
,  // measure 7
0010
0000
0000
0000
,  // measure 8
1001
0001
1000
0001
,  // measure 9
1010
1100
1001
0011
,  // measure 10
1001
0001
0010
0001
,  // measure 11
0100
0001
1000
0110
,  // measure 12
0010
0000
0000
0100
0000
0000
0001
0000
0100
0000
0000
0000
0010
0000
0000
0000
,  // measure 13
1000
0100
1000
0001
,  // measure 14
1001
0000
1000
0000
0010
0000
0100
0001
,  // measure 15
0010
0000
0100
1000
0000
0100
0010
0000
,  // measure 16
0011
0010
0001
0100
,  // measure 17
1010
0000
1000
0000
0001
0000
0100
0010
,  // measure 18
1000
0000
0010
0000
0100
0000
0001
1000
,  // measure 19
0100
0000
0010
0100
0000
1000
0010
0000
,  // measure 20
0101
0000
0100
0000
0010
0000
1000
0001
,  // measure 21
0010
0000
0001
0000
0100
0000
0010
1000
,  // measure 22
0100
0000
1000
0000
0100
0000
0010
0001
,  // measure 23
0100
0000
0100
0001
1000
0000
1000
0001
,  // measure 24
0010
0000
0000
0000
,  // measure 25
0100
0000
0000
0000
,  // measure 26
1001
0000
0001
1000
0010
0000
0000
0100
,  // measure 27
0001
0000
0010
0100
1000
0000
0000
0000
,  // measure 28
0100
0000
0010
0001
1000
0000
0000
0001
,  // measure 29
0100
0000
0010
1000
0100
0000
0000
0000
,  // measure 30
0010
0000
0100
1000
0010
0000
0000
0100
,  // measure 31
0001
0000
0010
0100
1000
0000
0000
0000
,  // measure 32
0100
0000
0010
0100
1000
0000
0000
0001
,  // measure 33
1001
0000
0110
0000
,  // measure 34
1001
0000
0001
0100
1000
0000
0000
0100
,  // measure 35
0010
0000
0100
0010
1000
0000
0000
0000
,  // measure 36
0001
0000
1000
0010
0001
0000
0000
0010
,  // measure 37
0100
0000
0010
0100
0001
0000
0000
0000
,  // measure 38
0001
0000
1000
0100
0001
0000
0000
0100
,  // measure 39
0010
0000
0100
0010
0001
0000
0000
0000
,  // measure 40
1000
0000
0001
0010
0100
0000
0000
1000
,  // measure 41
1001
0000
0110
0000
,  // measure 42
1001
0000
0001
0000
0010
0000
0001
0100
,  // measure 43
0110
0000
0010
0100
0101
0000
0001
1000
,  // measure 44
1010
1000
0001
0100
,  // measure 45
0001
0000
1000
0000
0100
0000
0010
0100
,  // measure 46
1100
0000
0010
0000
0100
0000
0010
0001
,  // measure 47
0011
0000
0010
0100
0000
1000
0001
0000
,  // measure 48
1100
0001
0010
0001
,  // measure 49
1010
0000
0100
0000
0001
0000
1000
0010
,  // measure 50
0110
0000
0010
0000
0100
0000
0001
0010
,  // measure 51
0110
0000
0010
0100
0000
1000
0001
0000
,  // measure 52
0110
0000
0001
0000
1000
0000
0001
0100
,  // measure 53
0110
0000
0100
0000
0001
0000
1000
0001
,  // measure 54
0101
0000
0000
0000
,  // measure 55
0000
0000
0000
0000
0000
0000
0000
0001
,  // measure 56
1000
0000
0000
0000
,  // measure 57
0010
0000
0000
0000
,  // measure 58
0220
0000
0000
0000
,  // measure 59
0300
0000
0000
0000
,  // measure 60
0030
0000
0000
0000
;

//---------------dance-single - ----------------
#NOTES:
     dance-single:
     :
     Easy:
     1:
     0.115540,0.160963,0.015858,0.000000,0.000000,102.000000,100.000000,2.000000,0.000000,0.000000,0.000000,0.115540,0.160963,0.015858,0.000000,0.000000,102.000000,100.000000,2.000000,0.000000,0.000000,0.000000:
0000
0000
0000
0000
,
0000
0000
0000
0000
,
0000
0000
0000
0000
,
0010
0000
0010
0100
,
0001
0000
1000
0000
,
0100
0000
0010
0001
,
1000
0000
0001
0000
,
0100
0000
0000
0000
,
1001
0000
0000
0000
,
0001
0010
0001
1000
,
0100
0000
0000
0000
,
0000
0000
0000
1000
,
0001
0100
0010
0000
,
0000
0000
0000
0000
,
0100
0000
0000
0000
,
0010
0000
1000
0000
,
0001
0000
0000
0000
,
0100
0000
0000
0000
,
0001
0000
0000
0000
,
1000
0000
0001
0000
,
0010
0000
0000
0000
,
0100
0000
0000
0000
,
0010
0000
0000
0000
,
0001
0000
1000
0000
,
0100
0000
0000
0000
,
1000
0000
0000
0000
,
0001
0100
0001
0000
,
0100
0010
0100
0000
,
0010
1000
0010
0000
,
1000
0100
1000
0000
,
0100
0010
0100
0000
,
0001
1000
0001
0000
,
0100
0010
0100
0000
,
0001
0000
1000
0000
,
0001
0100
0010
0000
,
0100
0010
1000
0000
,
0100
0010
0001
0000
,
0010
0100
1000
0000
,
0001
0100
1000
0000
,
1000
0100
0001
0000
,
0001
0010
1000
0000
,
0010
0000
0001
0000
,
1001
0000
0000
0000
,
1000
0000
0001
0000
,
0100
0000
0000
0000
,
0000
0000
0000
0000
,
0001
0000
0000
0000
,
0010
0000
0001
0000
,
1000
0000
0000
0000
,
0100
0000
0000
0000
,
1000
0000
0000
0000
,
0010
0000
0100
0000
,
0001
0000
0000
0000
,
1000
0000
0000
0000
,
0010
0000
0000
0000
,
0000
0000
0000
0000
,
1000
0000
0000
0000
,
0001
0000
0000
0000
,
0100
0000
0000
0000
;

//---------------dance-single - ----------------
#NOTES:
     dance-single:
     :
     Medium:
     4:
     0.175575,0.275936,0.111009,0.000000,0.003965,155.000000,141.000000,14.000000,0.000000,0.000000,0.000000,0.175575,0.275936,0.111009,0.000000,0.003965,155.000000,141.000000,14.000000,0.000000,0.000000,0.000000:
0000
0000
0000
0000
,
0000
0000
0000
0000
,
0000
0000
0000
0000
,
1000
0000
1000
0001
,
0100
0000
0001
0000
,
0010
0000
0001
1000
,
0100
0000
1000
0000
,
0010
0000
0000
0000
,
1001
0000
0000
0000
,
1001
0101
0011
0110
,
1100
0000
0000
0000
,
0000
0000
0000
1100
,
1000
0000
0000
0010
0000
0000
0100
0000
0001
0000
0000
0000
0000
0000
0000
0000
,
0000
0000
0000
0000
,
1001
0000
0000
0000
0000
0000
0000
0001
,
0010
0000
0000
0001
0000
0000
0100
0000
,
0010
0000
0000
0000
,
1000
0000
0000
0000
0000
0000
0000
0100
,
0010
0000
0000
0000
0000
0000
0000
0100
,
1000
0000
0000
0010
0000
0000
0100
0000
,
0001
0000
0000
0000
,
0100
0000
0000
0000
0000
0000
0000
0010
,
1000
0000
0000
0000
0000
0000
0000
0100
,
1000
0000
0001
0000
,
0100
0000
0000
0000
,
0010
0000
0000
0000
,
1000
0000
0001
0100
0001
0000
0000
0100
,
0010
0000
1000
0010
1000
0000
0000
0000
,
0010
0000
0100
0010
0100
0000
0000
0010
,
1000
0000
0001
1000
0001
0000
0000
0000
,
0010
0000
0100
0010
0100
0000
0000
0010
,
0001
0000
1000
0010
1000
0000
0000
0000
,
0010
0000
0100
0001
0100
0000
0000
0001
,
1001
0000
0110
0000
,
1010
0000
1000
0010
0100
0000
0000
0100
,
0010
0000
0100
0010
1000
0000
0000
0000
,
0001
0000
0010
0001
0100
0000
0000
0100
,
0010
0000
0100
0010
1000
0000
0000
0000
,
0001
0000
1000
0001
0100
0000
0000
0100
,
0010
0000
0100
0010
1000
0000
0000
0000
,
0100
0000
0010
0001
0100
0000
0000
0010
,
0110
0000
1001
0000
,
0110
0000
0000
0000
0000
0000
0000
0100
,
0001
0000
0000
0001
0010
0000
0000
0010
,
0100
0000
0000
0000
,
0000
0000
0000
0000
0000
0000
0000
0100
,
0010
0000
0000
0000
0000
0000
0000
0100
,
0010
0000
0000
0001
0000
0000
1000
0000
,
0010
0000
0000
0000
,
0100
0000
0000
0000
0000
0000
0000
0001
,
1000
0000
0000
0000
0000
0000
0000
0001
,
1000
0000
0000
0010
0000
0000
1000
0000
,
0100
0000
0000
0000
,
1000
0000
0000
0000
0000
0000
0000
0001
,
0010
0000
0000
0000
,
0000
0000
0000
0000
0000
0000
0000
0100
,
1000
0000
0000
0000
,
0010
0000
0000
0000
,
0100
0000
0000
0000
;

//---------------dance-single - ----------------
#NOTES:
     dance-single:
     :
     Beginner:
     1:
     0.073628,0.114974,0.023788,0.000000,0.000000,65.000000,62.000000,3.000000,0.000000,0.000000,0.000000,0.073628,0.114974,0.023788,0.000000,0.000000,65.000000,62.000000,3.000000,0.000000,0.000000,0.000000:
0000
0000
0000
0000
,
0000
0000
0000
0000
,
0000
0000
0000
0000
,
1000
0000
0000
0000
,
0001
0000
0100
0000
,
0001
0000
0000
0000
,
1000
0000
0001
0000
,
0100
0000
0000
0000
,
0010
0000
0000
0000
,
1000
0000
1000
0000
,
1000
0000
0000
0000
,
0000
0000
0000
0001
,
0001
0000
0000
0000
,
0000
0000
0000
0000
,
0100
0000
0000
0000
,
0100
0000
0000
0000
,
0010
0000
0000
0000
,
1000
0000
0000
0000
,
0001
0000
0000
0000
,
0100
0000
0000
0000
,
0001
0000
0000
0000
,
1000
0000
0000
0000
,
0001
0000
0000
0000
,
0100
0000
0010
0000
,
0100
0000
0000
0000
,
0001
0000
0000
0000
,
1001
0000
0000
0000
,
1000
0000
0000
0000
,
0001
0000
0000
0000
,
1000
0000
0000
0000
,
0001
0000
0000
0000
,
1000
0000
0000
0000
,
0001
0000
0000
0000
,
1000
0000
0001
0000
,
0110
0000
0000
0000
,
0010
0000
0000
0000
,
0100
0000
0000
0000
,
0010
0000
0000
0000
,
0100
0000
0000
0000
,
0010
0000
0000
0000
,
0100
0000
0000
0000
,
0010
0000
0100
0000
,
1001
0000
0000
0000
,
1000
0000
0001
0000
,
1000
0000
0000
0000
,
0000
0000
0000
0000
,
0010
0000
0000
0000
,
0010
0000
0100
0000
,
0010
0000
0000
0000
,
1000
0000
0000
0000
,
0001
0000
0000
0000
,
0010
0000
0001
0000
,
1000
0000
0000
0000
,
0100
0000
0000
0000
,
1000
0000
0000
0000
,
0000
0000
0000
0000
,
0001
0000
0000
0000
,
0100
0000
0000
0000
,
0010
0000
0000
0000
;
