#VERSION:0.83;
#TITLE:天空の夜明け;
#SUBTITLE:;
#ARTIST:Cuvelia;
#TITLETRANSLIT:Tenkuu no Yoake;
#SUBTITLETRANSLIT:;
#ARTISTTRANSLIT:;
#GENRE:;
#ORIGIN:;
#CREDIT:;
#BANNER:Tenkuu no Yoake.png;
#BACKGROUND:Tenkuu no Yoake-bg.png;
#PREVIEWVID:;
#JACKET:Tenkuu no yoake-jacket.png;
#CDIMAGE:;
#DISCIMAGE:;
#LYRICSPATH:;
#CDTITLE:;
#MUSIC:Tenkuu no Yoake.ogg;
#OFFSET:-6.428996;
#SAMPLESTART:25.628998;
#SAMPLELENGTH:12.799999;
#SELECTABLE:YES;
#BPMS:0.000=37.500,
4.000=75.000,
20.000=150.000;
#STOPS:115.750=1.600;
#DELAYS:;
#WARPS:;
#TIMESIGNATURES:0.000=4=4;
#TICKCOUNTS:0.000=4;
#COMBOS:0.000=1;
#SPEEDS:0.000=1.000=0.000=0;
#SCROLLS:0.000=1.000;
#FAKES:;
#LABELS:0.000=Song Start;
#BGCHANGES:;
#KEYSOUNDS:;
#ATTACKS:
;

//---------------dance-single - ----------------
#NOTEDATA:;
#CHARTNAME:;
#STEPSTYPE:dance-single;
#DESCRIPTION:;
#CHARTSTYLE:;
#DIFFICULTY:Hard;
#METER:9;
#RADARVALUES:0.507331,0.565521,0.158188,0.158188,0.241236,449.000000,429.000000,20.000000,20.000000,0.000000,0.000000,0.000000,0.000000,0.000000,0.507331,0.565521,0.158188,0.158188,0.241236,449.000000,429.000000,20.000000,20.000000,0.000000,0.000000,0.000000,0.000000,0.000000;
#CREDIT:;
#NOTES:
// measure 0
0000
0000
0000
0000
,  // measure 1
0001
0000
1000
0100
2000
0000
3002
0000
,  // measure 2
0203
0000
0302
0000
0020
0000
0000
0033
,  // measure 3
1000
0000
0001
0100
0002
0000
2003
0000
,  // measure 4
3200
0000
0320
0000
0200
0000
0000
0330
,  // measure 5
1001
0001
0010
0001
,  // measure 6
1000
0100
1000
0001
,  // measure 7
1000
0010
0100
0001
,  // measure 8
1000
0100
0010
0001
,  // measure 9
1000
0000
0000
0001
0100
0000
0000
0100
0010
0000
1000
0000
0010
0000
0000
0000
,  // measure 10
1000
0000
0000
1000
0010
0000
0000
0010
0100
0000
0001
0000
0100
0000
0000
0000
,  // measure 11
0001
0000
0000
1000
0001
0000
0000
0001
1000
0000
0010
0000
0100
0000
0010
0000
,  // measure 12
2002
0000
0000
3003
,  // measure 13
0001
0000
0000
0001
0000
0000
1000
0000
0010
0000
1000
0000
0100
0000
1000
0000
,  // measure 14
0001
0000
0000
0001
0000
0000
0010
0000
0000
0100
0000
0100
0000
0010
0000
0000
,  // measure 15
0001
0000
0000
0001
0000
0000
1000
0000
0010
0000
0100
0000
0001
0000
0100
0000
,  // measure 16
0010
0000
0000
1000
0000
0000
0100
0000
1000
0000
0001
0000
1000
0000
0010
0000
,  // measure 17
0100
0000
0000
0100
0000
0000
0010
0000
1000
0000
0001
0000
0010
0000
0001
0000
,  // measure 18
1000
0000
0000
1000
0000
0000
0100
0000
0000
0010
0000
0010
0000
0100
0000
0000
,  // measure 19
1000
0000
0000
1000
0000
0000
0001
0000
0100
0000
0001
0000
0100
0000
0010
0000
,  // measure 20
1000
0000
0000
1000
0000
0000
0001
0000
0010
0000
0100
0000
0010
0000
0001
0000
,  // measure 21
1000
0010
0001
0010
0100
0001
0010
0100
,  // measure 22
0010
0001
0001
0001
1000
0010
0100
0001
,  // measure 23
1000
0000
0000
0100
0000
0000
1000
0000
0001
0000
0100
0000
0010
0000
1000
0000
,  // measure 24
0100
0001
0100
1000
0010
0001
0010
1000
,  // measure 25
0001
0100
0001
0100
0010
1000
0010
1000
,  // measure 26
0100
1000
0100
1000
0001
0010
0001
0010
,  // measure 27
0001
1000
0001
0010
0001
1000
0001
0100
,  // measure 28
0001
0000
1000
0000
0100
0000
0010
0000
0001
0000
0010
0000
0100
0010
0001
1000
,  // measure 29
0001
0100
0001
0000
1000
0000
0000
0000
0001
0100
0001
0000
1000
0000
0000
0000
,  // measure 30
0001
0100
0001
0000
1000
0000
0000
0000
0001
0100
0001
0000
1000
0000
0000
0000
,  // measure 31
0100
1000
0100
0000
0010
0000
0000
0000
0100
1000
0100
0000
0010
0000
0000
0000
,  // measure 32
0100
1000
0100
0000
0010
0000
0000
0000
0100
1000
0100
0000
0010
0000
0000
0000
,  // measure 33
0001
1000
0001
0000
0100
0000
0000
0000
0001
1000
0001
0000
0100
0000
0000
0000
,  // measure 34
0001
1000
0001
0000
0100
0000
0000
0000
0001
1000
0001
0000
0100
0000
0000
0000
,  // measure 35
0010
0100
0010
0000
1000
0000
0000
0000
0010
0100
0010
0000
1000
0000
0000
0000
,  // measure 36
0002
0023
0230
2300
,  // measure 37
3001
0100
0110
0000
0010
1000
1100
0000
,  // measure 38
2100
3010
0201
0310
,  // measure 39
1000
0010
0100
0001
0010
0001
1000
0010
,  // measure 40
0100
0001
0010
0100
0010
0001
1000
0100
,  // measure 41
1000
0000
0001
0100
0010
0100
0001
1000
,  // measure 42
0010
0100
0001
0010
0100
0010
0001
1000
,  // measure 43
0100
1000
0010
0000
0100
0001
0010
0000
,  // measure 44
0100
0000
0000
0010
0001
0000
0000
0001
1000
0000
0001
0000
0010
0000
0001
0000
,  // measure 45
1001
0000
0000
1000
0010
0000
0100
0000
0001
0000
0000
1000
0010
0000
0100
0000
,  // measure 46
0010
0000
0000
0100
0001
0000
0010
0000
0001
0000
0000
0100
0001
0000
0010
0000
,  // measure 47
0100
0000
0000
0010
0001
0000
1000
0000
0100
0000
0000
0010
0001
0000
1000
0000
,  // measure 48
0001
0000
0000
1000
0010
0000
0100
0000
0001
0000
0000
1000
0010
0000
0100
0000
,  // measure 49
0101
0011
1100
1010
,  // measure 50
1001
0000
0001
0010
0100
1000
0100
0010
,  // measure 51
0100
0000
0000
0000
0010
0000
0000
0001
0100
0000
0000
0000
0010
0000
0000
0000
,  // measure 52
1000
0100
1000
0001
,  // measure 53
0100
0000
0001
0100
0001
0000
0100
0000
0010
0000
1000
0010
1000
0000
0010
0000
,  // measure 54
0100
0000
0001
0100
0001
0000
0100
0000
0010
0000
1000
0001
1000
0000
0100
0000
,  // measure 55
0010
0000
0001
0010
0001
0000
0010
0000
0001
0000
0100
0001
0100
0000
0010
0000
,  // measure 56
1000
0000
0100
1000
0100
0000
1000
0000
0010
0000
0100
0010
0100
0000
0010
0000
,  // measure 57
1010
0101
0011
1100
,  // measure 58
1001
0000
0001
0010
0100
1000
0100
0010
,  // measure 59
0100
0000
0000
0000
0010
0000
0000
0001
0100
0000
0000
0000
0010
0000
0000
0000
,  // measure 60
1000
0000
0010
0000
0100
0010
1001
0000
,  // measure 61
0101
0000
0001
0010
0001
1000
0100
0001
,  // measure 62
0100
0010
0001
0010
1000
0010
0001
0100
,  // measure 63
0010
0000
1000
0100
0010
0000
0010
0001
0100
0000
0100
0010
1000
0000
0000
0001
,  // measure 64
2002
0000
0000
0000
,  // measure 65
3003
0000
0000
0000
;

//---------------dance-single - ----------------
#NOTEDATA:;
#CHARTNAME:;
#STEPSTYPE:dance-single;
#DESCRIPTION:;
#CHARTSTYLE:;
#DIFFICULTY:Medium;
#METER:7;
#RADARVALUES:0.399989,0.488405,0.324285,0.284738,0.083049,354.000000,313.000000,41.000000,36.000000,0.000000,0.000000,0.000000,0.000000,0.000000,0.399989,0.488405,0.324285,0.284738,0.083049,354.000000,313.000000,41.000000,36.000000,0.000000,0.000000,0.000000,0.000000,0.000000;
#CREDIT:;
#NOTES:
0000
0000
0000
0000
,
2000
0000
0000
0000
0002
0000
0000
3000
,
0200
0000
0000
0003
0020
0000
0000
0330
,
0100
0001
0010
0001
,
2000
0000
3002
0000
2000
0000
0000
3003
,
0001
0010
0001
1000
,
0100
1000
0001
0001
,
1000
0010
0100
0100
,
0010
1000
0001
0001
,
1000
0000
0000
0001
1000
0000
0000
1000
0001
0000
0100
0000
0001
0000
0000
0000
,
1000
0000
0000
0001
1000
0000
0000
1000
0001
0000
0010
0000
0001
0000
0000
0000
,
1000
0000
0000
0100
0010
0000
0000
0010
0001
0000
0100
0000
0010
0000
1000
0000
,
2002
0000
0000
3003
,
0201
0310
2100
3001
,
0201
0310
2001
3100
,
1000
0100
1000
0000
0100
0010
0100
0000
,
0010
0000
0000
0010
0000
0000
0010
0000
0001
0000
0100
0000
0001
0000
1000
0000
,
1200
0310
0012
0103
,
2001
3100
1002
0013
,
0001
0100
0001
0000
0100
0010
0100
0000
,
0010
0000
0000
0010
0000
0000
0010
0000
1000
0000
0001
0000
0010
0000
0001
0000
,
1000
0001
0101
0000
0001
1000
1100
0000
,
1020
0230
0302
0023
,
0130
0010
0011
0000
0001
0100
0101
0000
,
0120
2030
3200
2300
,
3001
0001
1000
1000
,
1010
0010
0100
0100
,
0101
0001
0011
0010
,
0010
0100
1000
0010
0100
0001
1000
0010
,
1000
0010
1000
0000
1000
0010
1000
0000
,
1000
0010
1000
0000
1000
0010
1000
0000
,
0001
0010
0001
0000
0001
0010
0001
0000
,
0001
0010
0001
0000
0001
0010
0001
0000
,
1000
0001
1000
0000
0001
1000
0001
0000
,
1000
0001
1000
0000
0001
1000
0001
0000
,
1000
0010
0100
0000
0010
0100
0001
0000
,
0200
0320
2030
3002
,
0023
0001
0100
0001
,
0230
1000
0320
0032
,
2003
0001
0010
0001
,
3002
0100
1000
0100
,
1003
0000
0010
0100
0001
0000
0010
0000
,
1001
0000
0001
1000
0100
0000
1000
0000
,
1001
0000
0001
0100
0110
0000
0010
1000
,
1010
0000
0101
0000
1001
1000
1000
1000
,
1001
0000
0011
0000
,
1100
0000
1001
0000
,
1010
0000
0101
0000
,
0011
0000
1001
0000
,
1000
0100
0001
0010
,
1000
0000
0001
0010
0100
1000
0100
0010
,
0001
1000
0010
1000
,
0001
0010
0001
1000
,
1001
0000
0000
0001
0010
0000
0000
0000
1001
0000
0000
1000
0100
0000
0000
0000
,
1010
0000
0000
0010
0100
0000
0000
0000
0101
0000
0000
0001
0010
0000
0000
0000
,
0110
0000
0000
0100
1000
0000
0000
0000
1100
0000
0000
1000
0010
0000
0000
0000
,
0110
0000
0000
0100
0001
0000
0000
0000
1001
0000
0000
0001
0010
0000
0100
0000
,
1000
0100
0001
0010
,
1000
0000
0001
0010
0100
1000
0100
0010
,
0100
0000
0000
0000
0010
0000
0000
0001
0100
0000
0000
0000
0010
0000
0000
0000
,
1000
0000
0010
0000
0100
0001
0010
0000
,
1001
0000
1000
0010
0100
0001
0010
0001
,
0100
1000
0010
0100
0010
1000
0100
0010
,
0001
0000
0000
1000
0100
0000
0000
0100
0010
0000
0000
0010
0001
0000
0000
0001
,
2000
0000
0000
0000
,
3000
0000
0000
0000
;

//---------------dance-single - ----------------
#NOTEDATA:;
#CHARTNAME:;
#STEPSTYPE:dance-single;
#DESCRIPTION:;
#CHARTSTYLE:;
#DIFFICULTY:Easy;
#METER:4;
#RADARVALUES:0.277959,0.411288,0.363832,0.158188,0.000000,246.000000,200.000000,46.000000,20.000000,0.000000,0.000000,0.000000,0.000000,0.000000,0.277959,0.411288,0.363832,0.158188,0.000000,246.000000,200.000000,46.000000,20.000000,0.000000,0.000000,0.000000,0.000000,0.000000;
#CREDIT:;
#NOTES:
0000
0000
0000
0000
,
0001
0000
1000
0000
,
0010
0000
1000
0000
,
0001
0000
0010
0000
,
0002
0000
2003
0000
0002
0000
0000
3003
,
0110
0000
0010
0000
,
1000
0000
0001
0000
,
0010
0000
0001
0001
,
1000
0000
0001
0000
,
1001
0000
0010
0000
,
1001
0000
0100
0000
,
1001
0110
1001
0110
,
2002
0000
0000
3003
,
0101
0001
0010
0010
,
0001
1000
0100
0100
,
2000
3010
0020
0130
,
0100
0001
0010
0010
,
0001
1000
0100
0100
,
1000
0001
0100
0001
,
0020
0031
0002
1003
,
0100
0100
1000
0010
,
1000
0010
0100
0001
,
0020
0000
0000
0030
,
0100
0010
0001
1000
,
0200
0000
0000
0300
,
1000
0100
0010
0001
,
1000
0100
0010
0001
,
0001
0010
0100
1000
,
0001
0100
0010
1000
,
0001
0001
1000
1000
,
0001
0001
1000
1000
,
0010
0010
0100
0100
,
0010
0010
0100
0100
,
0001
0001
0010
0010
,
0001
0001
0010
0010
,
0100
0100
1000
1000
,
0001
0100
0010
1000
,
0002
0000
0000
0000
,
1003
0000
0001
0010
,
0200
0000
0000
0000
,
0020
0000
0000
0330
,
1001
0000
1000
0001
,
0200
0000
0301
0100
,
0010
0000
1000
0000
,
0010
0100
0001
1000
,
1001
0000
0101
0000
,
0011
0000
0110
0000
,
1100
0000
1010
0000
,
0101
0000
1001
0000
,
1100
0011
0101
1010
,
1001
0001
0010
0100
,
1100
0000
0011
0000
,
0101
0000
1010
0000
,
1001
0001
0011
0010
,
0110
0100
1100
1000
,
1001
0001
0101
0100
,
0110
0010
1010
1000
,
1001
0110
1001
0110
,
1001
0001
0010
0100
,
1100
1000
1010
0010
,
0110
0010
0110
0100
,
0101
0001
0001
1000
,
1000
0010
0010
0100
,
0020
0230
0302
1003
,
2002
0000
0000
0000
,
3003
0000
0000
0000
;

//---------------dance-single - ----------------
#NOTEDATA:;
#CHARTNAME:;
#STEPSTYPE:dance-single;
#DESCRIPTION:;
#CHARTSTYLE:;
#DIFFICULTY:Beginner;
#METER:2;
#RADARVALUES:0.131070,0.202480,0.063275,0.000000,0.000000,116.000000,108.000000,8.000000,0.000000,0.000000,0.000000,0.000000,0.000000,0.000000,0.131070,0.202480,0.063275,0.000000,0.000000,116.000000,108.000000,8.000000,0.000000,0.000000,0.000000,0.000000,0.000000,0.000000;
#CREDIT:;
#NOTES:
0000
0000
0000
0000
,
0010
0000
1000
0000
,
0001
0000
1000
0000
,
0100
0000
1000
0000
,
0001
1000
0001
0000
,
0110
0000
0000
0000
,
0010
0000
0000
0000
,
1000
0000
0000
0000
,
0001
0000
0000
0000
,
0100
0000
0000
0000
,
0010
0000
0000
0000
,
1000
0000
0001
0000
,
1001
0000
0000
0000
,
0110
0000
0000
0000
,
0100
0000
0000
0000
,
0001
0000
0001
0000
,
0001
0000
0000
0000
,
0010
0000
0000
0000
,
0100
0000
0000
0000
,
1000
0000
1000
0000
,
1000
0000
0000
0000
,
0010
0000
0000
0000
,
1000
0000
0000
0000
,
0001
0000
0000
0000
,
0010
0000
0000
0000
,
0001
0000
0000
0000
,
1000
0000
0000
0000
,
0010
0000
0100
0000
,
0010
0000
0000
0000
,
1000
0000
1000
0000
,
1000
0000
1000
0000
,
0001
0000
0001
0000
,
0001
0000
0001
0000
,
0100
0000
0100
0000
,
0100
0000
0100
0000
,
0010
0000
0010
0000
,
0010
0000
0000
0000
,
1001
0000
0000
0000
,
1000
0000
0001
0001
,
0001
0000
0000
0000
,
0100
0000
0010
0000
,
1000
0000
0010
0010
,
0010
0000
0100
0100
,
0100
0000
0001
0000
,
1000
0001
1000
0001
,
0110
0000
0010
0000
,
0100
0000
0001
0000
,
1000
0000
0001
0000
,
0010
0000
0001
0000
,
1000
0000
0000
0000
,
0000
0001
0010
0100
,
1000
0000
0100
0000
,
1000
0000
0000
0000
,
1001
0000
0001
0000
,
0100
0000
0001
0000
,
0010
0000
0001
0000
,
1000
0000
0100
0000
,
1000
0100
0010
0001
,
1000
0000
0001
0000
,
0100
0000
0000
0000
,
0010
0000
1000
0000
,
1001
0000
0000
0000
,
0001
0000
0000
0000
,
0100
0000
0010
0000
,
1001
0000
0000
0000
;
