#TITLE:Take it Off;
#SUBTITLE:;
#ARTIST:Sergey Lazarev;
#TITLETRANSLIT:;
#SUBTITLETRANSLIT:;
#ARTISTTRANSLIT:;
#GENRE:;
#CREDIT:;
#BANNER:Take it Off.png;
#BACKGROUND:Take it Off-bg.png;
#LYRICSPATH:;
#CDTITLE:;
#MUSIC:Take it Off.ogg;
#OFFSET:-0.456000;
#SAMPLESTART:37.488247;
#SAMPLELENGTH:15.000000;
#SELECTABLE:YES;
#BPMS:0.000000=128.000000
;
#STOPS:
;
#BGCHANGES:;
#KEYSOUNDS:;
#ATTACKS:;

//---------------dance-single - ----------------
#NOTES:
     dance-single:
     :
     Hard:
     7:
     0.405751,0.446565,0.329194,0.107180,0.149286,371.000000,328.000000,43.000000,14.000000,0.000000,0.000000,0.405751,0.446565,0.329194,0.107180,0.149286,371.000000,328.000000,43.000000,14.000000,0.000000,0.000000:
0000
0000
0000
0000
,
0000
0000
0000
0000
,
0000
0000
0000
0000
,
0000
0000
0000
0000
1000
0001
0101
0000
,
1010
0000
1000
0010
1000
0001
0100
0000
,
0011
0000
0010
0100
1000
0001
1000
0000
,
1010
0000
0010
0100
0001
0010
0100
0000
,
1000
0001
1001
0000
1000
0000
0001
0000
,
0011
0000
0010
0100
0010
0001
1000
0000
,
0101
0000
0001
0100
0010
1000
0100
0000
,
1100
0000
0100
1000
0010
0100
0001
0000
,
1010
1000
1001
1000
,
0100
0010
0100
1000
,
0010
0100
0002
0003
,
1000
0010
0100
0001
,
0010
0200
0000
0300
,
1000
0100
1000
0010
,
0100
0000
0001
1000
0001
0200
0000
0000
,
1300
0200
0000
0000
0301
0200
0000
0000
,
1300
0000
0200
0000
0000
0000
0000
0000
0300
0000
0000
0000
1001
0000
0000
0001
,
0000
0000
1000
0000
1100
0000
0000
0100
0000
0000
0010
0000
0110
0000
0000
0000
,
0000
0000
0010
0000
0011
0000
0000
0001
0000
0000
0010
0000
0011
0000
0000
0001
,
0000
0000
0010
0000
0110
0000
0000
0100
0000
0000
1000
0000
1001
0000
0000
0000
,
0000
0000
0000
0000
0002
0000
0000
0000
0103
0000
0000
0000
1010
0000
0000
0010
,
0000
0000
0100
0000
0101
0000
0000
0001
0000
0000
0010
0000
0110
0000
0000
0000
,
0000
0000
0100
0000
1100
0000
0000
1000
0000
0000
0010
0000
0110
0000
0000
0100
,
0000
0000
0001
0000
0011
0000
0000
0010
0000
0000
0100
0000
1100
0000
0000
0000
,
0000
2000
0000
0000
3001
0100
0010
0000
,
0100
0001
1000
0000
0100
1000
0010
0000
,
0100
0000
0001
0000
0010
0000
0000
0100
0000
0000
1000
0000
0100
0000
0000
0000
,
1000
0010
0100
0000
0001
0100
0010
0000
,
0000
0000
1000
0000
0001
0000
0000
0100
0000
0000
0001
0000
0010
0000
0000
0000
,
0100
0010
0001
0000
0010
0100
1000
0000
,
0000
0000
0100
0000
1000
0000
0000
0010
0000
0000
0100
0000
0001
0000
0000
0000
,
1000
0001
0100
0000
0001
0010
0100
0000
,
1000
0100
1000
0000
0010
0000
0101
0000
,
1010
0000
0000
0001
,
0100
0001
0010
0001
,
0100
0010
1000
0100
,
1000
0000
0010
0000
1000
0001
1001
0000
,
1001
0000
0000
0000
1000
0001
0010
0000
,
0001
0000
0100
0000
0010
2000
0000
0000
,
0000
0000
0000
0000
3001
0020
0000
0000
,
0000
0000
0030
0100
1000
0002
0000
0000
,
0000
0003
0000
1001
,
1000
0000
0000
0000
0001
0000
0000
0000
1000
0000
0000
0000
0001
0000
0000
1000
,
0001
0000
1000
0000
0001
0000
0000
0000
0010
0000
0000
0000
0001
0000
0000
1000
,
0001
0000
1000
0000
0001
0000
0000
0000
0010
0000
0000
0000
0001
0000
0000
1000
,
0001
1000
0001
0000
0010
0000
0001
0000
,
0100
0000
0000
0000
0010
0000
0000
0000
1000
0000
0000
0000
0001
0000
0000
0100
,
0001
0000
0100
0000
0010
0000
0000
0000
1000
0000
0000
0000
0001
0000
0000
0100
,
0001
0000
0100
0000
0010
0000
0000
0000
1000
0000
0000
0000
0001
0000
0000
0100
,
0001
0000
0100
0000
0010
0000
0000
0000
1000
0000
0000
0000
1001
0000
0000
1000
,
0000
0000
0100
0000
0110
0000
0000
0010
0000
0000
0001
0000
0011
0000
0000
0000
,
0000
0000
0001
0000
0101
0000
0000
0100
0000
0000
0001
0000
0101
0000
0000
0100
,
0000
0000
0001
0000
1001
0000
0000
1000
0000
0000
0010
0000
1010
0000
0000
1000
,
0000
0000
0010
0000
0200
0000
0000
0000
0301
0000
0000
0000
0011
0000
0000
0010
,
0000
0000
0001
0000
1001
0000
0000
1000
0000
0000
0010
0000
0110
0000
0000
0000
,
0000
0000
0100
0000
0110
0000
0000
0010
0000
0000
1000
0000
1100
0000
0000
0100
,
0000
0000
0010
0000
0011
0000
0000
0010
0000
0000
0001
0000
1001
0000
0000
0000
,
0000
2000
0000
0000
3010
1000
0100
0000
,
0010
0000
0001
0000
0100
0000
0000
0000
0010
0000
1000
0000
0100
0000
0000
0010
,
0001
0000
0100
0000
0010
0000
0000
1000
0000
0000
0001
0000
0010
0000
0000
0001
,
0100
0000
0010
0000
1000
0000
0000
0000
0010
0000
0000
0000
0100
0000
0000
0010
,
1000
0000
0001
0000
0010
0000
0000
0001
0000
0000
0100
0000
0010
0000
0000
0000
,
1000
0000
0001
0000
0010
0000
0000
0000
0001
0000
0100
0000
0010
0000
0000
1000
,
0001
0000
0100
0000
0001
0000
0000
0010
0000
0000
0001
0000
0100
0000
0000
0010
,
1000
0000
0100
0000
0010
0000
0000
0000
0100
0000
0000
0000
1000
0000
0000
0001
,
0100
0001
0020
0000
0000
0030
0000
0000
;

//---------------dance-single - ----------------
#NOTES:
     dance-single:
     :
     Medium:
     5:
     0.339037,0.396181,0.321539,0.122491,0.000000,310.000000,268.000000,42.000000,16.000000,0.000000,0.000000,0.339037,0.396181,0.321539,0.122491,0.000000,310.000000,268.000000,42.000000,16.000000,0.000000,0.000000:
0000
0000
0000
0000
,
0000
0000
0000
0000
,
0000
0000
0000
0000
,
0000
0000
0000
1000
,
0001
0100
0100
0001
,
1000
0010
0010
1000
,
0001
0010
0010
0001
,
1000
0001
0101
0000
0001
0000
1000
0000
,
0001
0100
0001
0100
,
0010
1000
0100
1000
,
0001
1000
0010
1000
,
0001
0010
0011
0000
0000
0000
0002
0000
,
0003
2000
3000
0020
,
0030
0100
0010
2000
,
3000
0002
0003
0020
,
0030
0100
0000
0010
,
0001
0010
0001
0100
,
0010
0000
1000
0000
0010
0200
0000
0300
,
0010
0200
0000
0300
0010
0200
0000
0300
,
0010
0200
0000
0000
0300
0000
1001
0000
,
0001
0011
0001
1001
,
1000
1010
0010
1010
,
1000
0110
0100
0101
,
0000
0001
1000
1100
,
1000
1010
0010
0110
,
0000
0110
0100
0101
,
0001
0011
0010
0110
,
0100
0000
1000
0000
0001
1000
0001
0000
,
1000
0001
1000
0000
0001
1000
0001
0000
,
1000
0000
0010
0000
0100
0001
0100
0000
,
0001
0100
0001
0000
0100
0001
0100
0000
,
0001
0000
1000
0000
0010
0100
0010
0000
,
0100
0010
0100
0000
0010
0100
0010
0000
,
1000
0000
0100
0000
1000
0001
1000
0000
,
0001
1000
0001
0000
1000
0001
1000
0000
,
0001
0100
0001
0011
,
0021
0000
0030
0100
,
1000
0001
1000
0010
,
1000
0100
0010
0100
1000
0002
0000
0000
,
0000
0000
0003
0000
1000
0001
0101
0000
,
0101
0000
0000
0000
0001
0100
0010
0000
,
1000
0000
0001
0010
0100
2000
0000
0000
,
0000
0000
0000
0000
3001
0200
0000
0000
,
0000
0000
0300
0010
0100
0002
0000
0000
,
0000
0000
0003
1000
,
1000
1000
0001
1000
,
0001
1000
0110
1000
,
0001
1000
0110
1000
,
0001
1000
0110
0100
,
0100
0100
0010
0100
,
0010
0100
1001
0100
,
0010
0100
1001
0010
,
0100
0010
1001
0101
,
0001
0011
0010
1100
,
0000
1001
0001
1001
,
1000
1010
0010
0110
,
0100
0101
1010
1001
,
0001
0011
0001
1001
,
0000
1010
0010
0110
,
0100
0101
0001
0011
,
0010
0000
0100
0000
1000
0100
1000
0000
,
0100
0010
0100
0000
0010
0001
0010
0000
,
0001
0000
1000
0000
0010
0100
0010
0000
,
0100
0001
0100
0000
0001
0010
0001
0000
,
1000
0000
0100
0000
1000
0010
0100
0000
,
0010
1000
0001
0000
0010
0100
1000
0000
,
0100
0000
1000
0000
0010
0100
0001
0000
,
1000
0001
0010
0000
0001
0010
0100
0000
,
0010
0000
0001
0000
0100
0020
0000
0000
,
0030
0000
0000
0000
;

//---------------dance-single - ----------------
#NOTES:
     dance-single:
     :
     Easy:
     3:
     0.242794,0.343357,0.168425,0.107180,0.000000,222.000000,200.000000,22.000000,14.000000,0.000000,0.000000,0.242794,0.343357,0.168425,0.107180,0.000000,222.000000,200.000000,22.000000,14.000000,0.000000,0.000000:
0000
0000
0000
0000
,
0000
0000
0000
0000
,
0000
0000
0000
0000
,
0000
0000
0000
0001
,
1000
0010
1000
0001
,
1000
0001
0010
0001
,
1000
0001
0100
0001
,
1000
0110
0000
1000
,
0010
0100
0100
0010
,
0100
0001
0001
0010
,
0001
1000
1000
0001
,
1000
0110
0000
2000
,
0000
0000
3000
0002
,
0000
0000
0003
0200
,
0000
0000
0300
0020
,
0000
0000
0030
1000
,
0000
0010
0000
0100
,
0000
0001
0000
1000
,
0000
1000
0000
1000
,
0000
1000
0000
1001
,
0001
0010
0001
0100
,
0000
1010
1000
1010
,
0010
1000
0001
0010
,
0000
0200
0320
0031
,
1000
0010
1000
0001
,
0000
0011
0010
0011
,
0001
0101
0001
1001
,
0000
0000
1000
0010
,
1000
0001
1000
0100
,
0000
0010
0001
0100
,
0001
1000
0001
0010
,
0000
0100
0010
0001
,
0010
0100
0010
1000
,
0000
1000
0010
0100
,
1000
0100
0001
0100
,
0000
0000
0000
0010
,
0020
0000
0030
0001
,
1000
0001
0100
0001
,
0010
0100
1000
0100
,
0000
0000
1000
0002
,
0200
0303
0001
1000
,
0100
0010
0100
2000
,
0000
0000
0000
0002
,
0000
0000
0000
3003
,
0000
0000
0000
0010
,
0000
0010
0000
0010
,
0100
0010
0010
0100
,
0010
0100
0100
0010
,
0100
0010
0010
1000
,
0000
0001
0000
1000
,
0001
1000
1000
0001
,
1000
0001
0001
1000
,
0001
1000
1000
1001
,
0001
0101
0100
0110
,
0000
1010
1000
1010
,
0010
0110
0100
0101
,
0000
0002
2003
3100
,
1000
1010
0010
0110
,
0000
0101
0001
0011
,
0010
0110
0100
1001
,
0000
0000
0001
0010
,
0001
1000
0100
1000
,
0000
0010
0100
0001
,
0010
0001
1000
0100
,
0000
1000
0010
0100
,
0001
0100
0010
1000
,
0000
0100
1000
0010
,
0100
0001
0010
0100
,
0010
0000
0001
0000
0000
0200
0000
0000
,
0300
0000
0000
0000
;

//---------------dance-single - ----------------
#NOTES:
     dance-single:
     :
     Beginner:
     1:
     0.091868,0.181535,0.022967,0.000000,0.000000,84.000000,81.000000,3.000000,0.000000,0.000000,0.000000,0.091868,0.181535,0.022967,0.000000,0.000000,84.000000,81.000000,3.000000,0.000000,0.000000,0.000000:
0000
0000
0000
0000
,
0000
0000
0000
0000
,
0000
0000
0000
0000
,
0000
0000
0000
0010
,
0000
0000
0000
1000
,
0000
1000
0000
1000
,
0000
0000
0000
0100
,
0000
0000
1000
1000
,
0000
0000
0000
0001
,
0000
0001
0000
0001
,
0000
0000
0000
0010
,
0000
0000
0000
0100
,
0000
0000
0000
0000
,
0000
0000
0000
0010
,
0000
0000
0000
0000
,
0000
0000
0000
1000
,
0000
0000
0000
0001
,
0000
0000
0000
0100
,
0000
0100
0000
0100
,
0000
0000
0000
0010
,
0000
0000
0000
0010
,
0000
0000
0000
1000
,
0000
0000
0000
0010
,
0000
0100
0100
0100
,
0000
0000
0000
0001
,
0000
0000
0000
1000
,
0000
0000
0000
0010
,
0000
0000
0000
0100
,
0000
0100
0000
0100
,
0000
0000
0000
0010
,
0000
0010
0000
0010
,
0000
0000
0000
1000
,
0000
1000
0000
1000
,
0000
0000
0000
0001
,
0000
0001
0000
0001
,
0000
0000
0000
0100
,
0100
0000
0000
0010
,
0000
0000
0000
0000
,
1000
0000
0000
0000
,
0000
0000
0000
0001
,
0001
0000
0000
0010
,
0000
0000
0000
0100
,
0000
0000
0000
0100
,
0000
0000
0000
1000
,
0000
0000
0000
1001
,
0000
0000
0000
0000
,
0000
0000
0000
0000
,
0000
0000
0000
0000
,
0000
0000
0000
0010
,
0000
0000
0000
0100
,
0000
0000
0000
0001
,
0000
0000
0000
1000
,
0000
0000
0000
0010
,
0000
0010
0000
1001
,
0000
0000
0000
1000
,
0000
1000
0000
1001
,
0000
0001
0001
0001
,
0000
0100
0000
0010
,
0000
0000
0000
0010
,
0000
1000
0000
0001
,
0000
0000
0000
0100
,
0000
0100
0000
0100
,
0000
0000
0000
0010
,
0000
0010
0000
0010
,
0000
0000
0000
1000
,
0000
1000
0000
1000
,
0000
0000
0000
0001
,
0000
0001
0000
0001
;

//---------------dance-single - ----------------
#NOTES:
     dance-single:
     :
     Challenge:
     8:
     0.465903,0.607478,0.290916,0.336850,0.206703,426.000000,388.000000,38.000000,44.000000,0.000000,0.000000,0.465903,0.607478,0.290916,0.336850,0.206703,426.000000,388.000000,38.000000,44.000000,0.000000,0.000000:
// measure 0
0000
0000
0000
0000
,  // measure 1
0000
0000
0000
0000
,  // measure 2
0000
0000
0000
0000
,  // measure 3
0000
0000
0000
0000
0000
0000
0000
0000
1000
0000
0001
0010
0100
0000
0000
1100
,  // measure 4
0000
0000
0100
0000
1000
0000
0010
0000
0010
0100
0010
1000
0001
0000
0000
1000
,  // measure 5
0000
0000
0100
0000
0010
0000
0010
0000
0100
0000
1000
0000
0001
0000
0000
1000
,  // measure 6
0000
0010
0100
0100
0001
0010
0001
0000
,  // measure 7
1000
0001
0100
0000
1010
0000
1000
0000
0001
0000
0010
0001
0000
0001
1000
0000
,  // measure 8
0000
0000
0010
0000
0100
0000
0010
0000
0010
1000
0100
1000
0001
0000
0000
1000
,  // measure 9
0000
0000
0010
0000
0100
0000
0100
0000
0010
0000
1000
0000
0001
0000
0000
0010
,  // measure 10
0000
0001
1000
1000
0100
1000
0010
0000
,  // measure 11
0100
0010
1000
0000
1001
0000
0000
1000
0010
0000
0100
0000
0001
0000
0010
0000
,  // measure 12
0001
0010
0001
0010
0001
0010
0001
0010
,  // measure 13
0001
0010
0002
0000
2003
0000
3100
1000
,  // measure 14
0100
1000
0100
1000
0100
1000
0100
1000
,  // measure 15
0100
1000
0200
0000
0300
0000
1000
0001
,  // measure 16
0010
0001
1000
0010
1000
0001
0010
0001
,  // measure 17
1000
0010
1000
0100
1000
0020
0000
0000
,  // measure 18
1030
0020
0000
0000
0031
0020
0000
0000
,  // measure 19
1030
0000
0020
0000
0000
0000
0000
0000
0000
0000
0030
0000
1001
0000
0000
1000
,  // measure 20
0000
0000
0001
0000
0011
0000
0000
0001
0000
0000
1000
0000
1200
0000
0000
0000
,  // measure 21
0300
0000
1000
0000
1010
0000
0000
0010
0000
0000
0100
0000
1010
0000
0000
0010
,  // measure 22
0000
0000
0100
0000
0101
0000
0000
0001
0000
0000
0010
0000
0210
0000
0000
0000
,  // measure 23
0300
0000
0000
0000
0020
0000
0000
0000
0002
0000
0000
0033
1100
0000
0000
0100
,  // measure 24
0000
0000
0010
0000
0110
0000
0000
0010
0000
0000
0001
0000
0201
0000
0000
0000
,  // measure 25
0300
0000
0010
0000
1010
0000
0000
1000
0000
0000
0001
0000
0011
0000
0000
0001
,  // measure 26
0000
0000
1000
0000
1100
0000
0000
0100
0000
0000
0010
0000
0210
0000
0000
0000
,  // measure 27
0000
2000
0000
3300
1000
0100
0001
0000
,  // measure 28
0001
0100
1000
0000
1000
0100
0001
0000
,  // measure 29
0001
0000
0100
0000
0010
0000
0000
0001
0000
0000
0100
0000
1000
0000
0000
0000
,  // measure 30
1000
0010
0001
0000
0001
0010
1000
0000
,  // measure 31
1000
0000
0010
0000
0100
0000
0000
0010
0000
0000
1000
0000
0100
0000
0000
0000
,  // measure 32
1000
0100
0001
0000
0001
0100
1000
0000
,  // measure 33
1000
0000
0100
0000
0010
0000
0000
0100
0000
0000
0010
0000
0001
0000
0000
0000
,  // measure 34
0001
0010
1000
0000
1000
0010
0001
0000
,  // measure 35
1000
0001
0200
0000
0320
0000
1030
0000
,  // measure 36
2200
0000
0000
0000
3300
0000
1000
0100
,  // measure 37
1000
0010
0100
0001
0010
0200
0000
0000
,  // measure 38
0310
0100
1000
0001
1000
0200
0000
0000
,  // measure 39
0000
0000
0000
0300
0100
0010
0011
0000
,  // measure 40
2200
0000
3300
0000
0100
0010
0001
0000
,  // measure 41
0010
1000
0010
0001
0100
0020
0000
0000
,  // measure 42
0000
0000
0000
0030
2000
0020
0000
0000
,  // measure 43
3000
0000
0030
0100
0010
2000
0000
0000
,  // measure 44
0000
0000
0000
3000
0000
0000
0101
0000
,  // measure 45
0100
0000
0000
0000
0010
0000
0000
0000
0100
0000
0000
0000
0010
0000
0000
0100
,  // measure 46
0010
0000
0100
0000
0010
0000
0000
0000
0100
0000
0000
0000
0010
0000
0000
1000
,  // measure 47
0010
0000
0100
0000
0001
0000
0000
0000
0010
0000
0000
0000
0100
0000
0000
1000
,  // measure 48
0100
0010
0001
0000
0010
0000
0001
1000
,  // measure 49
0010
1000
0001
1000
0010
1000
0001
1000
,  // measure 50
0010
1000
0001
1000
0010
1000
0001
0100
,  // measure 51
0001
0000
1000
0000
0100
0000
1000
0000
0001
0000
0100
0000
0010
0100
0010
0100
,  // measure 52
0010
0100
0010
0100
0010
0100
0010
0100
0002
0000
0000
0003
0011
0000
0000
0001
,  // measure 53
0000
0000
1000
0000
1010
0000
0000
0010
0000
0000
0100
0000
2001
0000
0000
0000
,  // measure 54
0000
0000
3001
0000
0101
0000
0000
0100
0000
0000
0010
0000
0101
0000
0000
0100
,  // measure 55
0000
0000
0010
0000
1010
0000
0000
0010
0000
0000
0100
0000
1001
0000
0000
0001
,  // measure 56
0000
0000
0100
0000
0102
0000
0000
0000
0020
0000
0000
0033
1100
0000
0000
0100
,  // measure 57
0000
0000
0010
0000
0011
0000
0000
0001
0000
0000
1000
0000
1010
0000
0000
0000
,  // measure 58
0000
0000
0100
0000
1100
0000
0000
1000
0000
0000
0010
0000
1010
0000
0000
0010
,  // measure 59
0000
0000
0100
0000
0101
0000
0000
0001
0000
0000
0010
0000
0021
0000
0000
0000
,  // measure 60
0000
0200
0030
0000
0310
0001
1000
0000
,  // measure 61
0010
0000
0100
0000
0001
0000
0000
0000
0100
0000
0010
0000
1000
0000
0000
0001
,  // measure 62
0010
0000
0001
0000
2000
0000
0000
3020
0000
0000
0130
0000
0101
0000
0000
0001
,  // measure 63
0100
0000
0010
0000
2000
0000
0000
0000
3200
0000
0000
0000
1300
0000
0000
0100
,  // measure 64
1000
0010
0200
0000
0301
0010
0100
0000
,  // measure 65
0100
0000
1000
0000
0010
0000
0000
0000
0100
0000
0010
0000
1000
0000
0000
0001
,  // measure 66
0010
0000
0001
0000
2000
0000
0000
0000
3020
0000
0000
0000
0130
0000
0000
0010
,  // measure 67
1000
0010
0200
0000
0302
0000
0013
0100
,  // measure 68
1000
0020
0000
0000
0030
2002
0000
0000
,  // measure 69
3003
0000
0000
0000
;
