#TITLE:TOGAKUSHI;
#SUBTITLE:;
#ARTIST:SETUP;
#TITLETRANSLIT:;
#SUBTITLETRANSLIT:;
#ARTISTTRANSLIT:;
#GENRE:;
#CREDIT:;
#BANNER:TOGAKUSHI.png;
#BACKGROUND:TOGAKUSHI-bg.png;
#LYRICSPATH:;
#CDTITLE:;
#MUSIC:TOGAKUSHI.ogg;
#OFFSET:0.222000;
#SAMPLESTART:32.937893;
#SAMPLELENGTH:12.631580;
#SELECTABLE:YES;
#BPMS:0.000000=152.000000
;
#STOPS:
;
#BGCHANGES:;
#KEYSOUNDS:;
#ATTACKS:;

//---------------dance-single - ----------------
#NOTES:
     dance-single:
     :
     Hard:
     9:
     0.523730,0.751759,0.107100,1.268722,0.280107,445.000000,432.000000,13.000000,154.000000,0.000000,0.000000,0.523730,0.751759,0.107100,1.268722,0.280107,445.000000,432.000000,13.000000,154.000000,0.000000,0.000000:
// measure 0
0000
0000
0000
0000
,  // measure 1
0000
0000
0000
0000
,  // measure 2
0000
0000
0000
0000
,  // measure 3
0000
0000
0000
0000
,  // measure 4
0000
0000
0000
0000
,  // measure 5
0001
0000
0000
1000
0100
0000
1000
0000
0020
0000
0000
0000
0130
0000
0000
0000
,  // measure 6
0001
0000
0000
1000
0100
0000
1000
0000
0002
0000
0000
0000
0103
0000
0000
0000
,  // measure 7
0001
0000
0000
0010
0100
0000
0010
0000
0200
0000
0000
0000
1300
0000
0000
0000
,  // measure 8
0001
1000
0100
0001
0100
0010
0001
1000
,  // measure 9
0010
0000
0000
0100
0001
0000
0010
0000
0002
0000
0000
0000
1003
0000
0000
0000
,  // measure 10
0100
0000
0000
0010
0100
0000
1000
0000
0020
0000
0000
0000
0130
0000
0000
0000
,  // measure 11
0001
0000
0000
0010
0001
0000
1000
0000
0002
0000
0000
0000
0103
0000
0000
0000
,  // measure 12
0001
0100
0010
1000
0001
0100
0010
1000
,  // measure 13
0001
0010
0001
0010
0001
0010
0001
0010
,  // measure 14
0001
0010
0100
1000
0100
1000
0010
1000
,  // measure 15
0001
0100
0001
0100
0001
0100
0001
0100
,  // measure 16
0001
0100
0010
1000
0100
0001
0100
0010
,  // measure 17
0001
0000
0100
0000
1000
0000
0100
0000
0010
0000
1000
0000
0001
1000
0001
0000
,  // measure 18
1000
0000
0010
0000
1000
0000
0001
0000
0100
0001
0000
0001
1000
0000
0100
0000
,  // measure 19
0010
0000
0100
0000
1000
0000
0001
0000
0100
0010
0100
0010
1000
0001
1000
0001
,  // measure 20
0020
0000
0130
1000
0020
0000
0130
0000
0001
1000
0200
0000
0310
0000
0000
0000
,  // measure 21
0001
0000
0000
1000
0001
0000
1000
0000
0200
0000
0000
0000
0310
0000
0000
0000
,  // measure 22
0001
0000
0000
1000
0010
0000
0100
0000
0002
0000
0000
0000
0013
0000
0000
0000
,  // measure 23
0100
0000
0000
0010
0100
0000
1000
0000
0020
0000
0000
0000
0130
0000
0000
0000
,  // measure 24
0010
0000
0000
1000
0010
0000
1000
0000
0002
0000
0000
0000
0013
0000
0000
0000
,  // measure 25
0100
0000
1000
0000
0010
0000
0100
0000
0001
0000
0010
0100
1000
0000
0010
0000
,  // measure 26
0100
0000
1000
0000
0001
0000
0100
0000
0010
1000
0000
1000
0010
0000
0001
0000
,  // measure 27
0010
0000
0100
0000
0001
0000
1000
0000
0100
0010
0100
0010
0100
1000
0001
1000
,  // measure 28
0001
0000
1000
0000
0010
0000
1000
0000
0001
0010
0001
0010
0100
1000
0100
4000
,  // measure 29
0004
0000
0000
0000
,  // measure 30
0000
0000
0000
0000
,  // measure 31
0000
0000
0000
0000
,  // measure 32
0000
0000
0000
3003
,  // measure 33
0002
0200
0003
0302
2000
0003
3200
0320
,  // measure 34
0200
0000
0000
0000
0000
0000
0000
0030
0320
0000
0000
0000
0000
0000
0000
0000
0000
0000
0000
0000
0000
0000
0000
0000
0032
0000
0000
0000
0000
0000
0000
0000
0200
0000
0000
0000
0000
0000
0000
0000
0003
0000
0000
0000
0000
0000
0000
0000
0320
0000
0000
0000
0000
0000
0000
0000
2030
0000
0000
0000
0000
0000
0000
0000
,  // measure 35
3002
0200
0003
0302
2000
0003
3002
0023
,  // measure 36
0200
0000
0000
0000
0000
0000
0000
0030
0020
0000
0000
0000
0000
0000
0000
0000
0300
0000
0000
0000
0000
0000
0000
0000
0230
0000
0000
0000
0000
0000
0000
0000
2000
0000
0000
0000
0000
0000
0000
0000
0300
0000
0000
0000
0000
0000
0000
0000
3002
0000
0000
0000
0000
0000
0000
0000
2003
0000
0000
0000
0000
0000
0000
0000
,  // measure 37
0000
0000
0000
0000
,  // measure 38
3020
0000
0000
0000
0000
0000
0000
0000
0000
0000
0000
0000
0000
0000
0130
0001
,  // measure 39
0020
0000
0000
0000
0000
0000
0000
0000
0000
0000
0000
0000
0000
0000
0000
0000
0000
0000
0000
0000
0000
0000
0000
0000
0000
0000
0000
0000
0000
0000
0000
0000
0000
0000
0000
0000
0000
0000
0000
0000
0000
0000
0000
0000
0000
0000
0000
0030
0020
0000
0000
0000
0000
0000
0000
0000
0000
0000
0000
0000
0000
0000
0000
0000
0000
0000
0000
0000
0000
0000
0000
0000
0000
0000
0000
0000
0000
0000
0000
0000
0000
0000
0000
0000
0000
0000
0000
0000
0000
0000
0000
0000
0000
0000
0000
0030
0020
0000
0000
0000
0000
0000
0000
0000
0000
0000
0000
0000
0000
0000
0000
0000
0000
0000
0000
0000
0000
0000
0000
0000
0000
0000
0000
0000
0000
0000
0000
0000
0000
0000
0000
0000
0000
0000
0000
0000
0000
0000
0000
0000
0000
0000
0000
0030
0020
0000
0000
0000
0000
0000
0000
0000
0000
0000
0000
0000
0000
0000
0000
0000
0000
0000
0000
0000
0000
0000
0000
0000
0000
0000
0000
0000
0000
0000
0000
0000
0000
0000
0000
0000
0000
0000
0000
0000
0000
0000
0000
0000
0000
0000
0000
0000
,  // measure 40
0230
0000
0000
0000
0000
0000
0000
0000
0000
0000
0000
0000
0000
0000
0000
0000
0000
0000
0000
0000
0000
0000
0000
0000
0000
0000
0000
0000
0000
0000
0000
0000
0000
0000
0000
0000
0000
0000
0000
0000
0000
0000
0000
0000
0000
0000
0000
0300
0200
0000
0000
0000
0000
0000
0000
0000
0000
0000
0000
0000
0000
0000
0000
0000
0000
0000
0000
0000
0000
0000
0000
0000
0000
0000
0000
0000
0000
0000
0000
0000
0000
0000
0000
0000
0020
0000
0000
0000
0000
0000
0000
0000
0000
0000
0000
0300
0200
0000
0000
0000
0000
0000
0000
0000
0000
0000
0000
0000
0000
0000
0000
0000
0000
0000
0000
0000
0000
0000
0300
0000
0200
0000
0000
0000
0000
0000
0000
0000
0000
0000
0000
0000
0000
0000
0000
0000
0000
0000
0000
0000
0000
0000
0030
0000
0020
0000
0000
0000
0000
0000
0000
0000
0000
0000
0000
0000
0000
0000
0000
0000
0000
0000
0000
0000
0000
0000
0000
0000
0000
0000
0000
0000
0000
0000
0000
0000
0000
0000
0000
0000
0300
0000
0000
0000
0000
0000
0000
0000
0000
0000
0000
0000
,  // measure 41
0031
0000
0000
0000
0000
0000
0000
0000
0000
0000
0000
0000
0000
0000
0000
0000
0000
0000
0000
0000
0000
0000
0000
0000
0100
0000
0000
0000
0000
0000
0000
0000
0000
0000
0000
0000
0000
0000
0000
0000
0000
0000
0000
0000
0000
0000
0000
0000
1000
0000
0000
0000
0000
0000
0000
0000
0000
0000
0000
0000
0000
0000
0000
0000
0000
0000
0000
0000
0000
0000
0000
0000
0200
0000
0000
0000
0000
0000
0000
0000
0000
0000
0000
0000
0000
0000
0000
0000
0000
0000
0000
0000
0000
0000
0000
0000
0000
0000
0000
0000
0000
0000
0000
0000
0000
0000
0000
0000
0000
0000
0000
0000
0000
0000
0000
0000
0000
0000
0000
0300
0200
0000
0000
0000
0000
0000
0000
0000
0000
0000
0000
0000
0000
0000
0000
0000
0000
0000
0000
0000
0000
0000
0000
0000
0301
0000
0000
0000
0000
0000
0000
0000
0000
0000
0000
0000
0000
0000
0000
0000
0000
0000
0000
0000
0000
0000
0000
0000
0002
0000
0000
0000
0000
0000
0000
0000
0000
0000
0000
0000
0000
0000
0000
0000
0000
0000
0000
0000
0000
0000
0000
0000
,  // measure 42
0023
0000
0000
0000
0000
0000
0000
0000
2030
0000
0000
0000
0000
0000
0000
0000
3020
0000
0000
0000
0000
0000
0000
0000
0002
0000
0000
0000
0000
0000
0000
0000
0000
0000
0000
0000
0000
0000
0000
0003
0032
0000
0000
0000
0000
0000
0000
0000
0023
0000
0000
0000
0000
0000
0000
0000
0230
0000
0000
0000
0000
0000
0000
0000
,  // measure 43
1300
0000
0000
0000
0000
0000
0000
0000
0000
0000
0000
0000
0000
0000
0000
0000
0000
0000
0000
0000
0000
0000
0000
0000
0100
0000
0000
0000
0000
0000
0000
0000
0000
0000
0000
0000
0000
0000
0000
0000
0000
0000
0000
0000
0000
0000
0000
0000
0001
0000
0000
0000
0000
0000
0000
0000
0000
0000
0000
0000
0000
0000
0000
0000
0000
0000
0000
0000
0000
0000
0000
0000
0200
0000
0000
0000
0000
0000
0000
0000
0000
0000
0000
0000
0000
0000
0000
0000
0000
0000
0000
0000
0000
0000
0000
0000
0000
0000
0000
0000
0000
0000
0000
0000
0000
0000
0000
0000
0000
0000
0000
0000
0000
0000
0000
0000
0000
0000
0000
0300
0200
0000
0000
0000
0000
0000
0000
0000
0000
0000
0000
0000
0000
0000
0000
0000
0000
0000
0000
0000
0000
0000
0000
0000
0320
0000
0000
0000
0000
0000
0000
0000
0000
0000
0000
0000
0000
0000
0000
0000
0000
0000
0000
0000
0000
0000
0000
0000
0032
0000
0000
0000
0000
0000
0000
0000
0000
0000
0000
0000
0000
0000
0000
0000
0000
0000
0000
0000
0000
0000
0000
0000
,  // measure 44
0023
0000
0000
0000
0000
0000
0000
0000
0000
0000
0000
0000
0000
0000
0000
0000
0000
0000
0000
0000
0000
0000
0000
0000
0230
0000
0000
0000
0000
0000
0000
0000
0000
0000
0000
0000
0000
0000
0000
0000
0000
0000
0000
0000
0000
0000
0000
0000
2300
0000
0000
0000
0000
0000
0000
0000
0000
0000
0000
0000
0000
0000
0000
0000
0000
0000
0000
0000
0000
0000
0000
0000
0020
0000
0000
0000
0000
0000
0000
0000
0000
0000
0000
0000
0000
0000
0000
0000
0000
0000
0000
0000
0000
0000
0000
0000
0000
0000
0000
0000
0000
0000
0000
0000
0000
0000
0000
0000
0000
0000
0000
0000
0000
0000
0000
0000
0000
0000
0000
0030
3020
0000
0000
0000
0000
0000
0000
0000
0000
0000
0000
0000
0000
0000
0000
0000
0000
0000
0000
0000
0000
0000
0000
0000
2030
0000
0000
0000
0000
0000
0000
0000
0000
0000
0000
0000
0000
0000
0000
0000
0000
0000
0000
0000
0000
0000
0000
0000
0002
0000
0000
0000
0000
0000
0000
0000
0000
0000
0000
0000
0000
0000
0000
0000
0000
0000
0000
0000
0000
0000
0000
0000
,  // measure 45
0000
0000
0000
0000
,  // measure 46
0000
0000
0000
0000
0000
0000
0000
0000
3000
0000
0000
0000
0000
0000
1003
0001
,  // measure 47
0200
0000
0000
0000
0000
0000
0000
0000
0000
0000
0000
0000
0000
0000
0000
0300
0200
0000
0000
0000
0000
0000
0000
0000
0000
0000
0000
0000
0000
0000
0000
0300
0200
0000
0000
0000
0000
0000
0000
0000
0000
0000
0000
0000
0000
0000
0000
0300
0200
0000
0000
0000
0000
0000
0000
0000
0000
0000
0000
0000
0000
0000
0000
0000
,  // measure 48
0320
0000
0000
0000
0000
0000
0000
0000
0000
0000
0000
0000
0000
0000
0000
0030
0020
0000
0000
0000
0000
0000
0000
0000
0000
0000
0000
0000
0200
0000
0000
0030
0020
0000
0000
0000
0000
0000
0000
0030
0020
0000
0000
0000
0300
0000
0000
0000
0230
0000
0000
0000
0000
0000
0000
0000
0300
0000
0000
0000
0000
0000
0000
0000
,  // measure 49
1002
0000
0000
0000
0000
0000
0000
0000
0000
0000
0000
0000
0000
0000
0000
0000
0000
0000
0000
0000
0000
0000
0000
0000
0000
0000
0000
0000
0000
0000
0000
0000
0000
0000
0000
0000
0000
0000
0000
0000
0000
0000
0000
0000
0000
0000
0000
0003
0102
0000
0000
0000
0000
0000
0000
0000
0000
0000
0000
0000
0000
0000
0000
0000
0000
0000
0000
0000
0000
0000
0000
0000
0000
0000
0000
0000
0000
0000
0000
0000
0000
0000
0000
0000
0000
0000
0000
0000
0000
0000
0000
0000
0000
0000
0000
0003
0012
0000
0000
0000
0000
0000
0000
0000
0000
0000
0000
0000
0000
0000
0000
0000
0000
0000
0000
0000
0000
0000
0000
0000
0000
0000
0000
0000
0000
0000
0000
0000
0000
0000
0000
0000
0000
0000
0000
0000
0000
0000
0000
0000
0000
0000
0000
0003
1002
0000
0000
0000
0000
0000
0000
0000
0000
0000
0000
0000
0000
0000
0000
0000
0000
0000
0000
0000
0000
0000
0000
0000
0000
0000
0000
0000
0000
0000
0000
0000
0000
0000
0000
0000
0000
0000
0000
0000
0000
0000
0000
0000
0000
0000
0000
0003
,  // measure 50
0102
0000
0000
0000
0000
0000
0000
0000
0000
0000
0000
0000
0000
0000
0000
0000
0000
0000
0000
0000
0000
0000
0000
0000
0000
0000
0000
0000
0000
0000
0000
0000
0000
0000
0000
0000
0000
0000
0000
0000
0000
0000
0000
0000
0000
0000
0000
0003
1002
0000
0000
0000
0000
0000
0000
0000
0000
0000
0000
0000
0000
0000
0000
0000
0000
0000
0000
0000
0000
0000
0000
0000
0000
0000
0000
0000
0000
0000
0000
0000
0000
0000
0000
0000
1003
0000
0000
0000
0000
0000
0000
0000
0000
0000
0000
0000
0010
0000
0000
0000
0000
0000
0000
0000
0000
0000
0000
0000
0000
0000
0000
0000
0000
0000
0000
0000
0000
0000
0000
0000
0010
0000
0000
0000
0000
0000
0000
0000
0000
0000
0000
0000
0000
0000
0000
0000
0000
0000
0000
0000
0000
0000
0000
0000
0200
0000
0000
0000
0000
0000
0000
0000
0000
0000
0000
0000
0000
0000
0000
0000
0000
0000
0000
0000
0000
0000
0000
0000
0300
0000
0000
0000
0000
0000
0000
0000
0000
0000
0000
0000
0010
0000
0000
0000
0000
0000
0000
0000
0000
0000
0000
0000
,  // measure 51
2000
0000
0000
0000
0000
0000
0000
0000
0000
0000
0000
0000
0000
0000
0000
0000
0000
0000
0000
0000
0000
0000
0000
0000
0000
0000
0000
0000
0000
0000
0000
0000
0000
0000
0000
0000
0000
0000
0000
0000
0000
0000
0000
0000
0000
0000
0000
3000
2001
0000
0000
0000
0000
0000
0000
0000
0000
0000
0000
0000
0000
0000
0000
0000
0000
0000
0000
0000
0000
0000
0000
0000
0000
0000
0000
0000
0000
0000
0000
0000
0000
0000
0000
0000
0000
0000
0000
0000
0000
0000
0000
0000
0000
0000
0000
3000
2100
0000
0000
0000
0000
0000
0000
0000
0000
0000
0000
0000
0000
0000
0000
0000
0000
0000
0000
0000
0000
0000
0000
0000
0000
0000
0000
0000
0000
0000
0000
0000
0000
0000
0000
0000
0000
0000
0000
0000
0000
0000
0000
0000
0000
0000
0000
3000
2001
0000
0000
0000
0000
0000
0000
0000
0000
0000
0000
0000
0000
0000
0000
0000
0000
0000
0000
0000
0000
0000
0000
0000
0000
0000
0000
0000
0000
0000
0000
0000
0000
0000
0000
0000
0010
0000
0000
0000
0000
0000
0000
0000
0000
0000
0000
3000
,  // measure 52
2000
0000
0000
0000
0000
0000
0000
0000
0000
0000
0000
0000
0000
0000
0000
0000
0000
0000
0000
0000
0000
0000
0000
0000
0000
0000
0000
0000
0000
0000
0000
0000
0000
0000
0000
0000
0000
0000
0000
0000
0000
0000
0000
0000
0000
0000
0000
3000
2001
0000
0000
0000
0000
0000
0000
0000
0000
0000
0000
0000
0000
0000
0000
0000
0000
0000
0000
0000
0000
0000
0000
0000
3001
0000
0000
0000
0000
0000
0000
0000
0000
0000
0000
0000
0010
0000
0000
0000
0000
0000
0000
0000
0000
0000
0000
0000
0001
0000
0000
0000
0000
0000
0000
0000
0000
0000
0000
0000
0000
0000
0000
0000
0000
0000
0000
0000
0000
0000
0000
0000
1000
0000
0000
0000
0000
0000
0000
0000
0000
0000
0000
0000
0000
0000
0000
0000
0000
0000
0000
0000
0000
0000
0000
0000
0020
0000
0000
0000
0000
0000
0000
0000
0000
0000
0000
0000
0000
0000
0000
0000
0000
0000
0000
0000
0000
0000
0000
0000
0000
0000
0000
0000
0000
0000
0000
0000
0000
0000
0000
0000
0130
0000
0000
0000
0000
0000
0000
0000
0000
0000
0000
0000
,  // measure 53
0002
0000
0000
1003
0002
0000
0000
1003
0100
0000
0010
0000
0200
0000
0000
1300
,  // measure 54
0020
0000
0000
0031
0020
0000
0000
0130
0020
0000
0130
0000
0002
0000
0000
0000
,  // measure 55
1003
0000
0100
0000
0001
0000
0100
0000
0220
0000
0000
0000
0000
0000
0000
0300
,  // measure 56
0030
0000
0000
1001
,  // measure 57
2000
3002
0013
0020
0230
1300
0002
0203
,  // measure 58
0320
2030
0100
3200
0320
0031
0002
0203
,  // measure 59
0320
2030
0001
3002
0023
0130
0020
0032
,  // measure 60
2003
3002
0100
0203
0320
1000
2030
3200
,  // measure 61
0010
0010
0010
0010
,  // measure 62
1000
0000
0000
0000
1000
0000
0000
0000
1000
0000
0000
0000
1300
0000
0001
1000
,  // measure 63
0020
0000
0000
0000
0000
0000
0000
0000
0000
0000
0000
0000
0000
0000
0000
0030
0020
0000
0000
0000
0000
0000
0000
0000
0000
0000
0000
0000
0000
0000
0000
0030
0020
0000
0000
0000
0000
0000
0000
0000
0000
0000
0000
0000
0000
0000
0000
0030
0020
0000
0000
0000
0000
0000
0000
0000
0000
0000
0000
0000
0000
0000
0000
0000
,  // measure 64
0200
0000
0000
0000
0000
0000
0000
0000
0000
0000
0000
0000
0000
0000
0000
0300
0200
0000
0000
0000
0000
0000
0000
0000
0000
0000
0000
0030
0020
0000
0000
0300
0200
0000
0000
0000
0000
0000
0000
0300
0200
0000
0000
0000
0000
0000
0000
0030
0320
0000
0000
0000
0000
0000
0000
0000
0000
0000
0000
0000
0000
0000
0000
0000
,  // measure 65
0230
0000
0000
0000
0000
0000
0301
0000
2000
0000
0000
0000
0000
3000
1000
0000
0002
0000
0000
0000
0000
0003
0001
0000
0200
0000
0000
0000
0000
0300
0100
0000
,  // measure 66
0020
0000
0000
0000
0000
0030
0010
0000
2000
0000
0000
0000
0000
3000
1000
0000
0001
0000
0000
0000
0001
0000
0000
0000
2000
0000
0000
0000
0000
0000
3001
0000
,  // measure 67
0020
0000
0000
0000
0000
0030
0010
0000
0200
0000
0000
0000
0000
0300
0100
0000
2000
0000
0000
0000
0000
3000
1000
0000
0020
0000
0000
0000
0000
0030
0010
0000
,  // measure 68
0200
0000
0000
0000
0000
0300
0100
0000
0002
0000
0000
0000
1003
0000
0001
0000
1000
0000
0000
0000
0100
0000
0000
0000
0020
0000
0000
0000
0000
0000
0000
0000
,  // measure 69
0130
0000
0000
0000
0000
0000
0000
0000
0010
0000
0000
0000
0001
0000
1000
0000
0001
0000
0000
0000
1000
0000
0000
0000
0020
0000
0000
0000
0000
0030
0010
0000
,  // measure 70
0200
0000
0000
0000
0310
0000
1000
0001
1000
0000
0010
0000
0200
0000
0000
0300
,  // measure 71
1001
0000
1000
0000
0010
0000
0100
0001
1000
0000
0001
0000
0010
0000
0001
1000
,  // measure 72
0010
0000
1000
0001
0010
0000
0001
1000
0100
0010
0100
0010
0002
0000
0000
0000
,  // measure 73
0003
0000
0000
0000
;

//---------------dance-single - ----------------
#NOTES:
     dance-single:
     :
     Medium:
     6:
     0.371907,0.539413,0.173008,0.601407,0.004119,316.000000,295.000000,21.000000,73.000000,0.000000,0.000000,0.371907,0.539413,0.173008,0.601407,0.004119,316.000000,295.000000,21.000000,73.000000,0.000000,0.000000:
// measure 0
0000
0000
0000
0000
,  // measure 1
0000
0000
0000
0000
,  // measure 2
0000
0000
0000
0000
,  // measure 3
0000
0000
0000
0000
,  // measure 4
0000
0000
0000
0000
,  // measure 5
1000
0000
0001
0100
0002
0000
1003
0000
,  // measure 6
0100
0000
1000
0010
2000
0000
3001
0000
,  // measure 7
0010
0000
0001
0100
0002
0000
1003
0000
,  // measure 8
0021
0130
1020
0130
,  // measure 9
1001
0000
0001
1000
0020
0000
0130
0000
,  // measure 10
1001
0000
1000
0001
0200
0000
0310
0000
,  // measure 11
1001
0000
0001
1000
0020
0000
0130
0000
,  // measure 12
0120
1030
0210
0301
,  // measure 13
1000
1000
1000
1000
,  // measure 14
0001
0100
0010
1000
0001
0100
0010
1000
,  // measure 15
0001
0001
0001
0001
,  // measure 16
1000
0100
0010
0001
0010
0100
0010
0001
,  // measure 17
1000
0010
0100
0000
0010
0100
0001
0000
,  // measure 18
1000
0100
0010
0000
0001
0010
1000
0000
,  // measure 19
1000
0010
0100
1000
0010
0001
0010
0100
,  // measure 20
2000
0000
3010
0200
0000
0301
1001
0000
,  // measure 21
0001
0000
0100
0010
2000
0000
3100
0000
,  // measure 22
0010
0000
0100
0010
0002
0000
1003
0000
,  // measure 23
0001
0000
1000
0100
0020
0000
0130
0000
,  // measure 24
1000
0000
0010
0100
0002
0000
1003
0000
,  // measure 25
0001
0100
0010
0000
0100
0010
1000
0000
,  // measure 26
0001
0010
0100
0000
0010
0001
0100
0000
,  // measure 27
0001
0100
0001
0100
0010
1000
0001
0010
,  // measure 28
0001
0100
0001
0100
0010
1000
0001
0010
,  // measure 29
2002
0000
0000
0000
,  // measure 30
0000
0000
0000
0000
,  // measure 31
0000
0000
0000
0000
,  // measure 32
0000
0000
0000
3003
,  // measure 33
1000
0020
0000
1030
0002
0000
1003
0200
,  // measure 34
0000
0000
0000
0000
,  // measure 35
1300
0020
0000
1030
0002
0000
1003
0200
,  // measure 36
0000
0000
0000
0000
0000
0000
0310
0002
,  // measure 37
0000
0000
0000
0000
,  // measure 38
2000
0000
0000
3003
,  // measure 39
0102
0100
0100
0103
,  // measure 40
2010
0000
0010
0000
0001
0001
3001
0000
,  // measure 41
1000
0010
0100
0002
0000
0103
0010
2000
,  // measure 42
0000
0000
0000
0000
0000
0000
0000
3000
,  // measure 43
0001
0010
0100
0020
0000
0130
0010
0002
,  // measure 44
0000
0000
0000
0000
0000
0000
0000
2000
,  // measure 45
0000
0000
0000
0000
,  // measure 46
0000
0000
0000
0000
0003
0000
0000
3000
,  // measure 47
2010
0010
0010
3010
,  // measure 48
0102
0000
0100
0000
1000
1000
1003
0000
,  // measure 49
0002
0023
0230
0320
,  // measure 50
0032
0000
0203
0000
0310
1000
0100
0000
,  // measure 51
2000
3020
0230
0302
,  // measure 52
0203
0000
0320
0000
1030
0001
0100
0000
,  // measure 53
0020
0000
2030
0000
3100
0010
0001
0000
,  // measure 54
0020
0000
0032
0000
0103
0010
1000
0000
,  // measure 55
0001
0000
0010
0000
1000
0000
0010
0000
0001
0000
0000
0000
0000
0000
0000
0200
,  // measure 56
0320
0030
0000
0000
0000
0000
0000
0000
0000
0000
0000
0000
1001
0000
0000
0000
,  // measure 57
0001
0200
0000
0310
2000
0000
3001
0020
,  // measure 58
0100
0100
0000
0001
0001
0000
0100
0130
,  // measure 59
0010
0002
0000
1003
0020
0000
0130
0002
,  // measure 60
1000
1000
0000
0100
0100
0000
1000
2003
,  // measure 61
0000
0000
0000
0000
,  // measure 62
0020
0000
0000
3030
,  // measure 63
0002
0203
0302
0203
,  // measure 64
0320
0000
2030
0000
3001
1000
0001
0000
,  // measure 65
0201
1000
0001
1000
,  // measure 66
0001
0000
1000
0000
0010
0010
0310
0000
,  // measure 67
0210
1000
0001
1000
,  // measure 68
0001
0000
1000
0000
0010
0010
0310
0000
,  // measure 69
0102
0000
1000
0000
0010
0010
0013
0000
,  // measure 70
2001
0000
0100
0000
0010
0010
3010
0000
,  // measure 71
1002
1000
1003
0000
2001
0001
3001
0000
,  // measure 72
1000
1000
0001
0001
0010
0100
1001
0000
;

//---------------dance-single - ----------------
#NOTES:
     dance-single:
     :
     Easy:
     5:
     0.289523,0.449511,0.140054,0.197723,0.000000,246.000000,229.000000,17.000000,24.000000,0.000000,0.000000,0.289523,0.449511,0.140054,0.197723,0.000000,246.000000,229.000000,17.000000,24.000000,0.000000,0.000000:
// measure 0
0000
0000
0000
0000
,  // measure 1
0000
0000
0000
0000
,  // measure 2
0000
0000
0000
0000
,  // measure 3
0000
0000
0000
0000
,  // measure 4
0000
0000
0000
0000
,  // measure 5
1000
0001
2000
3100
,  // measure 6
1000
0001
2000
3100
,  // measure 7
1000
0001
2000
3100
,  // measure 8
1000
0010
0100
0001
,  // measure 9
0100
0001
0020
0130
,  // measure 10
0010
0001
0200
0310
,  // measure 11
1000
0001
0020
0130
,  // measure 12
0010
0001
0200
0310
,  // measure 13
1000
1000
1000
1000
,  // measure 14
0100
0010
0001
0010
,  // measure 15
0100
0100
0100
0100
,  // measure 16
0010
0100
1000
0010
,  // measure 17
0100
0001
0010
0001
,  // measure 18
1000
0100
1000
0010
,  // measure 19
0100
0001
0100
0010
,  // measure 20
1001
0000
0000
0010
0000
0000
1001
0000
,  // measure 21
0001
1000
0020
1030
,  // measure 22
0100
1000
0002
0013
,  // measure 23
0100
1000
0200
1300
,  // measure 24
0010
0100
0002
0103
,  // measure 25
1010
0010
1001
0000
,  // measure 26
0011
0100
1100
0000
,  // measure 27
1001
0010
0110
0000
,  // measure 28
0110
0100
0110
0010
,  // measure 29
2002
0000
0000
0000
,  // measure 30
0000
0000
0000
0000
,  // measure 31
0000
0000
0000
0000
,  // measure 32
0000
0000
0000
3003
,  // measure 33
0001
0000
0000
0100
0000
0000
0020
0000
,  // measure 34
0000
0000
0000
0000
,  // measure 35
0130
0000
0000
0010
0000
0000
2000
0000
,  // measure 36
0000
0000
0000
0000
0000
0000
3001
0200
,  // measure 37
0000
0000
0000
0000
,  // measure 38
0020
0000
0000
0330
,  // measure 39
0100
0100
0100
0100
,  // measure 40
0001
0000
0001
0000
1000
0001
1000
0000
,  // measure 41
0010
0000
0000
1000
0000
0000
0200
0000
,  // measure 42
0010
0000
0000
0010
0000
0000
0310
0000
,  // measure 43
0001
0000
0000
0100
0000
0000
0020
0000
,  // measure 44
0100
0000
0000
0100
0000
0000
0200
0000
,  // measure 45
0000
0000
0000
0000
,  // measure 46
0000
0000
0000
0330
,  // measure 47
0010
0010
0010
0010
,  // measure 48
1000
0000
1000
0000
0001
1000
0001
0000
,  // measure 49
1000
1000
1000
1000
,  // measure 50
1000
0000
1000
0000
1000
0001
1000
0000
,  // measure 51
0001
0001
0001
0001
,  // measure 52
0001
0000
0001
0000
0001
0100
0001
0000
,  // measure 53
0100
0000
0010
0000
1000
0010
1000
0000
,  // measure 54
0010
0000
0100
0000
0001
0100
0001
0000
,  // measure 55
1000
0010
0100
0002
2000
0000
0000
0000
,  // measure 56
3003
0000
0000
0000
,  // measure 57
0001
0010
0001
1000
,  // measure 58
0100
1000
0010
1000
,  // measure 59
0001
0010
0001
0100
,  // measure 60
0010
0000
1000
0000
0100
0000
1000
0001
,  // measure 61
0020
0000
0000
0000
,  // measure 62
0200
0000
0000
0330
,  // measure 63
0010
0010
0010
0010
,  // measure 64
0100
0000
0100
0000
0010
0001
1000
0000
,  // measure 65
0001
0100
0001
0100
,  // measure 66
0001
0000
0100
0000
0001
0100
0001
0000
,  // measure 67
1000
0010
1000
0010
,  // measure 68
1000
0000
0010
0000
1000
0010
1000
0000
,  // measure 69
0001
0000
1000
0000
0010
0100
0010
0000
,  // measure 70
1000
0000
0001
0000
0100
0010
0100
0000
,  // measure 71
0110
0100
1001
0010
,  // measure 72
1001
0110
1001
0110
;

//---------------dance-single - ----------------
#NOTES:
     dance-single:
     :
     Beginner:
     1:
     0.129461,0.269706,0.065908,0.049431,0.000000,110.000000,102.000000,8.000000,6.000000,0.000000,0.000000,0.129461,0.269706,0.065908,0.049431,0.000000,110.000000,102.000000,8.000000,6.000000,0.000000,0.000000:
// measure 0
0000
0000
0000
0000
,  // measure 1
0000
0000
0000
0000
,  // measure 2
0000
0000
0000
0000
,  // measure 3
0000
0000
0000
0000
,  // measure 4
0000
0000
0000
0000
,  // measure 5
1000
0000
0000
0000
,  // measure 6
1000
0000
0000
0000
,  // measure 7
1000
0000
0000
0000
,  // measure 8
0010
0000
0100
0000
,  // measure 9
0001
0000
0000
0000
,  // measure 10
0001
0000
0000
0000
,  // measure 11
0001
0000
0000
0000
,  // measure 12
0010
0000
0100
0000
,  // measure 13
0010
0000
0000
0000
,  // measure 14
1000
0000
1000
0000
,  // measure 15
0001
0000
0000
0000
,  // measure 16
0100
0000
0100
0000
,  // measure 17
0010
0000
0000
0000
,  // measure 18
1000
0000
0000
0000
,  // measure 19
0001
0000
1000
0000
,  // measure 20
0110
0000
0000
0000
,  // measure 21
1000
1000
1000
0000
,  // measure 22
0001
0000
0001
0000
,  // measure 23
0100
0100
0100
0000
,  // measure 24
0010
0000
0010
0000
,  // measure 25
1000
1000
1000
0000
,  // measure 26
0100
0000
0100
0000
,  // measure 27
0010
0010
0010
0000
,  // measure 28
0001
0001
0001
0000
,  // measure 29
1001
0000
0000
0000
,  // measure 30
0000
0000
0000
0000
,  // measure 31
0000
0000
0000
0000
,  // measure 32
0000
0000
0000
0000
,  // measure 33
0010
0000
0000
0000
,  // measure 34
0000
0000
0000
0000
,  // measure 35
0010
0000
0000
0000
,  // measure 36
0000
0000
0000
0000
,  // measure 37
0100
0000
0000
0000
,  // measure 38
0000
0000
0000
0000
,  // measure 39
0001
0000
0001
0000
,  // measure 40
1000
0000
1000
1000
,  // measure 41
0010
0000
0000
0000
,  // measure 42
0100
0000
0000
0000
,  // measure 43
0010
0000
0000
0000
,  // measure 44
0100
0000
0000
0000
,  // measure 45
0000
0000
0000
0000
,  // measure 46
0000
0000
0000
0000
,  // measure 47
0010
0000
0010
0000
,  // measure 48
1000
0000
0001
0001
,  // measure 49
1000
0000
1000
0000
,  // measure 50
1000
0000
1000
1000
,  // measure 51
0001
0000
0001
0000
,  // measure 52
0001
0000
0001
0001
,  // measure 53
0100
0000
0000
0000
,  // measure 54
0010
0000
0000
0000
,  // measure 55
0100
0000
0010
0000
,  // measure 56
1001
0000
0000
0000
,  // measure 57
0010
0000
0010
0000
,  // measure 58
0020
0000
0000
0030
,  // measure 59
0100
0000
0100
0000
,  // measure 60
0200
0000
0000
0300
,  // measure 61
0002
0000
0000
0003
,  // measure 62
2000
0000
0000
3000
,  // measure 63
0010
0000
0010
0000
,  // measure 64
0100
0000
0100
0100
,  // measure 65
0020
0000
0000
0000
,  // measure 66
0000
0030
1000
1000
,  // measure 67
0002
0000
0000
0000
,  // measure 68
0000
0003
1000
1000
,  // measure 69
1001
0000
0000
0000
,  // measure 70
0110
0000
0000
0000
,  // measure 71
1001
0000
0110
0000
,  // measure 72
0001
1000
0010
0110
;
