#TITLE:Sweet Anarchy;
#SUBTITLE:;
#ARTIST:Give Me a Kiss;
#TITLETRANSLIT:;
#SUBTITLETRANSLIT:;
#ARTISTTRANSLIT:;
#GENRE:;
#CREDIT:;
#BANNER:;
#BACKGROUND:;
#LYRICSPATH:;
#CDTITLE:;
#MUSIC:Sweet Anarchy.ogg;
#OFFSET:0.012000;
#SAMPLESTART:44.456169;
#SAMPLELENGTH:14.819386;
#SELECTABLE:YES;
#BPMS:0.000000=129.559998
,24.000000=32.389999
,24.125000=64.779999
,25.000000=129.559998
;
#STOPS:25.000000=2.200000
;
#BGCHANGES:;
#KEYSOUNDS:;
#ATTACKS:;

//---------------dance-single - ----------------
#NOTES:
     dance-single:
     :
     Hard:
     8:
     0.447487,0.533151,0.456643,0.000000,0.152214,391.000000,334.000000,57.000000,0.000000,0.000000,0.000000,0.447487,0.533151,0.456643,0.000000,0.152214,391.000000,334.000000,57.000000,0.000000,0.000000,0.000000:
0000
0000
0000
0000
,
0000
0000
0000
0000
,
0000
0000
0000
0000
,
0000
0000
0000
0000
,
1000
0001
0001
1000
0010
0010
1000
0100
,
0100
1000
0010
0010
1000
0001
1000
0001
,
0000
0000
0101
0011
,
0101
0000
0011
0000
0101
0000
0100
0010
,
0100
0010
0100
0010
0110
0000
1010
0000
,
0110
0000
1010
0000
0110
0000
0100
0001
,
0000
0000
0100
0001
1001
0000
1100
0000
,
1001
0000
1100
0000
1001
0000
0100
0010
,
0100
0010
0100
0010
1000
0000
1000
0000
,
1000
1000
1000
1000
,
1000
0000
1000
0001
0011
0000
1100
0000
,
0011
0000
0000
1100
0000
0000
0011
0000
0000
0001
0010
0100
,
1000
0001
0010
0100
1000
0100
0110
0000
0000
0010
0001
0010
,
0001
0000
0010
0000
0001
0000
0010
0000
0000
0000
0000
0000
1001
0000
0000
0000
0000
0000
0001
0000
0000
0100
0000
0000
,
0000
0000
0000
0000
0000
0000
0001
0000
0000
0100
0000
0000
0110
0000
0000
0000
0000
0000
0010
0000
1000
0000
0010
0000
,
1000
0010
1000
0010
0000
0000
1100
0000
0000
1000
0100
0010
,
0001
0000
1000
0000
0100
0000
0010
0000
0001
0000
0010
0000
0110
0000
0000
0000
0000
0000
0001
0000
0000
0011
0000
0000
,
0000
0000
1001
0000
1000
0010
0100
0001
,
1000
0010
0100
0000
0001
0100
1000
0100
,
0001
1000
0010
0000
1000
0010
0001
0010
,
1000
0001
0100
0000
0001
0010
1000
0010
,
0001
1000
0100
0000
1100
0000
0011
0000
,
1100
0000
0011
0000
0001
0100
1000
0100
,
0010
1000
0001
0000
1000
0010
0001
0010
,
0100
0001
1000
0000
0001
0100
1000
0100
,
0010
0000
1000
0000
0001
0000
0000
0000
1010
0000
0000
1000
0000
0000
0101
0000
,
0000
0001
0000
0000
0100
0000
0001
0000
0010
0000
1000
0000
0010
0000
0001
0000
,
0100
0000
0000
0001
0000
0000
1000
0000
0000
0000
0000
0000
0001
0000
0000
0100
0000
0000
0010
0000
1000
0000
0100
0000
,
1000
0000
0010
0000
0100
0000
0001
0000
0000
0000
0000
0000
1000
0000
0000
0100
0000
0000
0010
0000
0001
0000
0010
0000
,
0001
0000
0010
0000
0001
0000
0010
0000
0001
0000
0010
0000
0011
0000
0000
0000
0000
0000
0010
0000
0000
1001
0000
0000
,
0000
0001
1000
0100
0110
0000
0010
1001
,
0000
0001
1000
0100
1001
0000
0010
1001
,
0000
0001
1000
0010
0100
0000
0100
0001
,
0000
0100
0010
0000
0100
1000
0000
0100
,
0010
0000
0010
0100
0001
0000
1000
0100
,
0000
0100
0010
0000
0010
0001
0000
0001
,
0010
0000
0001
1000
0010
0000
0010
1000
,
0000
0010
0100
0000
0010
0001
0000
0010
,
0100
0000
0010
0100
0001
1000
0001
1000
,
0001
1000
0001
1000
0001
1000
0001
1000
,
0001
0001
0000
0000
0101
0000
0100
0000
,
0100
0000
0100
0010
1000
1000
0000
0000
,
0000
0000
0001
0001
,
0001
0000
0001
1000
0100
0100
0000
0000
,
0000
0000
1100
0100
,
0100
0000
0100
0010
0001
0001
0000
0000
,
0000
0000
0000
0000
1000
0001
1000
0001
,
1000
0000
0000
0001
0000
0000
1000
0000
0000
0001
0000
0000
1000
0000
0100
0000
0010
0000
0001
0000
0010
0000
0100
0000
,
1000
0010
0100
0001
0000
0000
1010
0000
0000
0101
0000
0000
,
0011
0000
0110
0000
1100
1000
0100
0001
,
0100
0010
0001
0000
0101
0000
0011
0000
,
0110
0000
1100
0000
0110
0010
0001
0010
,
1000
0010
0100
0000
1100
0000
1010
0000
,
0110
0000
0101
0000
0011
0001
1000
0100
,
0001
0100
0010
0000
0100
0000
0100
0000
,
0100
0100
0100
0000
,
0000
0000
1001
0000
;

//---------------dance-single - ----------------
#NOTES:
     dance-single:
     :
     Medium:
     5:
     0.337618,0.436214,0.448632,0.160226,0.000000,295.000000,239.000000,56.000000,20.000000,0.000000,0.000000,0.337618,0.436214,0.448632,0.160226,0.000000,295.000000,239.000000,56.000000,20.000000,0.000000,0.000000:
0000
0000
0000
0000
,
0000
0000
0000
0000
,
0000
0000
0000
0000
,
0000
0000
0000
0000
,
1000
0000
0000
0010
0000
0000
0100
0000
,
0000
0001
0000
0000
0010
0000
0100
0000
,
2002
3003
1001
0110
,
1001
0110
1001
0001
,
1000
0001
0101
1010
,
0101
0000
1010
0000
0101
0000
0100
0010
,
0000
0000
0100
0010
0110
0000
1001
0000
,
0110
1001
0110
0100
,
0100
0100
0010
1000
,
0010
1000
0010
1000
,
0010
0000
1000
0010
0101
0000
0011
0000
,
0101
0011
0101
0002
,
2003
3200
1300
0020
,
0230
0000
0320
0000
1030
0000
0001
1000
,
0000
0000
0001
1000
0010
0000
2000
0000
,
3020
2030
3100
2000
,
3020
0000
0230
0000
0301
0000
1000
0001
,
0000
1000
0001
0100
,
0010
0000
1000
0000
0001
0100
0001
0100
,
0001
0100
0001
0000
1000
0010
1000
0010
,
1000
0010
1000
0000
0001
1000
0001
1000
,
0001
1000
0001
0000
1001
0000
0110
0000
,
1001
0000
0110
0000
1000
0010
1000
0010
,
1000
0010
1000
0000
0001
0100
0001
0100
,
0001
0100
0001
0000
1000
0100
1000
0100
,
1000
0100
1000
0000
1001
0000
0000
0110
,
0000
0000
1001
0000
0001
0100
0001
0100
,
0001
0100
0001
0000
1000
0100
2000
0000
,
3200
0000
1300
0000
0100
1000
0020
0000
,
0230
0000
0302
0000
1003
0000
0000
0100
,
0000
0000
0010
0001
0010
0000
0000
0100
,
0000
0000
1000
0100
1000
0000
0000
0010
,
0000
0000
0100
0001
1000
0000
1000
0000
,
0001
1000
0001
0001
,
1000
0000
0010
0100
0010
0000
0010
0000
,
0100
0010
0100
0100
,
0010
0000
1000
0010
0100
0000
0100
0000
,
0001
0001
0010
0010
,
0100
0000
0100
1000
0020
0000
0000
0000
,
0000
0000
0000
0000
,
0000
0030
1000
0000
,
0000
0000
0000
0001
1000
0010
0000
0000
,
0000
0000
0110
0000
,
0000
0000
0000
0100
0010
1000
0000
0000
,
0000
0000
1001
0000
,
0000
0000
0000
1000
0001
0010
0000
0000
,
0000
0000
0110
0110
,
0110
0110
1001
0110
,
1001
0110
1001
1001
,
1001
0000
1001
0000
0001
0100
0010
1000
,
0001
0100
0010
0000
1001
0000
1001
0000
,
1001
0000
1001
0000
1000
0100
0010
0001
,
0010
0100
1000
0000
0101
0000
1100
0000
,
0101
0000
1100
0000
0001
0100
0010
1000
,
0001
0010
0100
0000
1100
0000
0011
0000
,
1100
0011
1100
0000
,
0000
0000
1001
0000
;

//---------------dance-single - ----------------
#NOTES:
     dance-single:
     :
     Easy:
     3:
     0.197993,0.315044,0.120169,0.056079,0.000000,173.000000,158.000000,15.000000,7.000000,0.000000,0.000000,0.197993,0.315044,0.120169,0.056079,0.000000,173.000000,158.000000,15.000000,7.000000,0.000000,0.000000:
0000
0000
0000
0000
,
0000
0000
0000
0000
,
0000
0000
0000
0000
,
0000
0000
0000
0000
,
1000
0000
0000
1000
0000
0000
1000
0000
,
0000
1000
0000
0000
0001
0000
1000
0000
,
0010
0000
0100
0100
,
0100
0100
0100
0000
,
0000
0000
0010
0010
,
0010
0010
0010
0000
,
0000
0000
1000
1000
,
1000
1000
1000
0000
,
0000
0000
0001
0001
,
0001
0001
0001
0001
,
0001
0010
0001
0001
,
0001
0001
1000
0200
,
0000
0000
1300
0020
,
0000
0030
0100
0001
,
0000
0001
1000
0200
,
0000
0300
1000
0020
,
0000
0000
0000
0000
0130
0000
0000
0010
,
0000
0100
0010
1000
,
0001
0100
0001
1000
,
0100
0100
1000
0001
,
0100
0100
0001
1000
,
0100
0100
1001
0110
,
1001
0110
0010
1000
,
0001
0001
0100
0010
,
1000
1000
0010
0100
,
0001
0000
0001
0000
1001
0000
0000
0110
,
0000
1001
0001
1000
,
0010
0010
1000
0200
,
0000
1300
0010
0200
,
0000
0000
0000
0000
0310
0000
0000
1000
,
0000
0000
0000
0000
0001
0000
0000
0010
,
0000
0000
0000
0000
0001
0000
0000
1000
,
0000
0000
0000
0000
0001
0000
0000
0001
,
0000
0000
0001
0000
0000
0001
0000
0000
,
0001
0000
1000
0000
0010
0000
0000
0010
,
0000
0000
0010
0000
0000
0010
0000
0000
,
0010
0000
0100
0000
0010
0000
0000
0010
,
0000
0000
0010
0000
0000
0010
0000
0000
,
0010
1000
0002
0000
,
0000
0000
0000
0000
,
0000
0003
1001
0000
,
0000
0000
0000
0000
,
0000
0000
0110
0000
,
0000
0000
0000
0000
,
0000
0000
1001
0000
,
0000
0000
0000
0000
,
0000
0000
0010
0010
,
0010
0010
1001
0110
,
1001
0110
1000
1000
,
1000
1000
0010
0100
,
0001
0010
0100
0100
,
0100
0100
0010
0001
,
1000
1000
0001
1000
,
0001
1000
0010
0100
,
0001
0010
0001
0001
,
0001
0001
0001
0000
,
0000
0000
1001
0000
;

//---------------dance-single - ----------------
#NOTES:
     dance-single:
     :
     Beginner:
     1:
     0.114447,0.193873,0.072102,0.048068,0.000000,100.000000,91.000000,9.000000,6.000000,0.000000,0.000000,0.114447,0.193873,0.072102,0.048068,0.000000,100.000000,91.000000,9.000000,6.000000,0.000000,0.000000:
// measure 0
0000
0000
0000
0000
,  // measure 1
0000
0000
0000
0000
,  // measure 2
0000
0000
0000
0000
,  // measure 3
0000
0000
0000
0000
,  // measure 4
0000
0000
0000
0000
,  // measure 5
0000
0000
0000
0000
,  // measure 6
1001
0000
1000
0000
,  // measure 7
1000
0000
1000
0000
,  // measure 8
0000
0000
0001
0000
,  // measure 9
0001
0000
0001
0000
,  // measure 10
0000
0000
0100
0000
,  // measure 11
0100
0000
0100
0000
,  // measure 12
0000
0000
0010
0000
,  // measure 13
0000
0000
0000
0000
,  // measure 14
0000
0100
0010
0000
,  // measure 15
0010
0000
0000
2000
,  // measure 16
0000
3000
0001
2000
,  // measure 17
0000
3000
0010
0000
,  // measure 18
0000
0000
0100
0200
,  // measure 19
0000
0300
0100
0001
,  // measure 20
0000
0000
1000
0000
,  // measure 21
0001
0000
0100
0100
,  // measure 22
0010
0010
1000
0000
,  // measure 23
0000
0000
0100
0000
,  // measure 24
0000
0000
1000
0000
,  // measure 25
0000
0000
0001
0001
,  // measure 26
0001
0001
0100
0000
,  // measure 27
0000
0000
0010
0000
,  // measure 28
0000
0000
0100
0000
,  // measure 29
0000
0000
0001
0000
,  // measure 30
0000
0001
1000
0000
,  // measure 31
0000
0000
0010
0020
,  // measure 32
0000
0030
0010
0020
,  // measure 33
0000
0030
0100
0000
,  // measure 34
0000
0010
1000
0000
,  // measure 35
0000
1000
0001
0000
,  // measure 36
0000
0001
0100
0000
,  // measure 37
0010
0000
0100
0000
,  // measure 38
0010
0010
1000
0000
,  // measure 39
0001
0000
1000
0000
,  // measure 40
0001
1000
0001
0000
,  // measure 41
0000
0100
0000
0000
,  // measure 42
0000
0010
0020
0000
,  // measure 43
0000
0000
0000
0000
,  // measure 44
0000
0030
1001
0000
,  // measure 45
0000
0000
0000
0000
,  // measure 46
0000
0000
1001
0000
,  // measure 47
0000
0000
0000
0000
,  // measure 48
0000
0000
1001
0000
,  // measure 49
0000
0000
0000
0000
,  // measure 50
0000
0000
0010
0000
,  // measure 51
0010
0000
0100
0100
,  // measure 52
0100
0100
1001
0000
,  // measure 53
0000
0000
1000
0000
,  // measure 54
0001
0000
1001
0000
,  // measure 55
0000
0000
0100
0000
,  // measure 56
0010
0000
0110
0100
,  // measure 57
0100
0100
0100
0000
,  // measure 58
0000
0000
1001
0001
,  // measure 59
0001
0001
0001
0000
,  // measure 60
0000
0000
1001
0000
;
