#TITLE:Super GERO GE-RO;
#SUBTITLE:;
#ARTIST:S-C-U;
#TITLETRANSLIT:;
#SUBTITLETRANSLIT:;
#ARTISTTRANSLIT:;
#GENRE:;
#CREDIT:;
#BANNER:Super GERO GE-RO.png;
#BACKGROUND:Super GERO GE-RO-bg.png;
#LYRICSPATH:;
#CDTITLE:;
#MUSIC:09. S-C-U - Super GERO GE-RO.mp3;
#OFFSET:-5.656000;
#SAMPLESTART:59.255009;
#SAMPLELENGTH:10.212765;
#SELECTABLE:YES;
#BPMS:0.000000=188.000000
;
#STOPS:62.000000=0.319000,
96.500000=0.319000,
98.500000=0.160000,
103.000000=0.319000,
105.000000=0.160000,
156.500000=0.160000,
157.500000=0.160000
;
#BGCHANGES:;
#KEYSOUNDS:;
#ATTACKS:;

//---------------dance-single - ----------------
#NOTES:
     dance-single:
     :
     Hard:
     9:
     0.633609,0.669097,0.000000,0.085660,0.133248,466.000000,466.000000,0.000000,9.000000,0.000000,0.000000,0.633609,0.669097,0.000000,0.085660,0.133248,466.000000,466.000000,0.000000,9.000000,0.000000,0.000000:
1000
0001
0010
0001
1000
0010
1000
0001
,
0010
0001
1000
0010
0100
0001
1000
0100
,
0010
0001
0100
0001
1000
0100
1000
0001
,
0100
0001
0100
0010
1000
0001
1000
0100
,
0010
0001
1000
0010
0100
0001
0010
0100
,
1000
0010
1000
0100
0010
0001
0100
0010
,
1000
0001
0010
0100
0010
0001
1000
0010
,
0100
0000
0010
0000
1000
0000
0001
0000
1000
0000
0100
0000
,
1000
0001
0000
1000
0000
0001
0000
0010
,
0000
0100
0010
0100
0000
1000
0000
1000
,
0001
0100
0000
0010
0000
0100
0000
0001
,
0000
1000
0010
1000
0000
0010
0100
0001
,
0100
0000
0000
0100
0000
0000
0001
0000
0000
0000
1000
0000
0010
0000
1000
0000
,
0100
0000
0000
0100
0000
0000
0010
0000
0000
0000
0100
0000
1000
0000
0001
0000
,
1000
0000
0001
0100
0000
0001
0000
0100
,
0000
0010
1000
0000
0000
0000
0001
0010
,
0000
0100
0000
0010
0000
0100
0000
0010
,
0100
0010
0000
0100
0000
1000
0010
1000
,
0000
0001
0000
0010
0000
0001
0000
1000
,
0001
0000
0100
0000
0000
0000
0100
0000
0010
0000
1000
0000
0001
0000
0000
0001
,
0000
0000
0010
0000
0000
0000
0100
0000
0010
0000
0001
0000
1000
0000
0000
1000
,
0000
0000
0010
0000
0000
0000
0100
0000
0010
0000
1000
0000
0010
0000
0000
1000
,
0000
0001
0020
0000
0000
0000
0130
1000
,
0001
1000
0001
1000
0000
0001
1000
0010
,
0100
0001
1000
0010
0100
0001
1000
0100
,
0010
0100
1000
0001
0010
0100
1000
0001
,
0010
0000
0000
0100
0000
0000
1000
0000
0000
0001
0000
0000
1000
0000
0100
0000
0010
0000
0001
0000
1000
0000
0100
0000
,
0010
0100
1000
0001
1000
0000
1000
0010
,
0100
0001
1000
0010
0001
0010
0100
0001
,
1000
0010
0001
0010
0100
0001
1000
0001
,
0000
1000
0010
0100
0001
1000
0100
0001
,
0100
0010
0001
1000
0000
0001
0000
1000
,
0000
0001
0001
1000
0100
0001
0100
1000
,
0010
1000
0010
0100
0000
0010
0000
1000
,
0000
0100
1000
0010
0001
0010
0100
0001
,
2000
0000
0000
3002
0000
1003
0001
1000
,
0000
0001
1000
0001
0000
1000
0001
1000
,
0000
0010
0100
0001
0000
0010
0100
1000
,
0001
1000
0001
1000
0001
1000
0001
1000
,
0010
1000
0001
0100
0010
2000
0000
0000
,
0000
0000
0000
0000
0000
0000
0000
0000
0000
0000
3000
0000
0001
0000
0000
0100
,
0000
0000
0010
0000
0000
0000
0100
0000
0010
0000
1000
0000
0001
0000
0000
0001
,
0000
0000
0010
0000
0000
0000
0100
0000
1000
0000
0100
0000
0010
0000
0000
0010
,
0000
0000
0100
0000
0000
0000
0100
0000
1000
0000
0010
0000
0100
0000
0000
0010
,
0000
0000
1000
0000
0001
0000
1000
0000
0100
0000
0010
0000
0001
0000
0000
0100
,
0000
0000
0001
0000
0001
0000
0000
0100
0000
0000
0100
0000
0010
0000
0000
0000
,
0000
0000
1000
0000
0001
0000
0010
0000
1000
0000
0010
0000
0100
0000
0000
0100
,
0000
0010
0100
0000
0000
0010
0001
1000
,
0001
0000
0010
0000
0200
0000
0000
0000
0000
0000
0000
0000
1300
0000
0000
1000
,
0000
0000
0001
0000
0000
0000
0001
0000
1000
0000
0010
0000
0100
0000
0000
0100
,
0000
0000
0010
0000
0000
0000
0010
0000
0100
0000
0001
0000
1000
0000
0000
1000
,
0000
0000
0001
0000
0000
0000
0001
0000
1000
0000
0100
0000
0010
0000
0000
0010
,
0000
0000
0100
0000
1000
0000
0100
0000
0010
0000
0100
0000
0010
0000
0000
0010
,
0000
0000
0001
0000
1000
0000
0000
1000
0000
0000
0001
0000
0010
0000
0000
0000
,
0000
0000
0100
0000
1000
0000
0010
0000
0001
0000
0100
0000
0010
0000
0000
0010
,
0000
0100
0010
0000
0000
1000
0001
0100
,
0001
0010
0001
0010
0100
1000
0001
0000
,
0100
0001
1000
0001
,
0010
0001
2000
3100
,
1000
0010
1000
0010
,
0100
0010
2000
3010
,
0100
0000
0010
0000
0100
0001
0100
0000
,
0010
0000
1000
0000
0001
0010
0100
0010
,
0000
0000
0100
0000
0010
0000
0100
0000
0000
0000
0100
0000
1000
0000
0000
0010
,
0000
0100
0001
0010
0002
2000
3003
0000
,
0001
1000
0001
0100
0010
1000
0100
1000
,
0001
0010
0100
0010
0001
0100
1000
0100
,
0010
0100
0001
1000
0100
1000
0001
0010
,
0001
0100
0010
1000
0100
0001
0100
0010
,
0001
0100
0010
1000
0100
1000
0001
0100
,
0001
1000
0100
0010
0001
0010
1000
0010
,
0100
1000
0001
0100
0010
1000
0100
1000
,
0001
0100
0010
1000
0100
0010
0001
0001
,
0000
1000
0000
1000
0000
0010
0000
1000
,
0001
0000
0000
0000
;

//---------------dance-single - ----------------
#NOTES:
     dance-single:
     :
     Easy:
     4:
     0.307287,0.352156,0.009518,0.104695,0.000000,226.000000,225.000000,1.000000,11.000000,0.000000,0.000000,0.307287,0.352156,0.009518,0.104695,0.000000,226.000000,225.000000,1.000000,11.000000,0.000000,0.000000:
1000
0100
1000
0010
,
0100
0001
0010
0100
,
0010
0001
1000
0010
,
1000
0001
0010
0100
,
1000
0001
0100
0001
,
1000
0100
1000
0100
,
0010
0001
0010
0100
,
2000
0000
0000
0000
,
3100
0000
1000
0000
,
0010
0000
0100
0000
,
0001
0000
1000
0000
,
0100
0000
1000
0000
,
0010
0010
0010
0000
,
0100
0100
0100
0000
,
0010
0000
1000
0000
,
0001
0000
0000
0001
,
1000
0010
1000
0001
,
0100
0001
0010
0100
,
0010
0001
1000
0100
,
1000
0001
0100
0010
,
0010
0010
1000
0010
,
0010
0010
0100
0001
,
0010
0200
0000
1300
,
0100
1000
0000
0001
,
0000
1000
0010
0000
0000
0100
0000
0000
,
0000
0000
0000
0010
0000
0000
0100
0001
,
0000
1000
0001
1000
,
0100
1000
0010
0100
,
0001
0010
0100
0010
,
0100
1000
0001
1000
,
0000
0000
0000
0000
,
1000
0100
1000
0010
,
0100
0100
0000
0000
,
0001
0100
0010
0100
,
0001
1000
0000
0000
,
0001
0000
1000
0000
,
0010
0000
0100
0000
,
0001
0000
1000
0000
,
0010
0000
0100
0000
,
0001
1000
0020
0000
,
0000
0000
0030
0100
,
0001
0100
0000
0010
,
1000
0010
0000
1000
,
0001
1000
0000
0001
,
1000
0010
1000
0100
,
1000
0010
0100
0001
,
0000
0100
0001
0100
,
0010
1000
0000
0001
,
0010
0002
0000
1003
,
1000
0010
1000
0001
,
0001
0100
0001
1000
,
1000
0010
1000
0001
,
0100
0010
1000
0001
,
0010
0100
0010
0001
,
0000
1000
0100
0010
,
0100
1000
0000
0100
,
1000
0010
0100
0002
,
0000
0000
0000
0000
,
0000
0000
0000
2003
,
0000
0000
0000
0000
,
3010
0100
0001
0020
,
0000
0000
0000
0230
,
0000
0000
0000
2300
,
0000
3002
0000
0200
,
0000
0000
0303
0000
,
1001
0001
1000
0010
,
0100
0001
0010
0100
,
0010
0001
1000
0010
,
0100
0001
1000
0100
,
1000
0010
0100
0001
,
0010
0100
0010
0001
,
1000
0010
0100
0001
,
0010
0000
0100
0000
1000
0000
0001
1000
,
0000
0010
0000
0100
0000
0001
0000
1000
,
0001
0000
0000
0000
;

//---------------dance-single - ----------------
#NOTES:
     dance-single:
     :
     Medium:
     6:
     0.397026,0.457803,0.038071,0.114213,0.042830,292.000000,288.000000,4.000000,12.000000,0.000000,0.000000,0.397026,0.457803,0.038071,0.114213,0.042830,292.000000,288.000000,4.000000,12.000000,0.000000,0.000000:
1000
0010
0100
0001
,
0010
0000
0001
0000
1000
0000
0001
0010
,
0100
0010
0001
1000
,
0010
0000
0100
0000
0001
0000
1000
0100
,
0010
0100
1000
0001
,
0010
0000
0001
0000
0100
0000
0010
1000
,
0001
0010
0001
0100
,
0001
0000
1000
0000
0001
0000
1000
0000
0001
0000
1000
0000
,
0001
0000
0100
0000
,
0010
1000
0010
0000
,
0100
0000
0001
0000
,
1000
1000
1000
0000
,
0100
0000
0000
1000
0000
0000
0010
0000
0000
0000
0000
0000
0000
0000
0000
0000
,
0100
0000
0000
0010
0000
0000
1000
0000
0000
0000
0000
0000
0000
0000
0000
0000
,
0001
0000
1000
0001
0000
0100
0000
0010
,
0000
0100
0001
0000
0000
0000
1000
0100
,
0000
1000
0000
0010
0000
0100
0000
0001
,
0100
0001
0000
0100
0000
0010
0100
0010
,
0000
0100
0000
0010
0000
1000
0000
0001
,
1000
0000
0001
0000
0000
0000
1000
0000
0100
0000
0010
0000
0001
0000
0000
0010
,
0000
0000
0100
0000
0000
0000
0010
0000
0100
0000
1000
0000
0010
0000
0000
0100
,
0000
0000
0001
0000
0000
0000
1000
0000
0100
0000
0010
0000
0100
0000
0000
1000
,
0000
0001
1000
0000
0000
0000
0010
1000
,
0001
1000
0001
1000
0000
0000
0001
0000
,
0000
1100
1000
0000
0000
0101
0000
0000
,
0000
0000
0000
0001
0000
0000
1010
1000
,
0000
0011
0001
0010
,
0100
0100
0010
0100
,
1000
0000
0001
0000
1000
0000
0010
0100
,
0001
0000
0100
0000
0010
1000
0001
1000
,
0000
0001
0010
0100
,
1000
0000
0100
1000
0000
0010
0000
0100
,
0000
0001
0001
0000
0000
0000
0000
0000
,
0100
0000
0010
1000
0000
0010
0000
0100
,
0000
0010
0100
0000
0000
0000
0000
0010
,
0100
0000
0000
0010
0000
0000
1000
0000
,
0000
0001
0000
0010
,
0000
0001
0000
0010
,
0000
0100
0000
1000
,
0001
1000
0001
1000
0001
2000
0000
0000
,
0000
0000
0000
3000
0000
0000
0001
0000
,
0001
0010
0100
0010
,
0010
0100
1000
0100
,
0100
1000
0010
0100
,
0001
0000
1000
0100
0010
0001
1000
0000
,
0010
1000
0010
0100
,
0000
0010
0100
0001
,
0001
0000
1000
0000
0000
0000
0001
0100
,
0001
1000
0200
0000
0000
0000
0310
0000
,
0010
0100
0010
0001
,
0001
1000
0100
1000
,
1000
0100
1000
0010
,
0010
0100
0001
0002
,
1003
2000
3001
0100
,
0000
0000
0001
0000
0100
0010
1000
0000
,
1000
0000
0010
0000
0000
0000
0100
0010
,
1000
0001
1000
0001
0010
0100
2000
0000
,
0000
0000
0000
0000
,
0000
0000
0000
0000
,
0000
0000
0000
0000
,
3200
0320
0230
2300
,
0000
0000
0000
3020
,
0000
0000
0000
0230
,
0000
0000
0000
0302
,
0000
0000
0000
0013
,
0100
1000
0100
0000
1000
0000
0010
0100
,
0001
0000
0100
0000
0010
1000
0001
0000
,
1000
0100
1000
0000
0010
0000
0100
0001
,
0100
0000
0010
0000
1000
0100
0010
0000
,
0100
0010
0100
0000
0010
0000
0001
0010
,
0001
0000
0010
0000
0100
1000
0010
0000
,
0100
0001
0100
0000
0010
0000
1000
0010
,
1000
0000
0010
0000
0100
0001
1000
0001
,
0000
0100
0000
0001
0000
1000
0000
0100
,
1000
0000
0000
0000
;

//---------------dance-single - ----------------
#NOTES:
     dance-single:
     :
     Beginner:
     2:
     0.174039,0.246509,0.009518,0.009518,0.000000,128.000000,127.000000,1.000000,1.000000,0.000000,0.000000,0.174039,0.246509,0.009518,0.009518,0.000000,128.000000,127.000000,1.000000,1.000000,0.000000,0.000000:
// measure 0
1000
0000
0000
1000
,  // measure 1
0001
0000
0001
0000
,  // measure 2
0010
0000
0000
0010
,  // measure 3
0100
0000
0100
0000
,  // measure 4
1000
0000
0000
1000
,  // measure 5
0010
0000
0010
0000
,  // measure 6
0010
0000
0000
0100
,  // measure 7
0001
0000
0000
0000
,  // measure 8
1000
0000
0000
0000
,  // measure 9
0000
0000
0000
0000
,  // measure 10
0100
0000
0000
0000
,  // measure 11
0000
0000
0000
0000
,  // measure 12
1000
0000
0000
0000
,  // measure 13
0001
0000
0000
0000
,  // measure 14
1000
0000
0000
0000
,  // measure 15
0000
0000
0000
0010
,  // measure 16
0000
0000
0000
0100
,  // measure 17
0000
0000
0000
0001
,  // measure 18
0000
0000
0000
1000
,  // measure 19
0000
0000
0000
0001
,  // measure 20
0001
0001
0000
0100
,  // measure 21
0100
0100
0000
0010
,  // measure 22
0000
1000
0000
0001
,  // measure 23
0001
1000
0000
0010
,  // measure 24
0000
0010
0000
0000
,  // measure 25
0000
0000
0000
0100
0000
0000
0000
0100
,  // measure 26
0000
0000
0010
0000
,  // measure 27
1000
0000
0000
1000
,  // measure 28
0000
0000
0010
0000
,  // measure 29
0100
0000
0001
0000
,  // measure 30
0000
0000
0000
0000
,  // measure 31
1000
0000
0001
0000
,  // measure 32
0100
0100
0000
0000
,  // measure 33
0010
0000
1000
0000
,  // measure 34
0001
0001
0000
0000
,  // measure 35
0010
0000
0000
0100
,  // measure 36
0000
0100
0000
0100
,  // measure 37
0000
1000
0000
1000
,  // measure 38
0000
0001
0000
0001
,  // measure 39
1000
0000
0001
0000
0000
1000
0000
0000
,  // measure 40
0000
0000
0000
0010
,  // measure 41
0000
0000
0100
0010
,  // measure 42
0000
0000
0100
0001
,  // measure 43
0000
0000
0100
0010
,  // measure 44
0000
1000
0000
0001
,  // measure 45
0000
1000
0000
0010
,  // measure 46
0000
1000
0001
0001
,  // measure 47
0000
1000
0000
0100
,  // measure 48
0000
1000
1000
0010
,  // measure 49
0000
0000
0100
0001
,  // measure 50
0000
0000
0001
1000
,  // measure 51
0000
0000
1000
0001
,  // measure 52
0000
1000
0000
0010
,  // measure 53
0000
0100
0000
0010
,  // measure 54
0000
1000
1000
0001
,  // measure 55
0000
0100
0000
0010
,  // measure 56
0000
0100
0000
0001
,  // measure 57
0000
0000
0000
0000
,  // measure 58
0000
0000
0000
1000
,  // measure 59
0000
0000
0000
0000
,  // measure 60
0100
1000
0010
0100
,  // measure 61
0000
0000
0000
0001
,  // measure 62
0000
0000
0000
1000
,  // measure 63
0000
0001
0000
1000
,  // measure 64
0000
0000
0000
0000
,  // measure 65
1001
0000
0001
0000
,  // measure 66
1000
0000
0010
0100
,  // measure 67
0000
0010
0000
1000
,  // measure 68
0000
0001
0100
0001
,  // measure 69
0000
1000
0000
0010
,  // measure 70
0000
1000
0000
0100
,  // measure 71
0000
1000
0000
0010
,  // measure 72
0000
0100
0000
0002
,  // measure 73
0000
0000
0000
0000
,  // measure 74
0003
0000
0000
0000
;

//---------------dance-single - ----------------
#NOTES:
     dance-single:
     :
     Challenge:
     10:
     0.792691,0.880391,0.180837,0.190355,0.547270,583.000000,564.000000,19.000000,20.000000,0.000000,0.000000,0.792691,0.880391,0.180837,0.190355,0.547270,583.000000,564.000000,19.000000,20.000000,0.000000,0.000000:
// measure 0
1000
0000
0001
0100
0001
0000
0100
0000
0010
0000
1000
0000
0001
0010
0001
0010
,  // measure 1
0100
0000
1000
0000
0100
0000
0010
0000
0001
0000
0010
0000
0100
1000
0010
0100
,  // measure 2
0001
0000
1000
0010
1000
0000
0010
0000
0100
0000
0001
0000
1000
0100
1000
0100
,  // measure 3
0010
0000
0001
0000
0010
0000
0100
0000
1000
0000
0100
0000
0010
0001
0100
0010
,  // measure 4
0100
0000
0010
1000
0010
0000
1000
0000
0100
0000
1000
0000
0001
0010
0001
0010
,  // measure 5
0100
0000
1000
0000
0100
0000
1000
0000
0010
0000
0100
0000
0010
0100
0001
1000
,  // measure 6
0010
0000
0100
0001
0100
0000
0001
0000
0010
0000
0001
0000
1000
0100
1000
0100
,  // measure 7
0010
0000
0011
0000
0010
0000
0110
0000
0100
0000
1100
0000
,  // measure 8
0001
0100
0000
1000
0000
0100
0000
0010
,  // measure 9
0000
1000
0001
0010
0000
0100
0000
0100
,  // measure 10
0010
0001
0000
0010
0000
0001
0000
0100
,  // measure 11
0000
0001
0010
0100
0000
0100
1000
0010
,  // measure 12
0100
0000
0000
0001
0000
0000
0010
0000
0000
0000
0100
0000
1000
0000
0010
0000
,  // measure 13
0100
0000
0000
0001
0000
0000
0001
0000
0000
0000
1000
0000
0100
0000
1000
0000
,  // measure 14
0001
0000
0100
0001
0000
0010
0000
0001
,  // measure 15
0000
1000
0010
0000
0000
0000
0100
0001
,  // measure 16
0000
0010
0000
0110
0000
0100
0000
1000
,  // measure 17
0100
0010
0000
1100
0000
0100
1000
0010
,  // measure 18
0000
0101
0000
0011
0000
0110
0000
0100
,  // measure 19
1000
0000
0010
0000
0000
0000
0100
0000
0010
0000
1000
0000
0001
0000
0000
1000
,  // measure 20
0000
0000
0010
0000
0000
0000
0100
0000
0010
0000
1000
0000
0100
0000
0000
0100
,  // measure 21
0000
0000
0010
0000
0000
0000
0100
0000
1000
0000
0001
0000
0100
0000
0000
0001
,  // measure 22
0000
0000
0010
0000
0200
0000
0000
0000
0000
0000
0000
0000
1300
0000
1000
0001
,  // measure 23
0100
0000
0001
1000
0100
0000
0200
0000
0000
0000
1300
0100
0010
0000
0001
0000
,  // measure 24
0100
1100
1000
0100
0001
0011
0010
0100
,  // measure 25
1000
0100
0001
0101
0100
1000
1010
1000
,  // measure 26
0010
0000
0000
0001
0000
0000
0011
0000
0000
0001
0000
0000
0010
0000
1000
0000
0100
0000
0001
0000
0100
0000
0010
0000
,  // measure 27
0001
1000
0100
1000
0010
0000
0100
0001
,  // measure 28
0010
0000
0001
0000
1000
0000
0001
0100
0010
0000
0100
0000
0001
0000
0010
0000
,  // measure 29
0100
0000
0010
0100
1000
0000
0001
0000
0010
0000
0001
0000
0100
0000
0010
0000
,  // measure 30
0000
0000
0100
0000
0010
0000
1000
0000
0001
0000
1000
0100
0010
0000
0001
0000
,  // measure 31
1000
0001
0100
0001
0000
0010
0000
1000
,  // measure 32
0000
0000
0010
0000
0100
0000
1000
0001
0100
0000
0010
0000
1000
0000
0100
0000
,  // measure 33
0010
0100
1000
0100
0000
0001
0000
0100
,  // measure 34
0000
0000
0010
0000
0001
0000
1000
0001
0010
0000
0100
0000
1000
0000
0001
1000
,  // measure 35
0020
0000
0000
0230
0000
0310
1000
0001
,  // measure 36
0000
0000
1000
0000
0001
0000
0010
0000
0000
0000
0100
0000
1000
0000
0000
1010
,  // measure 37
0000
0010
0100
0001
0010
0001
1000
0100
,  // measure 38
0010
0000
0001
0010
0001
0000
1000
0100
1000
0000
0010
1000
0010
0000
0100
0010
,  // measure 39
0200
0010
0302
1000
1003
0400
0000
0000
,  // measure 40
0000
0000
0000
0000
0000
0000
0000
0000
0300
0000
0000
0000
1200
0000
0000
0010
,  // measure 41
0000
0000
1300
0000
0000
0000
1000
0000
0010
0000
0100
0000
0201
0000
0000
0010
,  // measure 42
0000
0000
0301
0000
0000
0000
0001
0000
0010
0000
0001
0000
2001
0000
0000
0010
,  // measure 43
0000
0000
3001
0000
0000
0000
1000
0000
0010
0000
0100
0000
0001
0000
0000
0010
,  // measure 44
0000
0000
0100
0000
1000
0000
0001
0100
0001
0010
0001
1000
0100
0000
0010
0001
,  // measure 45
0000
0001
0100
0000
0010
0000
0010
0100
0000
0010
1000
0001
1000
0000
0000
0000
,  // measure 46
0000
0000
0001
1000
0100
0000
0010
0100
1000
0001
1000
0010
1000
0000
0001
0010
,  // measure 47
0000
0010
0001
0000
1000
0000
0000
0000
0000
0000
0001
0100
0010
0000
1000
0000
,  // measure 48
0100
0000
0001
0000
0100
0010
0001
0100
0010
1000
0100
0010
0002
0000
0000
0010
,  // measure 49
0000
0000
1003
0000
0000
0000
0001
0000
0100
0000
0010
0000
1020
0000
0000
0100
,  // measure 50
0000
0000
1030
0000
0000
0000
1000
0000
0100
0000
1000
0000
1002
0000
0000
0100
,  // measure 51
0000
0000
1003
0000
0000
0000
0001
0000
0100
0000
0010
0000
1000
0000
0000
0100
,  // measure 52
0000
0000
0010
0000
0001
0000
0010
0100
1000
0100
1000
0001
0010
0000
0100
1000
,  // measure 53
0000
1000
0010
0000
0100
0000
0100
0010
0000
0100
0001
1000
0001
0000
0000
0000
,  // measure 54
0000
0000
1000
0001
0010
0000
0100
0010
0001
1000
0001
0100
0001
0000
1000
0100
,  // measure 55
0000
0100
1000
0000
0001
0000
0000
0000
0000
0000
1000
0010
0100
0000
0001
0000
,  // measure 56
0010
0000
0100
0000
1000
0001
0010
0100
1000
0010
0100
0001
2000
0000
0000
0000
,  // measure 57
0100
0100
0010
0010
,  // measure 58
0001
0000
0001
0000
3001
1000
0020
0000
,  // measure 59
0100
0100
1000
1000
,  // measure 60
0230
0302
2003
3200
,  // measure 61
1000
0000
1000
0000
1300
0010
0200
0000
,  // measure 62
0010
0000
0010
0000
0310
1000
0001
1000
,  // measure 63
0000
0000
1000
0000
0001
0000
1000
0000
0000
0000
0001
0000
0010
0000
0000
0010
,  // measure 64
0000
0100
0010
0001
1000
0001
0020
0000
,  // measure 65
0031
1000
0100
0000
0010
0000
0001
0000
0100
0010
0100
0001
1000
0000
0100
0000
,  // measure 66
1000
0000
0010
0000
0100
0000
0001
0000
0010
0100
1000
0001
0100
0000
0001
0100
,  // measure 67
0010
0000
1000
0000
0100
0000
1000
0000
0001
1000
0010
1000
0001
0000
0010
0000
,  // measure 68
0001
0000
1000
0000
0100
0000
1000
0000
0010
0100
0001
0010
0001
0000
1000
0010
,  // measure 69
0100
0000
0001
0000
0010
0000
0100
0000
1000
0100
1000
0100
1000
0000
0001
0000
,  // measure 70
0100
0000
0001
0000
0010
0000
0100
0000
0010
0001
0100
0010
1000
0000
0001
0100
,  // measure 71
1000
0000
0100
0000
0010
0000
1000
0000
0001
0010
1000
0010
0100
0000
1000
0100
,  // measure 72
1000
0000
0100
0010
0100
0000
0010
0001
0010
0100
1000
0001
0100
0000
0010
0000
,  // measure 73
0000
1000
0000
0010
0000
1000
0000
1000
,  // measure 74
0001
0000
0000
0000
;
