#TITLE:Star Line;
#SUBTITLE:(GRHN Mix);
#ARTIST:Genki Rockets;
#TITLETRANSLIT:;
#SUBTITLETRANSLIT:;
#ARTISTTRANSLIT:;
#GENRE:;
#CREDIT:;
#BANNER:Star Line (GRHN Mix).png;
#BACKGROUND:Star Line (GRHN Mix)-bg.png;
#LYRICSPATH:;
#CDTITLE:;
#MUSIC:Star Line (GRHN Mix).ogg;
#OFFSET:-0.006000;
#SAMPLESTART:59.459999;
#SAMPLELENGTH:12.000000;
#SELECTABLE:YES;
#BPMS:0.000000=128.000000
;
#STOPS:48.000000=1.406000,
121.000000=0.938000
;
#BGCHANGES:;
#KEYSOUNDS:;
#ATTACKS:;

//---------------dance-single - ----------------
#NOTES:
     dance-single:
     :
     Hard:
     7:
     0.446259,0.462500,0.161905,0.238095,0.104762,286.000000,17.000000,25.000000,0.000000,0.000000,0.000000,0.446259,0.462500,0.161905,0.238095,0.104762,286.000000,17.000000,25.000000,0.000000,0.000000,0.000000:
0000
0000
0000
0000
,
0000
0000
0000
0000
,
0000
0000
0000
0000
,
0000
0000
0000
0000
0000
0000
0000
0001
,
0020
0000
0000
0000
0000
0000
0030
0100
,
0000
0100
0000
1000
0000
0001
0000
0100
,
0000
0000
0000
0000
0010
0000
0000
2000
,
0002
0000
0000
0000
0000
0000
0000
0000
0000
0000
0000
0000
3003
0000
0001
0100
,
0001
0010
0001
0100
0001
1000
0100
0010
,
0100
1000
0010
0100
,
0001
1000
0010
0010
,
1000
0001
0100
0001
,
0010
0001
0200
0000
0000
0000
0000
0000
,
0310
1000
0000
0001
0000
0100
0000
0010
,
0000
0100
0000
0000
0000
0000
0010
0000
,
1000
0000
1001
0001
0100
0001
0010
1000
,
0000
0010
0000
0001
0000
0100
0000
0001
,
1000
0200
0000
0020
,
0330
0020
0000
0200
,
0330
0000
1001
1000
0001
1000
0010
1000
,
0000
0010
0000
0001
0000
0010
0000
0000
,
0100
0000
0020
0000
0000
2030
0200
0000
,
0000
3300
0020
0000
0000
0000
0032
0000
,
1003
0001
1000
0000
0100
0001
0100
0000
,
0010
1000
0010
0000
0100
0010
0100
0000
,
0001
0010
0001
0000
1000
0100
1000
0000
,
0010
0100
0010
0000
1000
0010
1000
0000
,
0100
0000
0001
0000
1000
0000
0000
0001
0000
0000
0100
0000
0000
0001
0000
0000
,
0010
0000
0000
0100
1000
0000
0000
0000
0001
0000
0000
1000
0000
0000
0010
0000
,
0000
0100
0000
0000
0001
0000
0010
0000
0100
0000
1000
0000
0100
0000
0010
0000
,
0001
1000
0010
0000
0100
0001
0000
0001
,
0010
0000
0110
0000
0100
1000
0000
1000
,
0010
0000
0110
0000
0100
0001
0000
0001
,
0010
0000
0110
0000
0100
1100
0000
0011
,
0000
0101
0000
0000
0000
0001
0100
0010
,
0100
0000
0010
1000
0010
0000
0100
0001
,
0010
0000
0100
1000
0010
0000
0100
0010
,
1000
0001
0010
0001
1000
0020
2000
0000
,
0000
0000
0000
3030
1000
0100
0000
0100
,
1000
0000
1010
0000
0010
0100
0000
0100
,
0001
0000
1001
0000
0001
0100
0000
0100
,
0010
0000
1010
0000
0010
1010
0000
0011
,
0000
1001
0000
0000
0000
0002
0000
0000
,
0103
0020
0000
0000
0130
2000
0000
0000
,
3010
0200
0000
1000
0000
0320
0000
0000
,
0030
0000
0200
0000
0000
0320
2000
0000
,
0000
0000
3030
0101
,
0001
0001
0001
1100
,
1000
0000
0000
0000
1000
0000
0000
0000
0000
0000
0000
0000
0100
0000
0000
0010
,
0000
0000
0001
0000
0000
0000
0010
0000
0100
0000
1000
0000
0010
0000
0000
0100
,
0000
0000
0001
0000
0000
0000
1000
0000
0001
0000
0100
0000
0001
0000
0000
1000
,
0000
0000
0010
0000
0000
0000
0100
0000
0001
0000
1000
0000
0100
0000
0000
1000
,
0000
0000
0010
0000
0000
0000
0100
0000
0010
0000
1000
0000
0001
0000
0000
1000
,
0000
0000
0010
0000
0000
0000
1000
0000
0001
0000
1000
0000
0001
0000
0000
0100
,
0000
0000
0001
0000
0000
0000
1000
0000
0100
0000
0010
0000
0100
0000
0000
0010
,
0000
0000
0001
0000
0000
0000
0010
0000
0100
0000
1000
0000
0010
0000
0000
0100
,
0000
0000
0001
0000
0000
0000
0100
0000
0010
0000
1000
0000
0001
0000
0000
1000
,
0000
0000
0010
0000
0000
0000
1000
0000
0001
0000
0100
0000
0001
0000
0000
0100
,
0000
0000
0010
0000
0000
0000
0000
0000
1000
0000
0000
0000
0100
0000
0000
0010
,
0000
0000
0100
0000
0000
0000
0100
0000
1000
0000
0010
0000
0100
0000
0000
0001
,
0000
0000
0100
0000
0000
0000
0000
0000
0010
0000
0000
0000
1000
0000
0000
0001
,
0000
0000
0010
0000
0000
0000
0100
0000
0010
0000
0001
0000
1000
0000
0000
0001
,
0000
0000
0100
0000
0000
0000
0000
0000
0001
0000
0000
0000
1000
0000
0000
0010
,
0000
0000
0100
0000
0000
0000
1000
0000
0001
0000
0010
0000
0100
0000
0000
0010
,
0000
0001
0000
0000
2002
0000
3003
0000
;

//---------------dance-single - ----------------
#NOTES:
     dance-single:
     :
     Medium:
     5:
     0.367347,0.399286,0.133333,0.152381,0.000000,240.000000,14.000000,16.000000,0.000000,0.000000,0.000000,0.367347,0.399286,0.133333,0.152381,0.000000,240.000000,14.000000,16.000000,0.000000,0.000000,0.000000:
0000
0000
0000
0000
,
0000
0000
0000
0000
,
0000
0000
0000
0000
,
0000
0000
0000
0000
0000
0000
0000
0001
,
0020
0000
0030
0000
,
0100
0000
0010
0000
,
0001
0000
1000
0001
,
0100
0000
0000
0000
0000
0000
0000
0010
,
1000
0100
0010
0001
1000
0100
0010
0100
,
0010
0010
0001
0001
,
1000
0010
0001
0010
,
0100
0100
0001
0001
,
1001
0001
0020
0000
0000
0000
0000
0000
,
0130
0010
0000
0100
0000
1000
0000
0100
,
0000
0001
0000
0000
0000
0000
0100
0000
,
0010
0000
1001
0001
1000
0001
1000
0001
,
0000
0100
0000
0001
0000
0010
0000
0100
,
1000
0020
0000
0200
,
0330
0200
0000
0020
,
0330
0000
1001
0000
0001
1000
0010
0000
,
1000
0010
0001
0010
,
0100
0000
0002
0000
0000
1000
2000
0000
,
0003
0000
0020
0000
3000
0000
0200
0030
,
0310
1000
0000
0000
0010
0100
0000
0000
,
0010
0001
0000
0000
0010
0100
0000
0000
,
0100
0001
0000
0000
0100
0010
0000
0000
,
0100
1000
0000
0000
0100
0010
0000
0000
,
0100
0010
1000
0000
1000
0000
1000
0000
,
0001
1000
0010
0000
0100
0000
0010
0000
,
0100
0001
1000
0100
1000
0100
1000
0100
,
1000
0100
1000
0000
0100
0000
1100
0000
,
0100
0011
0001
0100
,
1000
1100
0100
0010
,
1000
0000
1001
0000
0001
1000
0000
0001
,
0000
0101
0000
0000
0000
0001
0000
0000
,
1000
0100
0000
0000
1000
0010
0000
0000
,
1000
0001
0000
0100
0000
0010
0000
0000
,
0000
0000
0100
0000
0000
2000
0002
0000
,
0000
0000
3003
0000
0001
0100
0000
0100
,
0010
0000
0110
0000
0010
0100
0000
0100
,
0001
0000
1001
0000
0001
1000
0000
1000
,
0100
0000
1100
0000
1000
0100
0000
0001
,
0000
0100
0000
0000
0000
0020
0000
0000
,
0130
1000
0000
0000
1000
0001
0000
0000
,
0001
0100
0000
0001
0000
1000
0000
0000
,
0000
0000
0010
0000
0000
0200
0002
0000
,
0000
0000
0303
1001
,
0001
1000
0001
1000
,
0001
1000
1001
0001
,
1000
0000
0100
0000
1000
0100
1000
0000
,
0010
0000
0100
0000
0010
1000
0010
0000
,
0100
0000
0001
0000
0010
0001
0010
0000
,
0001
0000
1000
0000
0100
1000
0100
0000
,
1000
0000
0010
0000
0100
0010
0100
0000
,
0010
0000
1000
0000
0001
0100
0001
0000
,
1000
0000
0100
0000
0010
0100
0010
0000
,
0001
0000
1000
0000
0010
1000
0010
0000
,
0100
0000
0001
0000
1000
0001
0200
0000
,
0000
0000
0000
0310
,
0001
0010
1000
0010
,
0100
0000
0100
0010
,
0001
1000
0010
1000
,
0000
1000
0000
0001
,
1000
0010
1000
0001
,
0100
0010
1001
0000
;

//---------------dance-single - ----------------
#NOTES:
     dance-single:
     :
     Easy:
     3:
     0.253061,0.245714,0.066667,0.219048,0.000000,156.000000,7.000000,23.000000,0.000000,0.000000,0.000000,0.253061,0.245714,0.066667,0.219048,0.000000,156.000000,7.000000,23.000000,0.000000,0.000000,0.000000:
0000
0000
0000
0000
,
0000
0000
0000
0000
,
0000
0000
0000
0000
,
0000
0000
0000
0000
,
0002
0000
0003
0000
,
1000
0000
0001
0000
,
0100
0000
0001
0000
,
2000
0000
0000
3000
,
0001
0010
0100
1000
,
0100
0000
1000
0000
,
0001
0001
0100
0000
,
0010
0000
0100
0000
,
1001
0020
0000
0030
,
0000
0100
0000
0010
,
0000
1000
0000
0001
,
1000
1001
0000
0001
,
0000
1000
0000
0100
,
0000
2000
0000
0002
,
3003
0200
0000
0020
,
0330
1001
0000
0001
,
0000
1000
0000
0100
,
0000
2000
0000
3020
,
0000
0230
0000
0302
,
0000
1003
0000
0001
,
0000
0100
0000
0010
,
0000
1000
0000
0010
,
0000
0100
0000
0001
,
0000
1000
1000
1000
,
0000
0001
0001
0001
,
0000
1000
0100
0010
,
0001
1000
0000
0001
,
1000
0001
0100
0010
,
0010
0100
0001
1000
,
1000
0100
1000
0010
,
0100
0001
0000
2000
,
3000
0002
0003
2000
,
3000
0002
0003
0100
,
0000
0010
0000
2002
,
0000
3003
0000
0001
,
1000
1000
0010
0100
,
0100
0100
0010
1000
,
1000
1000
0010
0100
,
0001
1000
0000
0020
,
0030
0200
0300
0020
,
0030
0200
0300
0010
,
0000
2000
0000
0002
,
0000
0000
3003
1001
,
0001
1000
0001
1000
,
1000
0000
1001
0001
,
1000
1000
0000
0100
,
1000
0010
0000
0100
,
0001
0100
1000
0100
,
0010
1000
0001
0010
,
0010
0010
0000
0100
,
0100
0100
0000
1000
,
1000
1000
0000
0001
,
0001
0001
0000
1000
,
0001
0100
0001
0000
,
0000
0000
0000
0100
,
0010
1000
0100
0000
,
0000
0000
0000
1000
,
0010
0100
0001
0000
,
0000
0000
0000
0010
,
0100
1000
0001
1000
,
1000
0001
1001
0000
;

//---------------dance-single - ----------------
#NOTES:
     dance-single:
     :
     Beginner:
     1:
     0.103401,0.153571,0.038095,0.047619,0.000000,67.000000,4.000000,5.000000,0.000000,0.000000,0.000000,0.103401,0.153571,0.038095,0.047619,0.000000,67.000000,4.000000,5.000000,0.000000,0.000000,0.000000:
// measure 0
0000
0000
0000
0000
,  // measure 1
0000
0000
0000
0000
,  // measure 2
0000
0000
0000
0000
,  // measure 3
0000
0000
0000
0000
,  // measure 4
0020
0000
0030
0000
,  // measure 5
0100
0000
0000
0000
,  // measure 6
0001
0000
1000
0000
,  // measure 7
0100
0000
0000
0000
,  // measure 8
0000
0000
0000
0000
,  // measure 9
0001
0000
0000
0000
,  // measure 10
1000
0000
0000
0000
,  // measure 11
0100
0000
1000
0000
,  // measure 12
0010
0100
0000
0000
,  // measure 13
0000
0001
0000
0000
,  // measure 14
0000
1000
0000
0001
,  // measure 15
1000
1001
0000
0000
,  // measure 16
0000
0001
0000
0000
,  // measure 17
0000
0200
0000
0000
,  // measure 18
0300
0020
0000
0000
,  // measure 19
0030
1001
0000
0000
,  // measure 20
0000
1000
0000
0000
,  // measure 21
0000
0200
0000
0000
,  // measure 22
0300
0020
0000
0030
,  // measure 23
0000
0001
0000
0000
,  // measure 24
0000
1000
0000
0000
,  // measure 25
0000
0001
0000
0000
,  // measure 26
0000
0100
0000
0000
,  // measure 27
0000
0010
0000
0000
,  // measure 28
0000
0010
0000
0000
,  // measure 29
0000
0010
0000
0100
,  // measure 30
0000
0000
0000
0001
,  // measure 31
0000
0000
0000
1000
,  // measure 32
0000
0000
0000
0001
,  // measure 33
0000
0000
0000
0100
,  // measure 34
0000
0000
0000
0010
,  // measure 35
0000
0000
0000
1000
,  // measure 36
0000
0000
0000
0100
,  // measure 37
0000
1000
0000
0001
,  // measure 38
0000
0000
0000
0100
,  // measure 39
0000
0000
0000
0010
,  // measure 40
0000
0000
0000
1000
,  // measure 41
0000
0000
0000
0001
,  // measure 42
0000
1000
0000
0010
,  // measure 43
0000
0000
0000
0100
,  // measure 44
0000
0000
0000
0001
,  // measure 45
0000
1000
0000
0010
,  // measure 46
0000
0000
0000
1000
,  // measure 47
0000
0000
0000
0000
,  // measure 48
0000
0000
1001
0001
,  // measure 49
0000
0000
0000
0100
,  // measure 50
0000
0000
0000
0001
,  // measure 51
0000
0000
0000
1000
,  // measure 52
0000
0000
0000
0100
,  // measure 53
0000
0000
0000
1000
,  // measure 54
0000
0000
0000
0010
,  // measure 55
0000
0000
0000
0100
,  // measure 56
0000
0000
0000
0001
,  // measure 57
0000
0000
0000
0000
,  // measure 58
0000
0000
0000
1000
,  // measure 59
0000
0000
0000
0000
,  // measure 60
0000
0000
0000
0010
,  // measure 61
0000
0000
0000
0000
,  // measure 62
0000
0000
0000
0100
,  // measure 63
0000
0000
0000
0010
,  // measure 64
0000
0010
1001
0000
;
