#VERSION:0.83;
#TITLE:Spooky Scary Skeletons;
#SUBTITLE:;
#ARTIST:Andrew Gold;
#TITLETRANSLIT:;
#SUBTITLETRANSLIT:;
#ARTISTTRANSLIT:;
#GENRE:;
#ORIGIN:;
#CREDIT:;
#BANNER:Spooky Scary Skeletons.png;
#BACKGROUND:Spooky Scary Skeletons-bg.png;
#PREVIEWVID:;
#JACKET:Spooky Scary Skeletons-jacket.png;
#CDIMAGE:;
#DISCIMAGE:;
#LYRICSPATH:;
#CDTITLE:;
#MUSIC:Spooky Scary Skeletons.mp3;
#OFFSET:-0.499000;
#SAMPLESTART:12.703861;
#SAMPLELENGTH:12.072435;
#SELECTABLE:YES;
#BPMS:0.000=154.070;
#STOPS:;
#DELAYS:;
#WARPS:;
#TIMESIGNATURES:0.000=4=4;
#TICKCOUNTS:0.000=4;
#COMBOS:0.000=1;
#SPEEDS:0.000=1.000=0.000=0;
#SCROLLS:0.000=1.000;
#FAKES:;
#LABELS:0.000=Song Start;
#BGCHANGES:;
#KEYSOUNDS:;
#ATTACKS:
;

//---------------dance-single - ----------------
#NOTEDATA:;
#CHARTNAME:;
#STEPSTYPE:dance-single;
#DESCRIPTION:;
#CHARTSTYLE:;
#DIFFICULTY:Hard;
#METER:8;
#RADARVALUES:0.478776,0.740843,0.582858,0.000000,0.398797,437.000000,361.000000,76.000000,0.000000,0.000000,0.000000,0.000000,0.000000,0.000000,0.478776,0.740843,0.582858,0.000000,0.398797,437.000000,361.000000,76.000000,0.000000,0.000000,0.000000,0.000000,0.000000,0.000000;
#CREDIT:;
#NOTES:
0000
0000
0000
0000
,
0000
0000
0000
0000
,
0000
0000
0000
0000
,
0000
0000
0000
0000
,
0000
0000
0000
0000
,
0000
0000
0000
0000
,
0000
0000
0000
0000
,
0000
0000
0000
0000
,
1001
1000
1010
0010
,
0110
0000
0001
1000
0000
0000
0100
0000
,
0010
0001
0000
0000
0000
0000
0100
0000
0000
0010
0000
0000
,
1001
0101
1001
0011
,
0100
1000
0010
0100
,
0001
0010
0001
0000
,
0100
0001
0010
0001
,
1001
0110
1001
0000
,
0001
0011
0001
0101
,
0100
0000
0000
0010
0000
1000
0000
0000
0000
0000
0000
0000
,
0100
0010
0001
1000
,
0011
0110
1100
1001
,
0101
0000
0001
0000
1000
0001
0000
0000
,
1100
0000
0000
0000
0000
0000
1000
0000
0000
0010
0000
0000
0000
0000
0000
0000
0000
0000
0100
0000
0000
0000
0010
0000
,
1000
0100
1000
0001
,
0101
1100
0101
0000
,
0100
0001
0010
0001
,
1000
0000
0000
0001
0000
1000
0000
0000
0000
0010
0000
0000
,
1000
0000
0000
0010
0000
0000
0100
0000
0000
0010
0000
1000
,
0000
0001
0000
1000
,
0001
0100
0001
0010
,
0001
0000
0000
1000
0000
0100
0000
0000
0000
0000
0000
0010
,
0001
1000
0010
0100
,
0001
1001
1001
0100
,
1010
1000
1001
0001
,
0011
0000
0000
0001
0000
0100
0000
0000
0000
0010
0000
0000
,
1000
0000
0100
0000
0001
0100
0000
0000
,
1100
1010
0110
0101
,
0011
0010
0110
0100
,
1100
0000
0000
1000
0000
0001
0000
0000
0000
0100
0000
0000
,
0001
0010
1000
0010
,
0011
1100
0011
0000
,
0001
0100
0010
1000
0000
0000
1000
0010
0100
0001
0000
0000
,
0001
0100
0010
1000
0010
0100
0001
1000
0010
0100
0001
1000
,
0010
0100
0001
1000
0010
0100
0001
1000
0100
0010
0000
0001
,
0010
0000
0010
0100
0000
0100
1000
0000
0000
1001
0000
1000
,
0001
0100
0001
0010
0000
0100
1000
0001
1000
0010
0000
0100
,
0001
0100
0001
0010
0001
0010
0100
0010
0100
1000
0001
1000
,
0100
1000
0010
0100
0001
0010
0001
0100
0010
1000
0000
0000
,
0101
1010
0101
0000
,
0100
0010
1000
0100
,
1000
0000
0000
0001
0000
1000
0000
0000
0000
0010
0000
0000
,
0100
0000
0000
0001
0000
0000
0010
0000
0000
0001
0000
1000
,
0000
0000
0000
0000
0000
0000
0000
0000
0000
0000
0000
1000
,
0001
0010
0001
1000
,
0100
0000
1000
0000
0000
0010
0000
0000
0000
0100
0000
0010
,
1000
0000
0001
0000
0000
0000
1000
0000
0000
0001
0000
0010
,
0000
1001
1001
0000
,
0101
0100
0110
0010
,
1010
0000
0000
1000
0000
0100
0000
0000
0000
1000
0000
0000
,
1000
0001
0000
0000
0000
0000
0011
0000
0000
0001
0000
0000
,
1001
0110
1001
0110
,
0101
0100
0110
0010
,
1010
1000
1100
1000
,
0100
0001
0100
1000
,
1001
0101
1001
0000
,
1100
1000
1010
0010
,
0110
0100
0101
0001
,
1001
1000
1010
0010
,
0110
1010
0110
1010
,
1001
0001
0011
0010
,
0110
0000
0000
0100
0000
1000
0000
0000
0000
1000
0000
0000
,
0001
0000
0100
0000
,
1000
0000
0010
0000
,
1001
0110
0110
0000
,
1000
0010
0100
0001
0000
0000
0001
0100
0010
1000
0000
0000
,
1000
0010
0100
0001
0100
0010
1000
0010
0100
0001
1000
0001
,
1000
0100
0010
0001
1000
0100
0010
0001
1000
0100
0000
0010
,
0001
0000
0001
0100
0000
0010
1000
0000
0000
0001
0000
1000
,
0001
0100
0001
0010
0000
0100
1000
0100
1000
0001
0000
1000
,
0010
0100
0010
0100
0001
0100
0001
0010
0001
1000
0001
1000
,
0001
0100
0001
0010
0001
0100
0010
1000
0100
0010
0000
0000
,
1001
0110
1001
0000
;

//---------------dance-single - ----------------
#NOTEDATA:;
#CHARTNAME:;
#STEPSTYPE:dance-single;
#DESCRIPTION:;
#CHARTSTYLE:;
#DIFFICULTY:Medium;
#METER:5;
#RADARVALUES:0.338540,0.401290,0.268421,0.015338,0.011504,309.000000,274.000000,35.000000,2.000000,0.000000,0.000000,0.000000,0.000000,0.000000,0.338540,0.401290,0.268421,0.015338,0.011504,309.000000,274.000000,35.000000,2.000000,0.000000,0.000000,0.000000,0.000000,0.000000;
#CREDIT:;
#NOTES:
0000
0000
0000
0000
,
0000
0000
0000
0000
,
0000
0000
0000
0000
,
0000
0000
0000
0000
,
0000
0000
0000
0000
,
0000
0000
0000
0000
,
0000
0000
0000
0000
,
0000
0000
0000
0000
,
1000
0010
1000
0100
,
1000
0010
1000
0100
,
1000
0001
0100
0001
,
1000
0001
0010
0100
,
1000
0100
1000
0010
,
0100
0001
0100
0000
,
0010
0100
0001
0010
,
1001
0110
1001
0000
,
0001
0100
0001
1000
,
0100
0010
0100
1000
,
0010
1000
0100
1000
,
0010
0100
0001
1000
,
0001
0010
0001
1000
,
0100
1000
0010
0100
,
0001
0010
0100
1000
,
1001
0110
1001
0000
,
0001
1000
0100
1000
,
0010
0100
0001
0010
,
0001
0100
0001
1000
,
0100
1000
0000
1000
,
0001
0100
0001
0010
,
0001
0000
0000
1000
0000
0000
0100
0000
0000
0000
0000
1000
,
0100
0010
0001
1000
,
0001
1001
1001
0000
,
1000
0010
1000
0100
,
0001
0100
1000
0010
,
0100
0001
0010
0001
,
1000
0100
0010
0001
,
0010
0001
0100
0001
,
1000
0100
1000
0010
,
0100
0001
0010
0001
,
1001
0110
1001
0000
,
0001
1000
0001
0010
,
0001
0100
0010
1000
,
0100
1000
0010
0100
,
0110
1001
0110
1001
,
0001
0010
0001
1000
,
0100
1000
0010
0100
,
0001
0010
0001
0100
,
0101
1010
0101
0000
,
0100
0010
1000
0010
,
0100
0001
0010
0001
,
1000
0100
1000
0010
,
0100
0001
0100
0010
,
1000
0100
1000
0001
,
0100
0001
0010
0001
,
0100
0000
0001
0000
0000
0000
0010
0000
0000
0100
0000
1000
,
0000
1001
1001
0000
,
0001
1000
0010
0100
,
0001
0010
0001
1000
,
0100
1000
0010
0100
,
0001
0010
0100
1000
,
0100
1000
0010
0100
,
0001
0010
0001
0000
,
0100
0010
1000
0001
,
1001
0110
1001
0000
,
0001
0010
0001
1000
,
0100
1000
0010
0100
,
0010
1000
0100
1000
,
0001
0010
0100
1000
,
0100
0001
0100
0010
,
0001
0010
0100
0010
,
0011
0000
1100
0000
,
1010
0000
0101
0000
,
2002
0000
3003
0000
,
0001
0100
0001
0010
,
0001
0010
0100
1000
,
0001
1000
0100
1000
,
1010
0101
1010
0101
,
0001
0010
0001
1000
,
0100
1000
0010
0100
,
0001
0010
0001
0100
,
1001
0110
1001
0000
;

//---------------dance-single - ----------------
#NOTEDATA:;
#CHARTNAME:;
#STEPSTYPE:dance-single;
#DESCRIPTION:;
#CHARTSTYLE:;
#DIFFICULTY:Easy;
#METER:2;
#RADARVALUES:0.163244,0.216079,0.023008,0.000000,0.000000,149.000000,146.000000,3.000000,0.000000,0.000000,0.000000,0.000000,0.000000,0.000000,0.163244,0.216079,0.023008,0.000000,0.000000,149.000000,146.000000,3.000000,0.000000,0.000000,0.000000,0.000000,0.000000,0.000000;
#CREDIT:;
#NOTES:
0000
0000
0000
0000
,
0000
0000
0000
0000
,
0000
0000
0000
0000
,
0000
0000
0000
0000
,
0000
0000
0000
0000
,
0000
0000
0000
0000
,
0000
0000
0000
0000
,
0000
0000
0000
0000
,
0001
0000
1000
0000
,
0001
0000
1000
0000
,
0010
0000
0100
0100
,
0100
0000
0000
0000
,
0010
0000
1000
0000
,
0010
0000
0100
0000
,
0001
0100
0010
1000
,
0001
0000
0000
0000
,
1000
0000
0010
0000
,
1000
0000
0100
0000
,
1000
0000
0001
0000
,
0100
0010
1000
0001
,
0010
0000
0001
0000
,
0100
0000
0001
0000
,
1000
0001
0100
0001
,
0010
0000
0000
0000
,
0001
0000
0100
0000
,
0001
0000
1000
0000
,
0100
0000
1000
0000
,
0010
0000
0010
0000
,
0100
0000
0001
0000
,
0010
0000
0001
0000
,
1000
0000
0001
0000
,
0000
0100
0100
0000
,
0010
0000
1000
0000
,
0010
0000
0100
0000
,
0001
0000
1000
0000
,
0010
0000
0000
0000
,
0100
0000
0010
0000
,
1000
0000
0001
0000
,
1000
0001
0100
0010
,
1000
0000
0000
0000
,
0010
0000
0000
0000
,
1000
0000
0000
0000
,
0100
0000
0000
0000
,
0010
0010
0001
0000
,
1000
0000
0000
0000
,
0010
0000
0000
0000
,
0100
0000
0000
0000
,
0001
0100
0001
0000
,
0100
0000
0010
0000
,
1000
0000
1000
0000
,
0001
0000
0010
0000
,
0001
0000
0000
0000
,
0100
0000
0010
0000
,
1000
0000
1000
0000
,
0001
0000
1000
0000
,
0000
0010
0010
0000
,
0100
0000
0010
0000
,
1000
0000
0000
0000
,
0001
0000
1000
0000
,
0100
0000
0000
0000
,
1000
0000
0010
0000
,
0100
0000
0001
0000
,
1000
0000
0001
0000
,
1001
0000
0000
0000
,
0010
0000
0100
0000
,
0001
1000
0001
0000
,
0010
0000
0001
0000
,
0100
0010
0100
0000
,
0010
0000
1000
0000
,
0100
0000
1000
0000
,
0001
0000
0010
0000
,
0100
0000
1000
0000
,
1001
0000
0000
0000
,
1000
0000
0001
0000
,
0100
0000
0001
0000
,
0010
0000
0001
0000
,
1000
0100
0010
0001
,
1000
0000
0010
0000
,
0100
0000
0001
0000
,
0010
0000
0001
0000
,
1000
0001
1001
0000
;

//---------------dance-single - ----------------
#NOTEDATA:;
#CHARTNAME:;
#STEPSTYPE:dance-single;
#DESCRIPTION:;
#CHARTSTYLE:;
#DIFFICULTY:Beginner;
#METER:1;
#RADARVALUES:0.109560,0.185211,0.015338,0.000000,0.000000,100.000000,98.000000,2.000000,0.000000,0.000000,0.000000,0.000000,0.000000,0.000000,0.109560,0.185211,0.015338,0.000000,0.000000,100.000000,98.000000,2.000000,0.000000,0.000000,0.000000,0.000000,0.000000,0.000000;
#CREDIT:;
#NOTES:
0000
0000
0000
0000
,
0000
0000
0000
0000
,
0000
0000
0000
0000
,
0000
0000
0000
0000
,
0000
0000
0000
0000
,
0000
0000
0000
0000
,
0000
0000
0000
0000
,
0000
0000
0000
0000
,
1000
0000
0000
0000
,
0001
0000
0000
0000
,
0100
0000
0100
0000
,
0100
0000
0000
0000
,
0010
0000
0000
0000
,
1000
0000
0000
0000
,
0100
0000
0100
0000
,
0100
0000
0000
0000
,
0010
0000
0000
0000
,
0001
0000
0000
0000
,
1000
0000
1000
0000
,
1000
0000
0000
0000
,
0010
0000
0000
0000
,
0100
0000
0000
0000
,
0001
0000
1000
0000
,
0001
0000
0000
0000
,
0100
0000
0000
0000
,
0001
0000
0000
0000
,
1000
0000
0000
0000
,
1000
0000
0000
0000
,
0010
0000
0000
0000
,
0100
0000
0000
0000
,
0001
0000
0000
0000
,
0000
1000
1000
0000
,
0001
0000
0000
0000
,
0010
0000
0000
0000
,
0001
0000
0001
0000
,
1000
0000
0000
0000
,
0010
0000
0000
0000
,
0100
0000
0000
0000
,
0001
0000
1000
0000
,
0100
0000
0000
0000
,
1000
0000
0000
0000
,
0010
0000
0000
0000
,
0100
0000
0000
0000
,
0001
0001
0001
0000
,
1000
0000
0000
0000
,
0010
0000
0000
0000
,
0100
0000
0000
0000
,
0010
0010
0010
0000
,
1000
0000
0000
0000
,
0001
0000
0000
0000
,
0100
0000
0000
0000
,
0001
0000
0000
0000
,
0010
0000
0000
0000
,
0001
0000
0000
0000
,
1000
0000
0000
0000
,
0000
0010
0010
0000
,
0100
0000
0000
0000
,
0010
0000
0000
0000
,
1000
0000
1000
0000
,
1000
0000
0000
0000
,
0100
0000
0000
0000
,
1000
0000
0000
0000
,
0010
0000
0010
0000
,
0010
0000
0000
0000
,
0100
0000
0000
0000
,
0001
0000
0000
0000
,
1000
0000
1000
0000
,
0010
0000
0000
0000
,
0100
0000
0000
0000
,
0010
0000
0000
0000
,
1000
0000
0001
0000
,
0100
0000
0010
0000
,
1001
0000
0000
0000
,
0001
0000
1000
0000
,
0001
0000
0000
0000
,
0100
0000
0010
0000
,
0100
0100
0100
0000
,
0010
0000
0100
0000
,
0010
0000
0000
0000
,
1000
0000
0001
0000
,
1000
0001
1001
0000
;

//---------------dance-single - ----------------
#NOTEDATA:;
#CHARTNAME:;
#STEPSTYPE:dance-single;
#DESCRIPTION:;
#CHARTSTYLE:;
#DIFFICULTY:Challenge;
#METER:9;
#RADARVALUES:0.540130,0.802580,0.613535,0.084361,0.582858,493.000000,413.000000,80.000000,11.000000,0.000000,0.000000,0.000000,0.000000,0.000000,0.540130,0.802580,0.613535,0.084361,0.582858,493.000000,413.000000,80.000000,11.000000,0.000000,0.000000,0.000000,0.000000,0.000000;
#CREDIT:;
#NOTES:
// measure 0
0000
0000
0000
0000
,  // measure 1
0000
0000
0000
0000
,  // measure 2
0000
0000
0000
0000
,  // measure 3
0000
0000
0000
0000
,  // measure 4
0000
0000
0000
0000
,  // measure 5
0000
0000
0000
0000
,  // measure 6
0000
0000
0000
0000
,  // measure 7
0000
0000
0000
0000
,  // measure 8
1001
0001
0011
0010
,  // measure 9
0110
0000
0000
0100
0000
1000
0000
0000
0000
0010
0000
0000
,  // measure 10
1000
0001
0000
0000
0000
0000
0101
0000
0000
0001
0000
0000
,  // measure 11
1001
0000
0000
1000
0000
0100
0010
0000
0000
0001
0000
0000
,  // measure 12
0011
0010
0110
0100
,  // measure 13
1100
0101
1100
0000
,  // measure 14
1001
0001
0011
0010
,  // measure 15
0110
1001
0110
0000
,  // measure 16
1010
0000
0001
0100
0000
0000
0011
0000
0100
1000
0000
0000
,  // measure 17
1001
0000
0001
0100
0000
0100
0010
0000
0000
1000
0000
0000
,  // measure 18
0101
0011
1001
1100
,  // measure 19
1001
0000
0000
0001
0000
0010
0100
0000
0000
1000
0000
0000
,  // measure 20
0110
0000
0101
0000
0001
0200
0000
0000
,  // measure 21
0310
0000
0000
0000
0000
0000
1000
0000
0000
0100
0000
0000
0000
0000
0000
0000
0000
0000
0010
0000
0000
0000
0001
0000
,  // measure 22
0100
0010
1000
0010
,  // measure 23
0101
1010
1001
0000
,  // measure 24
0002
1003
0200
0310
,  // measure 25
0001
0000
0000
1000
0000
0020
0000
0000
0000
0130
0000
0000
,  // measure 26
0001
0000
0000
0010
0000
0000
0001
0000
0000
1000
0000
0200
,  // measure 27
0000
0000
0000
0010
0000
0000
0000
0000
0000
0310
0000
0001
,  // measure 28
0100
0010
1000
0001
,  // measure 29
0010
0000
0000
0100
0000
0010
0000
0000
0000
0000
0000
0100
,  // measure 30
1000
0010
0100
0001
,  // measure 31
0011
1100
1002
0103
,  // measure 32
1010
0100
1010
0100
,  // measure 33
1001
0000
0001
0010
0000
0000
0100
0000
,  // measure 34
1000
0000
0001
0100
0000
0000
0010
0000
1000
0100
0000
0000
,  // measure 35
0011
0000
0000
1100
0000
0100
0010
0000
0000
1001
0000
0000
,  // measure 36
0101
0010
0101
0010
,  // measure 37
1001
0100
1001
0100
,  // measure 38
0010
0100
0001
1000
,  // measure 39
0110
1001
1001
0000
,  // measure 40
0001
0000
0010
0000
0001
1000
0001
0000
0000
0000
0010
0000
0100
0000
1000
0000
0010
0100
0010
0000
0000
0000
0100
0000
,  // measure 41
0001
0000
0010
0000
0001
0000
1000
0000
0100
0000
0010
0000
0100
0000
1000
0000
0010
0100
0001
0000
1000
0000
0100
0000
,  // measure 42
1000
0000
0001
0000
0010
0000
0001
0000
0100
0000
0010
0000
1000
0000
0100
0000
0010
0000
0100
0000
0000
0000
1000
0100
,  // measure 43
1000
0000
0000
0000
0100
0010
0100
0000
0000
0000
0010
0001
0010
0000
0000
0000
0000
0000
1001
0000
0000
0000
0001
0100
,  // measure 44
0001
0000
0100
0000
0001
0000
1000
0001
0000
0000
1000
0000
0100
0000
0010
0000
0001
0000
1000
0010
0000
0000
0100
0000
,  // measure 45
0001
0010
0001
1000
0100
0010
0001
1000
0001
0100
0000
0001
,  // measure 46
0100
0000
0010
0000
1000
0000
0001
0000
0010
0000
0001
0000
1000
0001
1000
0000
0010
0000
0100
0000
0000
0000
0001
0100
,  // measure 47
0001
0000
0000
0000
0100
0010
0100
0000
0000
0000
0010
1000
0010
0000
0000
0000
0000
0000
0000
0000
0000
0000
0000
0000
,  // measure 48
0101
0001
1001
1000
,  // measure 49
1100
0000
0000
0100
0000
0010
0000
0000
0000
0001
0000
0000
,  // measure 50
0011
0000
0000
0001
0000
0000
1001
0000
0000
0001
0000
0200
,  // measure 51
0000
0000
0000
0010
0000
0000
0000
0000
0000
0310
0000
1000
,  // measure 52
0001
0010
0011
0001
,  // measure 53
1000
0000
0010
0000
0000
0100
0000
0000
0000
0010
0000
1000
,  // measure 54
0001
0000
0010
0000
0000
0000
0100
0000
0000
1000
0000
0020
,  // measure 55
0000
0100
0130
0000
,  // measure 56
1001
1000
1100
0100
,  // measure 57
0110
0000
0000
0010
0000
0001
0000
0000
0000
0010
0000
0000
,  // measure 58
0100
2000
0000
0000
0000
0000
3001
0000
0000
0100
0000
0000
,  // measure 59
1010
0000
0000
0101
0000
0001
0010
0000
0000
1100
0000
0000
,  // measure 60
1001
0100
1001
0010
,  // measure 61
0101
1010
1100
1000
,  // measure 62
0100
0001
0010
1000
,  // measure 63
1001
0110
1001
0000
,  // measure 64
1001
0000
0000
0010
0000
0000
1001
0000
0000
0011
0000
0010
,  // measure 65
0100
0000
0100
1000
0000
1000
0001
0000
0000
0100
0000
0010
,  // measure 66
1000
0000
0000
0100
0000
0010
0001
0000
0000
0100
0000
0010
,  // measure 67
1000
1100
1001
0101
,  // measure 68
0011
0010
0110
0100
,  // measure 69
1100
0000
1000
0001
0000
0000
0100
0000
,  // measure 70
0110
0000
1010
0000
,  // measure 71
0101
0000
0011
0000
,  // measure 72
2002
3000
0003
0000
,  // measure 73
1000
0000
0010
0000
1000
0001
1000
0000
0000
0000
0001
0000
0100
0000
0001
0000
1000
0001
1000
0000
0000
0000
0100
0000
,  // measure 74
1000
0000
0010
0000
1000
0000
0001
0000
0010
0000
0100
0000
0010
0000
0001
0000
0100
0010
1000
0000
0001
0000
0010
0000
,  // measure 75
0001
0000
1000
0000
0100
0000
1000
0000
0010
0000
0100
0000
0001
0000
0010
0000
0100
0000
0010
0000
0000
0000
0001
0010
,  // measure 76
0001
0000
0000
0000
0010
0100
0010
0000
0000
0000
0100
1000
0100
0000
0000
0000
0000
0000
1001
0000
0000
0000
1000
0010
,  // measure 77
1000
0000
0010
0000
1000
0000
0001
1000
0000
0000
0001
0000
0010
0000
0100
0000
1000
0000
0001
0100
0000
0000
0010
0000
,  // measure 78
1000
0100
1000
0001
0010
0100
1000
0001
1000
0010
0000
1000
,  // measure 79
0010
0000
0100
0000
0001
0000
1000
0000
0100
0000
1000
0000
0001
1000
0001
0000
0100
0000
0010
0000
0000
0000
1000
0010
,  // measure 80
1000
0000
0000
0000
0010
0100
0010
0000
0000
0000
0100
0001
1000
0000
0000
0000
0000
0000
0000
0000
0000
0000
0000
0000
;
