#VERSION:0.83;
#TITLE:Space Time;
#SUBTITLE:;
#ARTIST:S3RL feat. Riddle Anne;
#TITLETRANSLIT:;
#SUBTITLETRANSLIT:;
#ARTISTTRANSLIT:;
#GENRE:;
#ORIGIN:;
#CREDIT:;
#BANNER:Space Time.png;
#BACKGROUND:Space Time-bg.png;
#PREVIEWVID:;
#JACKET:Space Time-jacket.png;
#CDIMAGE:;
#DISCIMAGE:;
#LYRICSPATH:;
#CDTITLE:;
#MUSIC:Space Time.ogg;
#OFFSET:-10.328995;
#SAMPLESTART:88.448975;
#SAMPLELENGTH:11.142853;
#SELECTABLE:YES;
#BPMS:0.000=175.000,
164.000=87.500,
180.000=175.000;
#STOPS:;
#DELAYS:;
#WARPS:;
#TIMESIGNATURES:0.000=4=4;
#TICKCOUNTS:0.000=4;
#COMBOS:0.000=1;
#SPEEDS:0.000=1.000=0.000=0;
#SCROLLS:0.000=1.000;
#FAKES:;
#LABELS:0.000=Song Start;
#BGCHANGES:;
#KEYSOUNDS:;
#ATTACKS:
;

//---------------dance-single - ----------------
#NOTEDATA:;
#CHARTNAME:;
#STEPSTYPE:dance-single;
#DESCRIPTION:;
#CHARTSTYLE:;
#DIFFICULTY:Hard;
#METER:8;
#RADARVALUES:0.452683,0.691470,0.193111,0.122889,0.087778,361.000000,339.000000,22.000000,14.000000,0.000000,0.000000,0.000000,0.000000,0.000000,0.452683,0.691470,0.193111,0.122889,0.087778,361.000000,339.000000,22.000000,14.000000,0.000000,0.000000,0.000000,0.000000,0.000000;
#CREDIT:;
#NOTES:
// measure 0
0000
0000
0000
0000
,  // measure 1
1000
0000
0011
0000
,  // measure 2
0001
0000
1100
0000
,  // measure 3
1000
0000
0000
0000
0001
0100
0000
0000
,  // measure 4
0001
0000
1010
0000
,  // measure 5
1000
0000
0001
0000
,  // measure 6
0100
0020
0000
0030
,  // measure 7
1000
0000
0010
0000
0100
0010
1000
0100
,  // measure 8
0020
0000
0000
0000
,  // measure 9
0031
1000
0100
1000
,  // measure 10
0001
0010
0001
1000
,  // measure 11
0010
1000
0001
0010
,  // measure 12
0001
0100
0001
1000
,  // measure 13
0100
1000
0010
1000
,  // measure 14
0010
0100
0010
0100
,  // measure 15
0001
0100
0001
0100
,  // measure 16
0010
0100
0010
0100
,  // measure 17
0001
0000
1000
0000
0010
0100
0010
0100
,  // measure 18
0010
0000
0100
0000
0001
1000
0001
1000
,  // measure 19
0010
0000
0100
0000
0010
0100
0010
0100
,  // measure 20
0001
0000
1000
0000
0001
1000
0001
1000
,  // measure 21
0010
0000
0100
0000
0010
1000
0100
1000
,  // measure 22
0001
0000
2000
0000
0000
0000
3000
0010
,  // measure 23
0100
0000
0100
0000
0010
0100
0001
1000
,  // measure 24
0002
0000
0000
0003
,  // measure 25
1010
0000
1010
0000
1000
0010
0100
0001
,  // measure 26
0010
0000
0010
0000
0100
0010
0001
1000
,  // measure 27
0001
0100
0001
0000
1000
0000
0100
0000
,  // measure 28
1000
0000
0000
0000
0001
0000
0000
0000
0100
0000
0000
0100
0000
0000
0100
0000
,  // measure 29
0010
0000
1000
0000
0001
0010
0001
1000
,  // measure 30
0100
0100
1000
0000
0100
0010
0001
1000
,  // measure 31
0001
0000
0001
0100
0001
0010
0100
1000
,  // measure 32
0001
0000
1000
0000
0010
0100
0001
0010
,  // measure 33
0100
0010
0011
1100
,  // measure 34
0001
0100
0020
0000
1030
1000
0200
0000
,  // measure 35
0310
0000
0010
0000
0010
0001
0100
0010
,  // measure 36
0000
0000
0000
0000
0010
0000
0000
0000
0010
0000
0000
0010
0000
0000
0010
0000
,  // measure 37
1000
0000
0100
0000
0010
0001
0100
0010
,  // measure 38
1000
0000
0100
0000
1000
0010
0100
0001
,  // measure 39
1000
0000
1000
0000
0001
0100
1000
0100
,  // measure 40
0020
0000
0000
0000
0000
0100
0100
0130
,  // measure 41
0001
0000
1000
0000
0010
0000
0000
1000
0010
0000
0000
0010
0100
0000
0001
0000
,  // measure 42
1000
0000
0000
0000
0000
0000
0001
0000
1000
0000
0000
0000
0000
0000
0100
0000
1000
0000
0000
0000
0001
0000
0000
0000
0100
0000
0000
0010
0000
0000
1000
0000
,  // measure 43
0001
0000
0000
0000
0000
0000
1000
0000
0100
0000
0000
0000
0100
0000
0000
0000
2000
0000
0000
0000
3001
0000
0100
0000
0010
0000
0000
1000
0000
0000
0100
0000
,  // measure 44
1000
0000
0000
0001
0100
0100
0010
1000
0001
0000
0000
1000
0001
1000
0100
0010
,  // measure 45
0001
1000
0010
1000
,  // measure 46
0100
0010
0002
0000
1003
0001
0010
0001
,  // measure 47
1000
0000
0001
0000
0100
0010
1000
0100
,  // measure 48
0000
0000
0000
0000
0100
0000
0000
0000
0100
0000
0000
0100
0000
0000
0100
0000
,  // measure 49
0010
0000
0001
0000
0100
0010
1000
0001
,  // measure 50
0010
0000
0000
0000
0100
0000
0000
0000
0010
0000
0000
0001
0000
0000
1000
0000
,  // measure 51
0001
0000
0001
0000
1000
0001
0010
0001
,  // measure 52
2000
0000
0000
0000
0000
0000
3000
0001
,  // measure 53
0100
0000
0101
0000
0001
1000
0100
0010
,  // measure 54
0100
1100
1000
1001
,  // measure 55
0001
0000
0100
0000
0010
1000
0100
1000
,  // measure 56
0001
0010
0001
0100
,  // measure 57
0010
0000
1010
0000
1000
0100
1000
0001
,  // measure 58
0010
0011
0001
1001
,  // measure 59
1000
0000
0101
0000
0001
0100
0010
1000
,  // measure 60
0200
0310
0100
1000
,  // measure 61
0101
0000
1100
0000
0100
0010
0001
1000
,  // measure 62
0010
1010
1000
1001
,  // measure 63
0001
0000
0101
0000
0001
0100
0001
1000
,  // measure 64
0200
0320
0031
1000
,  // measure 65
0010
0000
1001
0000
1000
0001
0100
0001
,  // measure 66
0010
0000
0011
0000
0001
0000
1001
1000
,  // measure 67
0100
0000
1000
0000
0010
0100
0001
1000
,  // measure 68
0200
0000
0300
0000
;

//---------------dance-single - ----------------
#NOTEDATA:;
#CHARTNAME:;
#STEPSTYPE:dance-single;
#DESCRIPTION:;
#CHARTSTYLE:;
#DIFFICULTY:Medium;
#METER:5;
#RADARVALUES:0.337318,0.360767,0.008778,0.087778,0.000000,269.000000,268.000000,1.000000,10.000000,0.000000,0.000000,0.000000,0.000000,0.000000,0.337318,0.360767,0.008778,0.087778,0.000000,269.000000,268.000000,1.000000,10.000000,0.000000,0.000000,0.000000,0.000000,0.000000;
#CREDIT:;
#NOTES:
// measure 0
0000
0000
0000
0000
,  // measure 1
1000
0000
0010
0000
,  // measure 2
0100
0000
0010
0000
,  // measure 3
1000
0000
0000
0000
0001
0010
0000
0010
,  // measure 4
0001
0000
1000
0000
,  // measure 5
0001
0000
0100
0000
,  // measure 6
0001
0000
0010
0000
,  // measure 7
0001
0000
1000
0100
,  // measure 8
0020
0000
0000
0030
,  // measure 9
0010
0010
0100
0100
,  // measure 10
0001
0100
0001
0100
,  // measure 11
0010
0010
1000
1000
,  // measure 12
0100
1000
0100
0010
,  // measure 13
0001
0001
1000
1000
,  // measure 14
0010
0100
0010
0100
,  // measure 15
0001
0001
0100
0100
,  // measure 16
0010
1000
0010
1000
,  // measure 17
0001
1000
0100
0100
,  // measure 18
1000
0001
0010
0010
,  // measure 19
0001
1000
0100
0100
,  // measure 20
1000
0001
0010
0010
,  // measure 21
0001
1000
0010
0100
,  // measure 22
0001
0000
0011
0000
0000
0000
0000
1000
,  // measure 23
0010
0000
0100
0000
0010
0100
0001
1000
,  // measure 24
0020
0000
0000
0030
,  // measure 25
0100
0000
0001
0000
0010
0001
0010
0000
,  // measure 26
0100
0000
1000
0000
0100
1000
0100
0000
,  // measure 27
1000
0000
0001
0000
0100
0001
0100
0000
,  // measure 28
0001
0000
0100
0000
0010
1000
0010
0000
,  // measure 29
1000
0000
0100
0000
0010
0100
0010
0000
,  // measure 30
0001
0000
0010
0000
0100
0010
0100
0000
,  // measure 31
0010
0000
0001
0000
1000
0001
1000
0000
,  // measure 32
0001
0000
0100
0000
0010
1000
0010
0000
,  // measure 33
1000
0000
0010
0000
0100
0010
1000
0000
,  // measure 34
0001
1000
0200
0000
2300
0000
3020
0000
,  // measure 35
0130
0001
0100
0000
0010
0000
1000
0010
,  // measure 36
0100
0100
0010
0010
,  // measure 37
1000
0000
0001
0000
0010
0001
0010
0000
,  // measure 38
0100
0000
1000
0000
0100
1000
0100
0000
,  // measure 39
1000
0000
0010
0000
0100
0010
1000
0001
,  // measure 40
0200
0000
0000
0300
,  // measure 41
0010
1000
0100
1000
,  // measure 42
0001
0100
0010
0100
,  // measure 43
0001
1000
0100
1000
,  // measure 44
0010
0100
0001
0010
,  // measure 45
0001
0100
0001
0001
,  // measure 46
1000
0010
1000
0000
0020
0000
0230
0000
,  // measure 47
0301
0000
1000
0000
0100
0000
1000
0100
,  // measure 48
0000
0100
1000
1000
,  // measure 49
0010
0000
0100
0000
0001
0100
0010
0000
,  // measure 50
0100
0000
0010
0000
1000
0010
0100
0000
,  // measure 51
0010
0000
0100
0000
0010
0100
0001
1000
,  // measure 52
0020
0000
0000
0000
0000
0000
0000
1030
,  // measure 53
0001
0000
1000
0000
0010
1000
0010
1000
,  // measure 54
0010
1000
0000
0000
,  // measure 55
0001
0000
0100
0000
0010
0100
0001
1000
,  // measure 56
0010
0000
0000
0000
,  // measure 57
0100
0000
0001
0000
0100
0001
0100
0001
,  // measure 58
0100
0010
0000
0000
,  // measure 59
0100
0000
0010
0000
0100
0010
1000
0100
,  // measure 60
0010
0000
0000
0000
,  // measure 61
0100
0000
0010
0000
0100
0010
0001
1000
,  // measure 62
0001
1000
0000
0000
,  // measure 63
0001
0000
0100
0000
0010
1000
0010
1000
,  // measure 64
0100
0000
0000
0000
,  // measure 65
0010
0000
0100
0000
0010
0001
0010
0100
,  // measure 66
1000
0100
0000
0000
,  // measure 67
0010
0000
0001
0000
0100
0010
1000
0001
,  // measure 68
0200
0000
0300
0000
;

//---------------dance-single - ----------------
#NOTEDATA:;
#CHARTNAME:;
#STEPSTYPE:dance-single;
#DESCRIPTION:;
#CHARTSTYLE:;
#DIFFICULTY:Easy;
#METER:3;
#RADARVALUES:0.237000,0.270575,0.000000,0.087778,0.000000,189.000000,189.000000,0.000000,10.000000,0.000000,0.000000,0.000000,0.000000,0.000000,0.237000,0.270575,0.000000,0.087778,0.000000,189.000000,189.000000,0.000000,10.000000,0.000000,0.000000,0.000000,0.000000,0.000000;
#CREDIT:;
#NOTES:
// measure 0
0000
0000
0000
0000
,  // measure 1
1000
0000
1000
0000
,  // measure 2
0001
0000
0001
0000
,  // measure 3
0100
0000
0010
0000
,  // measure 4
0100
0000
0000
0000
,  // measure 5
0010
0000
1000
0000
,  // measure 6
0001
0000
0000
0000
,  // measure 7
1000
0000
0001
0000
,  // measure 8
0200
0000
0000
0300
,  // measure 9
0010
0000
1000
0000
,  // measure 10
0100
0000
1000
0000
,  // measure 11
0001
0000
0010
0000
,  // measure 12
0001
0000
1000
0001
,  // measure 13
1000
0000
0010
0000
,  // measure 14
1000
0000
0100
0000
,  // measure 15
1000
0000
0001
0000
,  // measure 16
0010
0000
0100
0010
,  // measure 17
0001
0000
1000
0000
,  // measure 18
0010
0000
1000
0000
,  // measure 19
0100
0000
1000
0000
,  // measure 20
0001
0000
0100
0000
,  // measure 21
0010
0100
0001
1000
,  // measure 22
0001
0001
0000
0000
,  // measure 23
1000
0001
0100
0010
,  // measure 24
0200
0000
0000
0300
,  // measure 25
0001
0001
1000
0001
,  // measure 26
1000
1000
0001
1000
,  // measure 27
0010
0010
0100
0010
,  // measure 28
0100
0010
1000
0010
,  // measure 29
0100
0100
0001
0010
,  // measure 30
0100
0100
0010
0001
,  // measure 31
1000
1000
0001
1000
,  // measure 32
0010
0010
1000
0010
,  // measure 33
0100
0001
0010
0001
,  // measure 34
1000
1000
0001
0001
,  // measure 35
1000
0010
0100
0001
,  // measure 36
0010
0000
0010
0000
,  // measure 37
0100
0100
0010
0001
,  // measure 38
1000
1000
0001
0100
,  // measure 39
0010
1000
0010
0100
,  // measure 40
0002
0000
0000
0003
,  // measure 41
1000
0001
0010
0001
,  // measure 42
1000
0100
1000
0001
,  // measure 43
1000
0010
1000
0001
,  // measure 44
0100
0010
1000
0010
,  // measure 45
0100
0000
0001
0000
,  // measure 46
0010
0001
1000
0100
,  // measure 47
1000
0000
0001
0000
,  // measure 48
0100
0000
0010
0000
,  // measure 49
1000
0000
0010
0010
,  // measure 50
0100
0000
0001
0001
,  // measure 51
1000
0000
0001
1000
,  // measure 52
0020
0000
0000
0030
,  // measure 53
1000
0010
0100
0001
,  // measure 54
0010
0010
0000
0000
,  // measure 55
0100
0010
0001
1000
,  // measure 56
0002
0000
0003
0000
,  // measure 57
1000
0001
0100
0001
,  // measure 58
0010
0010
0000
0000
,  // measure 59
0100
0010
0001
1000
,  // measure 60
2000
0000
3000
0000
,  // measure 61
0001
1000
0010
1000
,  // measure 62
0100
0200
0000
0300
,  // measure 63
0010
0001
0010
0001
,  // measure 64
2000
0000
0000
3000
,  // measure 65
0001
0100
0001
0010
,  // measure 66
0100
2000
0000
3000
,  // measure 67
0100
0010
0001
1000
,  // measure 68
0020
0000
0030
0000
;

//---------------dance-single - ----------------
#NOTEDATA:;
#CHARTNAME:;
#STEPSTYPE:dance-single;
#DESCRIPTION:;
#CHARTSTYLE:;
#DIFFICULTY:Beginner;
#METER:1;
#RADARVALUES:0.114111,0.149222,0.017556,0.000000,0.000000,91.000000,89.000000,2.000000,0.000000,0.000000,0.000000,0.000000,0.000000,0.000000,0.114111,0.149222,0.017556,0.000000,0.000000,91.000000,89.000000,2.000000,0.000000,0.000000,0.000000,0.000000,0.000000,0.000000;
#CREDIT:;
#NOTES:
// measure 0
0000
0000
0000
0000
,  // measure 1
1000
0000
0000
0000
,  // measure 2
1000
0000
0000
0000
,  // measure 3
0001
0000
0000
0000
,  // measure 4
0001
0000
0000
0000
,  // measure 5
0100
0000
0000
0000
,  // measure 6
0100
0000
0000
0000
,  // measure 7
0010
0000
0010
0000
,  // measure 8
0010
0000
0000
0000
,  // measure 9
1000
0000
0000
0000
,  // measure 10
0001
0000
0000
0000
,  // measure 11
0100
0000
0000
0000
,  // measure 12
0010
0000
0000
0000
,  // measure 13
1000
0000
0000
0000
,  // measure 14
1000
0000
0000
0000
,  // measure 15
0001
0000
0000
0000
,  // measure 16
0010
0000
0000
0000
,  // measure 17
0001
0001
0000
0000
,  // measure 18
1000
1000
0000
0000
,  // measure 19
0010
0010
0000
0000
,  // measure 20
0100
0100
0000
0000
,  // measure 21
0010
0000
0000
0000
,  // measure 22
1000
0000
0000
0000
,  // measure 23
0001
0000
1000
0000
,  // measure 24
0010
0000
0000
0000
,  // measure 25
1001
0000
0000
0000
,  // measure 26
1000
0000
0000
0000
,  // measure 27
0001
0000
0000
0000
,  // measure 28
0100
0000
0000
0000
,  // measure 29
0010
0000
0000
0000
,  // measure 30
0100
0000
0000
0000
,  // measure 31
0001
0000
0000
0000
,  // measure 32
1000
0000
0000
0000
,  // measure 33
0100
0000
0000
0000
,  // measure 34
1000
0000
0001
0000
,  // measure 35
1000
0000
0000
0000
,  // measure 36
0010
0000
0000
0000
,  // measure 37
1000
0000
0000
0000
,  // measure 38
0100
0000
0000
0000
,  // measure 39
1000
0000
0001
0000
,  // measure 40
0100
0000
0000
0000
,  // measure 41
0010
0000
0100
0000
,  // measure 42
0001
0000
1000
0000
,  // measure 43
0100
0000
1000
0000
,  // measure 44
0001
0000
0100
0000
,  // measure 45
0010
0000
0000
0000
,  // measure 46
1000
0000
0000
0000
,  // measure 47
0001
0000
0000
0000
,  // measure 48
0010
0000
0000
0000
,  // measure 49
0001
0000
0000
0000
,  // measure 50
1000
0000
0000
0000
,  // measure 51
0010
0000
0100
0000
,  // measure 52
0010
0000
0000
0000
,  // measure 53
1001
0000
1000
0000
,  // measure 54
1000
0000
0000
0000
,  // measure 55
0001
0000
0001
0000
,  // measure 56
0001
0000
0000
0000
,  // measure 57
0100
0000
0100
0000
,  // measure 58
0100
0000
0000
0000
,  // measure 59
0010
0000
0010
0000
,  // measure 60
0010
0000
0000
0000
,  // measure 61
1000
0000
0001
0000
,  // measure 62
1000
0000
0000
0000
,  // measure 63
0010
0000
0100
0000
,  // measure 64
0010
0000
0000
0000
,  // measure 65
1000
0000
0010
0000
,  // measure 66
1000
0000
0000
0000
,  // measure 67
0001
0000
0100
0000
,  // measure 68
0001
0000
0000
0000
;
