#VERSION:0.83;
#TITLE:Sound Without A Name;
#SUBTITLE:;
#ARTIST:Darren Styles;
#TITLETRANSLIT:;
#SUBTITLETRANSLIT:;
#ARTISTTRANSLIT:;
#GENRE:;
#ORIGIN:;
#CREDIT:;
#BANNER:Sound Without A Name.png;
#BACKGROUND:Sound Without A Name-bg.png;
#PREVIEWVID:;
#JACKET:Sound Without A Name-jacket.png;
#CDIMAGE:;
#DISCIMAGE:;
#LYRICSPATH:;
#CDTITLE:;
#MUSIC:Sound Without A Name.ogg;
#OFFSET:1.411000;
#SAMPLESTART:93.176239;
#SAMPLELENGTH:22.588234;
#SELECTABLE:YES;
#BPMS:0.000=170.000;
#STOPS:;
#DELAYS:;
#WARPS:;
#TIMESIGNATURES:0.000=4=4;
#TICKCOUNTS:0.000=4;
#COMBOS:0.000=1;
#SPEEDS:0.000=1.000=0.000=0;
#SCROLLS:0.000=1.000;
#FAKES:;
#LABELS:0.000=Song Start;
#BGCHANGES:4.000=Sound Without A NameBGA.avi=1.000=0=0=1=====,
99999=-nosongbg-=1.000=0=0=0 // don't automatically add -songbackground-
;
#KEYSOUNDS:;
#ATTACKS:
;

//---------------dance-single - ----------------
#NOTEDATA:;
#CHARTNAME:;
#STEPSTYPE:dance-single;
#DESCRIPTION:;
#CHARTSTYLE:;
#DIFFICULTY:Hard;
#METER:7;
#RADARVALUES:0.442329,0.474121,0.096759,0.161266,0.116918,384.000000,372.000000,12.000000,20.000000,0.000000,0.000000,0.000000,0.000000,0.000000,0.442329,0.474121,0.096759,0.161266,0.116918,384.000000,372.000000,12.000000,20.000000,0.000000,0.000000,0.000000,0.000000,0.000000;
#CREDIT:;
#NOTES:
0000
0000
0000
0000
,
0000
0000
0000
0000
,
0000
0000
0000
0000
,
1001
0000
0000
0000
0000
0000
0000
0001
,
0100
0000
0000
0000
0001
1000
0000
0001
,
0000
0001
0000
0000
0000
0000
0000
1000
,
0001
0000
0000
0000
0001
0100
0000
0010
,
0000
0010
0000
0000
0000
0000
0000
0100
,
0001
0000
0000
0000
0010
1000
0000
0001
,
0000
0001
0000
0000
0000
0000
0000
0001
,
1000
0000
0001
0010
0000
0100
0000
1000
,
0000
0001
0000
0000
0000
0000
0000
0010
,
0100
0000
0000
0000
1000
0010
0000
0100
,
0000
0010
0000
0000
0000
0000
0000
0100
,
0010
0000
0000
0000
0001
1000
0000
0100
,
0000
1000
0000
0000
0000
0000
0000
0100
,
0010
0000
0000
0000
1000
0001
0000
0010
,
0000
0001
0000
0000
0000
0000
0000
1000
,
0100
0000
0001
0100
0000
0010
0000
1000
,
0001
0100
0001
1000
,
0100
0000
0000
0000
0010
0000
0000
0000
0001
0000
0000
0000
0010
0000
0000
0100
,
1000
0100
0010
0100
,
1000
0001
1000
0001
,
1000
0010
1000
0000
0010
0000
0100
0000
,
0001
0100
0001
0000
0100
0000
0010
0000
,
1000
0001
1000
0000
0100
0010
0100
0000
,
0002
0000
0000
0020
0000
0000
0033
0000
,
1001
0000
1000
0010
0100
0000
0010
0000
,
1000
0000
0010
0100
0000
0100
0010
0000
,
0110
0000
0010
1000
0001
0000
0010
0000
,
0100
0000
1000
0001
0000
0001
1000
0000
,
1001
0000
0001
1000
0010
0000
0100
0000
,
0001
0000
0010
0100
0000
0100
1000
0000
,
1100
0000
1000
0010
0100
0000
0001
0000
,
0011
0000
0010
0100
1000
0000
0001
0000
,
1001
0000
0001
0100
0010
0000
1000
0000
,
0001
0000
0010
0100
0000
0100
1000
0000
,
1100
0000
0100
1000
0010
0000
0100
0000
,
0001
0000
0100
0010
0000
0010
1000
0000
,
1001
0000
0001
0010
0100
0000
0010
0000
,
0100
0000
1000
0100
0000
0010
0001
0000
,
1001
0000
0001
1000
0010
0000
1000
0000
,
0001
0000
1000
0001
0100
0000
0010
0000
,
1010
0000
0000
0101
0000
0000
0000
0001
,
1000
0000
0001
1000
0000
0000
0001
2000
,
0000
0000
0000
0000
0000
3000
0000
0010
,
0100
0000
0010
0100
0000
0000
0010
0200
,
0000
0000
0000
0000
0000
0300
0000
0001
,
0100
0000
0010
1000
0000
0000
1000
0002
,
1000
0000
0000
1000
0000
0000
0003
0000
,
0010
0000
0000
0001
0000
0000
0000
0000
,
2000
3100
2000
3001
,
2000
0000
3010
0000
1000
0100
0010
0001
,
0020
0031
0020
0130
,
0020
0000
0031
0000
0010
0100
1000
0010
,
0200
1300
0200
0310
,
0200
1300
0200
0310
,
0200
1300
0200
0310
,
2000
3010
0200
0301
,
1000
0100
1000
0010
,
0100
0000
0001
0000
1000
0100
0001
0100
,
1000
0010
0100
0001
,
0100
0000
0010
0000
1000
0010
0001
0010
,
1000
0010
1000
0000
0001
0100
0001
0000
,
0010
0001
0010
0000
0100
1000
0100
0000
,
1000
0100
0001
0000
0001
0100
1000
0000
,
0001
1000
0010
0000
0100
0001
0010
0100
,
1000
0000
0000
0001
0000
0000
0100
0000
0010
0000
0000
1000
0000
0000
0010
0000
,
0100
0000
0000
0001
0000
0000
1000
0000
0100
0000
1000
0000
0001
0000
0010
0000
,
0100
0000
0000
0010
0000
0000
0100
0000
1000
0000
0000
0010
0000
0000
0100
0000
,
0001
0000
0000
1000
0000
0000
0001
0000
0100
0000
0001
0000
1000
0000
0010
0000
,
0100
0000
0000
0001
0000
0000
0010
0000
0100
0000
0000
1000
0000
0000
0100
0000
,
0010
0000
0000
0100
0000
0000
1000
0000
0010
0000
0000
0100
0000
0000
0001
0000
,
0100
0000
0000
0010
0000
0000
0100
0000
0001
0000
0000
1000
0000
0000
0100
0000
,
0010
0000
0000
0100
0000
0000
1000
0000
0001
0000
0000
0100
0000
0000
0010
0000
,
1000
0000
0000
0001
0000
0000
0010
0000
0010
0000
0000
0100
0000
0000
1000
0000
,
1000
0000
0000
0100
0000
0000
1000
0000
0001
0000
0100
0000
0001
0000
0010
0000
,
0100
0000
0000
0010
0000
0000
0001
0000
0001
0000
0000
1000
0000
0000
0010
0000
,
0010
0000
0000
0100
0000
0000
0001
0000
1000
0000
0100
0000
0001
0000
0100
0000
,
0010
0000
0000
0100
0000
0000
1000
0000
1000
0000
0000
0001
0000
0000
0100
0000
,
0100
0000
0000
0001
0000
0000
1000
0000
1000
0000
0000
0010
0000
0000
0100
0000
,
0100
0000
0000
0001
0000
0000
0010
0000
0010
0000
0000
0100
0000
0000
1000
0000
,
1000
0000
0000
0010
0000
0000
0100
0000
0100
0000
0000
0001
0000
0000
1000
0000
,
0020
0000
0000
0000
,
0130
0000
0000
0000
;

//---------------dance-single - ----------------
#NOTEDATA:;
#CHARTNAME:;
#STEPSTYPE:dance-single;
#DESCRIPTION:;
#CHARTSTYLE:;
#DIFFICULTY:Medium;
#METER:6;
#RADARVALUES:0.335202,0.507987,0.137076,0.177392,0.000000,291.000000,274.000000,17.000000,22.000000,0.000000,0.000000,0.000000,0.000000,0.000000,0.335202,0.507987,0.137076,0.177392,0.000000,291.000000,274.000000,17.000000,22.000000,0.000000,0.000000,0.000000,0.000000,0.000000;
#CREDIT:;
#NOTES:
0000
0000
0000
0000
,
0000
0000
0000
0000
,
0000
0000
0000
0000
,
1001
0000
0000
0000
,
1000
0000
0000
0000
0001
0000
0000
0100
,
0000
0100
0000
0000
0000
0000
0000
0000
,
1000
0000
0000
0000
0010
0000
0000
0100
,
0000
0100
0000
0000
0000
0000
0000
0000
,
0001
0000
0000
0000
0010
0000
0000
0100
,
0000
0100
0000
0000
0000
0000
0000
0000
,
0010
0000
0000
0001
0000
1000
0000
0010
,
0000
0100
0000
0000
0000
0000
0000
0000
,
0010
0000
0000
0000
0100
0000
0000
0001
,
0000
0001
0000
0000
0000
0000
0000
0000
,
1000
0000
0000
0000
0100
0000
0000
0010
,
0000
0100
0000
0000
0000
0000
0000
0000
,
1000
0000
0000
0000
0010
0000
0000
0100
,
0000
0001
0000
0000
0000
0000
0000
0000
,
1000
0000
0000
0001
0000
0100
0000
0010
,
1000
0010
1000
0010
,
0100
0001
0100
0001
,
0010
0100
0010
0100
,
1000
0001
0100
0001
,
1000
0100
1000
0000
0100
0000
0010
0000
,
0001
0100
0001
0000
0100
0000
0010
0000
,
1000
0001
1000
0000
0001
1000
0001
0000
,
0200
0000
0000
0020
0000
0000
0330
0000
,
1001
0000
0001
0100
0000
0000
0000
0000
,
0010
0000
1000
0020
0000
0000
0100
0200
,
0000
0000
0000
0330
,
0010
0000
0100
0002
0000
0000
1000
2000
,
0000
0000
0000
3003
,
0001
0000
0010
0200
0000
0000
0010
0020
,
0000
0000
0000
0000
0000
0000
0330
0010
,
0001
0000
0001
2000
0000
0000
0001
3001
,
1000
0000
1000
0010
0100
0000
0000
0001
,
0200
0000
0310
2000
0000
0000
3001
2000
,
0001
0000
0000
0001
0000
0000
3000
0010
,
1000
0000
1000
0020
0000
0000
0130
0010
,
2000
0000
0000
3010
0000
0000
0000
0100
,
0001
0000
1000
0020
0000
0000
0130
0010
,
2000
0000
0000
3001
0000
0000
0000
0100
,
0010
0000
1000
0001
0000
0000
1000
0001
,
0200
0000
0000
0301
0000
0000
0000
0001
,
1000
0000
1000
0100
0000
0000
0100
1000
,
0020
0000
0000
0130
0000
0000
0000
0100
,
0001
0000
0001
1000
0000
0000
0001
1000
,
0020
0000
0000
1030
0000
0000
0000
1000
,
0010
0000
0100
0001
0000
0000
0001
1000
,
0020
0000
0000
0130
0000
0000
0000
0000
,
0200
0000
0000
0310
0000
0000
0000
0000
,
1000
0000
1000
0000
,
1000
0000
1000
0010
,
0100
0000
0100
0000
,
0100
0000
0100
0001
,
0010
0000
0010
0000
,
0010
0000
0010
0000
,
0010
0000
0010
0000
,
0100
0000
1000
0000
,
0100
0000
1000
0000
,
0010
0000
0100
0001
,
1000
0000
1000
0000
,
1000
0000
0001
1000
,
0010
0000
0100
0000
,
0001
0000
1000
0000
,
0001
0100
0010
1000
,
0001
1000
0100
1000
,
1010
0010
0110
0100
,
0101
0000
0001
0000
1000
0001
1000
0001
,
1000
1100
0100
0110
,
0010
0000
0011
0000
0001
0100
0001
1000
,
0100
1100
0100
0110
,
0010
0011
0001
1001
,
1000
1010
0010
0110
,
0100
0101
0001
1001
,
0001
0000
1000
0010
1000
0000
0010
0100
,
0010
0000
0100
0001
0100
0000
0001
0000
,
1000
0000
0100
1000
0100
0000
0010
0100
,
0010
0000
0001
0010
0001
0000
1001
0000
,
0001
0000
1000
0010
1000
0000
0010
0100
,
0010
0000
0100
0001
0100
0000
0001
1000
,
0010
1000
0010
0100
,
0001
0100
0010
1000
,
0002
0000
0000
0000
,
0013
0000
0000
0000
;

//---------------dance-single - ----------------
#NOTEDATA:;
#CHARTNAME:;
#STEPSTYPE:dance-single;
#DESCRIPTION:;
#CHARTSTYLE:;
#DIFFICULTY:Easy;
#METER:3;
#RADARVALUES:0.216557,0.304792,0.008063,0.048380,0.000000,188.000000,187.000000,1.000000,6.000000,0.000000,0.000000,0.000000,0.000000,0.000000,0.216557,0.304792,0.008063,0.048380,0.000000,188.000000,187.000000,1.000000,6.000000,0.000000,0.000000,0.000000,0.000000,0.000000;
#CREDIT:;
#NOTES:
0000
0000
0000
0000
,
0000
0000
0000
0000
,
0000
0000
0000
0000
,
0000
0000
0000
0000
,
0001
0000
1000
0000
,
0100
0000
0000
0000
,
1000
0000
0001
0000
,
0100
0000
0000
0000
,
0001
0000
1000
0000
,
0010
0000
0000
0000
,
0100
0000
0001
0000
,
1000
0000
0000
0000
,
0010
0000
0100
0000
,
0001
0001
0000
0000
,
1000
0000
0010
0000
,
1000
1000
0000
0000
,
0001
0000
1000
0000
,
0100
0100
0000
0000
,
0010
0010
0000
0000
,
0100
0010
0100
0000
,
0010
0001
0010
0000
,
0001
1000
0001
0000
,
1000
0010
1000
0000
,
0010
0000
0100
0000
,
0001
0000
1000
0000
,
0001
0100
0010
1000
,
0002
0000
0000
0003
,
1001
0000
0001
0000
,
1000
0100
1000
0010
,
0100
0000
0001
0000
,
0010
0100
0010
0001
,
1000
0000
0001
0000
,
1000
0100
1000
0010
,
0100
0000
0001
0000
,
0010
0000
0100
0000
,
1000
0100
0010
0000
,
0100
0000
0010
0000
,
0001
1000
0100
0000
,
1000
0000
0010
0000
,
0100
0001
0010
0000
,
0100
0000
0010
0000
,
0001
1000
0010
0000
,
0100
0010
1000
0000
,
0002
0000
0000
0003
,
1000
0000
0010
0000
,
0200
0000
0000
0300
,
0010
0000
0100
0000
,
0002
0000
0000
0003
,
1000
0000
0001
0000
,
0200
0000
0000
0300
,
0010
0000
0000
0000
,
1000
0000
1000
0000
,
1000
0000
1000
0010
,
0100
0000
0100
0000
,
0100
0000
0010
0100
,
0001
0000
0001
0000
,
0001
0000
0001
0000
,
0001
0000
0001
0000
,
0010
0000
0001
0000
,
1000
0000
0001
0000
,
1000
0000
0001
1000
,
0010
0000
0100
0000
,
0010
0000
0100
0010
,
1000
0000
0001
0000
,
0100
0000
0001
0000
,
0010
0000
0001
0000
,
1000
0000
0100
0000
,
1000
0000
0010
0000
,
0100
0000
0010
0100
,
0001
0000
0010
0000
,
1000
0000
0010
0100
,
1000
0000
0100
0000
,
0001
0000
0100
0000
,
1000
0000
0010
0000
,
0100
0000
0001
0000
,
1000
0100
1000
0010
,
0100
0001
0010
0010
,
0001
1000
0010
0100
,
0001
0010
0100
0100
,
0010
0100
1000
0100
,
1000
0010
0100
0001
,
0100
0010
0100
0001
,
1000
0000
0001
0000
,
0200
0000
0000
0000
,
0310
0000
0000
0000
;

//---------------dance-single - ----------------
#NOTEDATA:;
#CHARTNAME:;
#STEPSTYPE:dance-single;
#DESCRIPTION:;
#CHARTSTYLE:;
#DIFFICULTY:Beginner;
#METER:2;
#RADARVALUES:0.134772,0.203195,0.048380,0.000000,0.000000,117.000000,111.000000,6.000000,0.000000,0.000000,0.000000,0.000000,0.000000,0.000000,0.134772,0.203195,0.048380,0.000000,0.000000,117.000000,111.000000,6.000000,0.000000,0.000000,0.000000,0.000000,0.000000,0.000000;
#CREDIT:;
#NOTES:
// measure 0
0000
0000
0000
0000
,  // measure 1
0000
0000
0000
0000
,  // measure 2
0000
0000
0000
0000
,  // measure 3
0000
0000
0000
0000
,  // measure 4
1000
0000
0000
0000
,  // measure 5
0001
0000
0000
0000
,  // measure 6
1000
0000
0000
0000
,  // measure 7
0100
0000
0000
0000
,  // measure 8
1000
0000
0000
0000
,  // measure 9
0010
0000
0000
0000
,  // measure 10
0100
0000
0100
0000
,  // measure 11
0010
0000
0000
0000
,  // measure 12
0100
0000
0000
0000
,  // measure 13
0001
0000
0000
0000
,  // measure 14
1000
0000
0000
0000
,  // measure 15
0001
0000
0000
0000
,  // measure 16
0010
0000
0000
0000
,  // measure 17
0001
0000
0000
0000
,  // measure 18
1000
0000
0000
0000
,  // measure 19
1001
0000
0000
0000
,  // measure 20
1000
0000
0000
0000
,  // measure 21
1001
0000
0000
0000
,  // measure 22
0001
0000
0000
0000
,  // measure 23
1001
0000
0000
0000
,  // measure 24
1001
0000
0000
0000
,  // measure 25
1001
0000
0000
0000
,  // measure 26
0000
0000
0000
0000
,  // measure 27
0010
0000
0000
0000
,  // measure 28
0100
0000
0100
0000
,  // measure 29
0100
0000
0000
0000
,  // measure 30
0010
0000
0010
0000
,  // measure 31
0010
0000
0000
0000
,  // measure 32
1000
0000
1000
0000
,  // measure 33
1000
0000
0000
0000
,  // measure 34
0001
0000
1000
0000
,  // measure 35
0001
0000
0000
0000
,  // measure 36
0100
0000
0100
0000
,  // measure 37
0100
0000
0000
0000
,  // measure 38
0010
0000
0010
0000
,  // measure 39
0010
0000
0000
0000
,  // measure 40
1000
0000
1000
0000
,  // measure 41
0001
0000
0000
0000
,  // measure 42
0100
0000
0010
0000
,  // measure 43
0100
0000
0000
0000
,  // measure 44
0001
0000
0000
0000
,  // measure 45
1000
0000
0000
0000
,  // measure 46
0100
0000
0000
0000
,  // measure 47
1000
0000
0000
0000
,  // measure 48
0001
0000
0000
0000
,  // measure 49
0100
0000
0000
0000
,  // measure 50
0010
0000
0000
0000
,  // measure 51
1000
0000
0000
0000
,  // measure 52
0000
0000
1000
1000
,  // measure 53
0001
0000
0000
0000
,  // measure 54
0000
0000
0001
0001
,  // measure 55
0010
0000
0000
0000
,  // measure 56
0000
0000
0000
0000
,  // measure 57
0010
0000
0000
0000
,  // measure 58
0100
0000
1000
0000
,  // measure 59
0010
0000
0000
0000
,  // measure 60
0010
0000
0000
0000
,  // measure 61
0100
0000
0000
0000
,  // measure 62
0100
0000
0000
0000
,  // measure 63
0001
0000
0000
0000
,  // measure 64
0001
0000
0000
0000
,  // measure 65
0001
0000
0000
0000
,  // measure 66
1000
0000
0001
0000
,  // measure 67
0010
0000
0010
0000
,  // measure 68
0010
0000
0010
0010
,  // measure 69
0001
0000
0001
0000
,  // measure 70
0001
0000
0001
0001
,  // measure 71
1000
0000
1000
0000
,  // measure 72
1000
0000
1000
0000
,  // measure 73
0010
0000
0010
0000
,  // measure 74
0100
0000
0010
0000
,  // measure 75
1000
0000
1000
0000
,  // measure 76
1000
0000
1000
1000
,  // measure 77
0010
0000
0010
0000
,  // measure 78
0010
0000
0010
0010
,  // measure 79
0100
0000
0100
0000
,  // measure 80
0100
0000
0100
0000
,  // measure 81
0001
0000
0001
0000
,  // measure 82
0010
0000
0001
0000
,  // measure 83
0000
0000
0000
0000
,  // measure 84
1001
0000
0000
0000
;
