#TITLE:Sol e Mar;
#SUBTITLE:;
#ARTIST:Massive New Krew;
#TITLETRANSLIT:;
#SUBTITLETRANSLIT:;
#ARTISTTRANSLIT:;
#GENRE:;
#CREDIT:;
#BANNER:Sol e Mar-bn.png;
#BACKGROUND:Sol e Mar-bg.png;
#LYRICSPATH:;
#CDTITLE:;
#MUSIC:Sol e Mar.mp3;
#OFFSET:1.564999;
#SAMPLESTART:14.431006;
#SAMPLELENGTH:13.200006;
#LASTBEATHINT:1.362498;
#SELECTABLE:YES;
#BPMS:0.000000=150.000000
,68.000000=300.000000
,71.000000=150.000000
,131.000000=300.000000
,133.000000=150.000000
,161.000000=300.000000
,165.000000=150.000000
,193.000000=300.000000
,197.000000=150.000000
;
#STOPS:68.000000=0.067000,
68.333336=0.067000,
68.666664=0.067000,
69.000000=0.067000,
69.333336=0.067000,
69.666664=0.067000,
70.000000=0.067000,
70.333336=0.067000,
70.666664=0.067000,
71.000000=0.400000,
131.000000=0.700000,
131.500000=0.100000,
132.000000=0.033000,
132.166672=0.033000,
132.333328=0.033000,
132.500000=0.300000,
161.000000=0.067000,
161.333328=0.067000,
161.666672=0.067000,
162.000000=0.067000,
162.333328=0.067000,
162.666672=0.067000,
163.000000=0.100000,
163.500000=0.100000,
164.000000=0.200000,
193.000000=0.100000,
193.500000=0.100000,
194.000000=0.050000,
194.250000=0.150000,
194.500000=0.150000,
194.750000=0.050000,
195.000000=0.100000,
195.500000=0.100000,
261.500000=0.200000,
263.000000=0.200000
;
#BGCHANGES:;
#KEYSOUNDS:;
#ATTACKS:;

//---------------dance-single - ----------------
#NOTES:
     dance-single:
     :
     Hard:
     10:
     0.645113,0.879910,0.338882,0.244310,0.591072,573.000000,530.000000,43.000000,31.000000,0.000000,0.000000,0.645113,0.879910,0.338882,0.244310,0.591072,573.000000,530.000000,43.000000,31.000000,0.000000,0.000000:
0000
0000
0000
0000
,
0000
0000
0000
0000
,
0001
0000
1000
0001
0000
0010
0000
0001
0000
0000
0000
0000
0000
0000
0000
0000
,
0000
0000
0000
0000
,
1000
0000
0001
1000
0000
0010
0000
1000
0000
0000
0000
0000
0000
0000
0000
0000
,
0000
0000
0000
0000
,
0001
0000
1000
0100
0000
0010
0000
0001
0000
0000
0000
0000
0000
0000
0000
0000
,
1000
0000
0001
0010
0000
0100
0000
1000
0000
0000
0000
0000
0000
0000
0000
0000
,
1000
0000
0001
0010
0000
1000
0000
0010
0001
0000
0100
1000
0000
0100
0000
0010
,
1000
0001
1000
0001
1000
0000
0001
0000
1010
0000
1000
0000
0002
0000
0000
0000
,
0103
0000
0010
1000
0000
0001
0000
0010
0100
0000
0010
0001
0000
1000
0000
0010
,
0100
0000
0001
0010
0000
0001
0000
1000
0010
0000
0100
0010
0000
1000
0000
0001
,
0010
0000
0100
1000
0000
0010
0000
0100
0001
0000
0001
0010
0000
0100
0000
1000
,
0001
0000
1000
0010
0000
0100
0000
0001
0010
0000
0100
0010
0000
0001
0000
1000
,
0010
0010
1000
1000
0001
0001
0010
0010
,
0100
0100
1000
1000
0001
0001
0100
0100
,
0010
1000
0010
1000
0010
1000
0010
1000
0010
1000
0010
1000
0010
1000
0010
1000
,
0010
0000
0000
0000
0000
0000
0000
0000
0000
0000
0000
0000
0000
0000
0000
0000
0100
0000
0000
0000
0000
0000
0000
0000
0000
0000
0000
0000
0000
0000
0000
0000
0001
0000
0000
0000
0000
0000
0000
0000
0000
0000
0000
0000
0000
0000
0000
0000
1000
0000
0000
0000
0000
0000
0000
0000
0000
0000
0000
0000
0000
0000
0000
0000
0010
0000
0000
0000
0000
0000
0000
0000
0000
0000
0000
0000
0000
0000
0000
0000
0100
0000
0000
0000
0000
0000
0000
0000
0000
0000
0000
0000
0000
0000
0000
0000
0001
0000
0000
0000
0000
0000
0000
0000
0000
0000
0000
0000
0000
0000
0000
0000
1000
0000
0000
0000
0000
0000
0000
0000
0000
0000
0000
0000
0000
0000
0000
0000
0010
0000
0000
0000
0000
0000
0000
0000
0000
0000
0000
0000
0000
0000
0000
0000
2002
3003
0000
0000
0000
0000
0000
0000
0000
0000
0000
0000
0000
0000
0000
0000
0000
0000
0000
0000
0000
0000
0000
0000
0000
0000
0000
0000
0000
0000
0000
0000
0000
0000
0000
0000
0000
0000
0000
0000
0000
0000
0000
0000
0000
0000
0000
0000
,
2000
3200
0302
0203
,
2300
3020
0230
0300
,
0002
0000
0023
0000
2030
0000
3010
0100
,
0010
0000
0100
0000
0001
1000
0001
1000
0001
0000
1000
0000
1001
0000
1000
0000
,
0002
0103
0020
1030
0200
0310
0002
1003
,
0020
1030
0200
0310
0002
0103
0010
1000
,
0002
1003
0200
0310
0002
1003
0100
1000
,
0010
0000
0100
0000
0001
0000
0000
0000
1000
0000
0000
0001
0000
0000
1100
0000
,
0000
0000
0000
0000
0000
0000
0000
0000
0000
0000
1000
0001
1000
0000
0000
0000
,
0000
0000
0000
0000
0000
0000
0000
0000
0000
0000
0001
0100
0001
0000
0000
1000
,
0000
0000
0000
0000
0000
0000
0000
0000
0000
0000
0100
0010
0100
0000
0000
0010
,
0000
0001
1001
0000
0000
0000
1000
0011
,
0000
0000
0000
0000
,
0001
0100
0001
0100
0001
0100
0001
0100
0001
0100
0001
0100
0001
0000
0000
0200
,
0000
0000
0000
0000
0000
0000
0000
0000
0000
0000
0000
0000
0300
0000
0020
0030
,
2000
0000
0000
0000
0000
0000
3000
0000
0002
0000
0000
0000
0000
0000
0000
0000
2003
0000
0000
0000
0000
0000
0000
0000
3002
0000
0000
0000
0000
0000
0000
0000
0003
0000
0000
0000
0000
0000
0000
0000
0000
0000
0000
0000
0000
0000
0000
0000
1001
0000
0000
0000
0000
0000
0000
0000
0000
0000
0000
0000
0000
0000
0000
0000
0000
0000
0000
0000
0000
0000
0000
0000
0000
0000
0000
0000
0000
0000
0000
0000
0000
0000
0000
0000
0000
0000
0000
0000
0000
0000
0000
0000
0000
0000
0000
0000
1000
0000
0000
0000
0000
0000
0000
0000
0000
0000
0000
0000
0000
0000
0000
0000
0000
0000
0000
0000
0000
0000
0000
0000
0100
0000
0000
0000
0000
0000
0000
0000
0000
0000
0000
0000
0000
0000
0000
0000
0000
0000
0000
0000
0000
0000
0000
0000
0001
0000
0000
0000
0000
0000
0000
0000
0000
0000
0000
0000
0000
0000
0000
0000
0000
0000
0000
0000
0000
0000
0000
0000
0100
0000
0000
0000
0000
0000
0000
0000
0000
0000
0000
0000
0000
0000
0000
0000
0000
0000
0000
0000
0000
0000
0000
0000
,
1000
0000
0000
1000
0001
0100
0001
0010
,
1000
1010
0011
0001
0100
0010
0000
0100
,
0010
1000
0000
0001
1000
0100
0010
0100
,
1000
0001
0000
1000
0001
0010
0001
0100
,
0010
1000
0000
0100
0010
0001
0010
0100
,
1000
0000
0001
1000
0001
0000
0000
0001
0000
0000
0000
0010
0100
0000
1000
0001
,
1000
0000
0000
0000
0000
0000
1000
0000
0000
0001
0000
0000
1000
0000
0000
0000
0100
0000
0000
0000
0010
0000
0000
0000
0001
0000
0000
0000
0010
0000
0000
0000
0100
0000
0000
0000
1000
0000
0000
0000
0000
0000
0001
0000
0000
0000
0000
0000
,
0110
0000
0000
0000
1001
0000
0001
0100
0010
0000
0100
0010
1000
0001
0010
0000
,
0100
0000
1000
0000
0000
0000
0001
1000
0001
0000
0001
1000
0001
0100
0010
0000
,
1000
0000
0010
0000
0000
0000
0100
0001
0100
0000
0001
0100
0001
0100
0010
0000
,
0100
0000
0001
0000
0000
0000
1000
0100
1000
0000
0100
0010
0100
0010
0001
0000
,
1000
0010
1000
1000
0010
0010
0100
0100
,
0001
0001
1000
1000
1000
1000
0001
0001
,
0001
0001
0100
0010
1000
0001
0100
0010
,
1000
0000
0001
0000
1000
0000
0001
0000
1000
0001
1000
0001
1000
0000
0010
0000
,
0100
0001
1000
0010
,
0100
0000
0100
0001
,
1001
0101
0101
1100
,
1100
1010
1010
0011
,
0011
1001
1001
0101
,
0101
1001
0110
1001
,
0110
0000
0010
1000
0001
0000
0000
0000
1010
0000
0000
0000
1100
0000
0000
0000
,
0011
0110
1100
0110
,
0011
0101
1010
1100
,
0011
0000
0000
0001
1000
0010
0001
0010
,
0100
0000
0001
0000
1000
0001
0000
0001
0100
0000
0010
0000
1000
0010
0000
0010
,
0100
0000
0001
0000
0010
0100
0000
0100
1000
0000
0001
0000
1000
0100
0000
0100
,
0010
0000
0001
0000
0100
0010
0000
0010
1000
0000
0001
0000
0010
0001
0000
0001
,
1000
0000
0001
0000
1000
0010
0000
0010
0100
0000
0001
0000
1000
0010
0000
0100
,
0001
0000
1000
0001
1000
0100
0000
0010
0001
0000
0100
0000
0010
1000
0000
0100
,
0010
0000
0001
0000
1000
0010
0000
0001
0010
0000
0100
0000
0010
1000
0000
0100
,
0010
0000
0001
0000
1001
0000
1001
0000
0001
0010
1000
0010
0001
0000
0001
0000
,
0100
0000
1000
0100
0001
0000
0001
1000
0100
0010
0100
0000
1000
0000
0001
0000
,
1000
0010
0000
1000
0010
0000
0100
0000
0001
0100
0000
0001
0100
0000
0001
0000
,
0000
1000
0000
0000
0010
0000
0100
0000
0000
0001
0000
0000
1000
0000
0001
0000
,
1000
0100
0000
1000
0100
0000
0010
0000
0001
0100
0000
0001
0100
0000
0001
0000
,
0000
1000
0000
0000
0010
0000
0100
0000
0000
0001
0000
0000
0010
0000
0100
0000
,
1000
0010
0000
1000
0010
0000
0100
0000
0001
0100
0000
0001
0100
0000
0001
0000
,
0000
1000
0000
0000
0001
0000
0010
0000
0000
0100
0000
0000
0010
0000
0001
0000
,
1000
0001
0010
0001
1000
0100
1000
0001
,
1000
0001
0100
0001
0010
0000
1000
0000
0010
0000
0000
0000
0011
0000
0000
2020
,
0000
0000
0000
0000
,
0000
0000
0000
0000
,
3030
0000
0000
0000
;

//---------------dance-single - ----------------
#NOTES:
     dance-single:
     :
     Medium:
     8:
     0.461599,0.606834,0.267953,0.055167,0.098512,410.000000,376.000000,34.000000,7.000000,0.000000,0.000000,0.461599,0.606834,0.267953,0.055167,0.098512,410.000000,376.000000,34.000000,7.000000,0.000000,0.000000:
0000
0000
0000
0000
,
0000
0000
0000
0000
,
0001
1000
0001
1000
0001
0000
0000
0000
,
0000
0000
0000
0000
,
0100
0010
0100
0010
0100
0000
0000
0000
,
0000
0000
0000
0000
,
0010
1000
0010
1000
0010
0000
0000
0000
,
0100
0001
0100
0001
0100
0000
0000
0000
,
0001
1000
0001
1000
0010
0100
0010
0100
,
0002
0000
2003
3020
,
0130
0001
0100
0000
0010
0100
0010
0000
,
1000
0010
1000
0000
0001
0100
0001
0000
,
0010
0001
0010
0000
0100
0010
0100
0000
,
1000
0100
1000
0000
1000
0001
1000
0000
,
0010
0100
0010
0100
0010
0100
0010
0100
,
0010
0100
0010
0100
0010
0100
0010
0100
,
0001
0100
0010
1000
0001
0100
0010
1000
,
0001
1000
0001
1000
0001
1000
0001
1000
0001
1000
0000
0000
,
1000
0100
0001
0100
,
1000
0010
0100
0000
,
0100
0010
1000
0001
,
0001
0000
1000
0100
1000
0000
0100
0000
,
1000
0010
0100
0001
,
0010
0000
0001
0000
1000
0000
0001
0100
,
0001
0000
0100
0000
0010
0000
1000
0001
,
0100
0000
0010
0000
1000
0000
0000
0000
0001
0000
0000
1000
0000
0000
1001
0000
,
0000
0000
0000
0000
0000
0001
0100
0000
,
0000
0000
0000
0000
0000
0000
0000
0000
0000
0000
0010
0000
1000
0000
0000
1000
,
0000
0000
0000
0000
0000
0000
0000
0000
0000
0000
0010
0000
1000
0000
0000
0001
,
0000
0100
0010
0000
0000
0000
0000
1001
,
0000
0000
0000
0000
,
0000
0000
0000
0000
0000
0000
0000
0000
0000
0000
1000
0000
1000
0000
0000
0100
,
0000
0000
0000
0000
0000
0000
0000
1002
,
0000
0103
0110
0000
0100
0010
0100
0010
,
1000
0000
0000
0010
0100
0001
1000
1000
,
0001
0000
0000
1000
0100
1000
0000
0000
,
0100
0000
0000
0010
0001
0010
0100
1000
,
0001
1000
0000
0001
0100
1000
0100
0010
,
0100
0010
0000
0100
0010
1000
0001
0100
,
0010
1000
0001
0000
1000
0000
0100
0000
,
1000
0000
0010
0000
0100
0000
0010
0100
,
1001
0000
0000
0001
0100
0001
0100
0001
,
0100
0001
0000
1000
0010
1000
0010
1000
,
0010
1000
0000
0001
1000
0001
1000
0001
,
1000
0001
0000
1000
0100
0010
0001
0010
,
0100
1000
0001
0100
0001
0100
0010
0100
,
0010
0100
0010
1000
0010
1000
0001
1000
,
0001
1000
0001
0100
0010
1000
0001
0100
,
0010
1000
0002
0000
0000
0000
0000
0000
,
0000
0003
0000
0000
0001
0000
1000
0000
,
0001
0000
0100
0010
,
1000
0101
1010
0101
,
1010
0101
1010
0101
,
1010
0101
1010
0101
,
1010
0101
1010
0101
,
1010
1100
0011
1100
,
0011
1100
0011
1100
,
0011
1100
0011
1100
,
0011
0000
0000
0001
1000
0100
0010
0100
,
1000
0000
0001
0000
0000
0100
0000
0000
0010
0000
1000
0000
0000
0001
0000
0000
,
0100
0000
0010
0000
0000
1000
0000
0000
0001
0000
0010
0000
0000
0100
0000
0000
,
0010
0000
0001
0000
0000
0100
0000
0000
0010
0000
1000
0000
0000
0001
0000
0000
,
0010
0000
0001
0000
0000
0100
0000
0000
0010
0000
1000
0000
0000
0001
0000
0000
,
1000
0000
0010
0000
0100
0000
0001
0000
1000
0000
0001
0000
0000
1000
0000
0000
,
0001
0000
0010
0000
0000
0001
0000
0000
0100
0000
0010
0000
0000
1000
0000
0000
,
0001
0100
0010
1000
0010
0100
0001
0100
,
0010
0001
0010
1000
0100
0001
0100
1000
,
0001
0000
0000
0000
1000
0000
0010
0000
0100
0000
0000
0001
0000
0000
0010
0000
,
0100
1000
0010
0100
,
0001
0000
0000
0000
0010
0000
0001
0000
0100
0000
0000
0010
0000
0000
1000
0000
,
0001
0010
0001
0100
,
0010
0000
0000
0000
1000
0000
0010
0000
0100
0000
0000
0001
0000
0000
0010
0000
,
0100
1000
0100
0010
,
0100
1000
0010
0100
0001
0010
0100
1000
,
0000
0000
1000
0000
0001
0000
0010
0000
0001
0000
0000
0000
1000
0000
0000
0202
,
0000
0000
0000
0000
,
0000
0000
0000
0000
,
0303
0000
0000
0000
;

//---------------dance-single - ----------------
#NOTES:
     dance-single:
     :
     Easy:
     5:
     0.298351,0.424784,0.133976,0.055167,0.003940,265.000000,248.000000,17.000000,7.000000,0.000000,0.000000,0.298351,0.424784,0.133976,0.055167,0.003940,265.000000,248.000000,17.000000,7.000000,0.000000,0.000000:
0000
0000
0000
0000
,
0000
0000
0000
0000
,
1000
0001
1000
0000
,
0000
0000
0000
0000
,
0010
0100
0010
0000
,
0000
0000
0000
0000
,
1000
0001
1000
0000
,
0010
0100
0010
0000
,
1000
0001
0010
0100
,
0020
0000
0130
0001
,
1000
1000
0001
0001
,
0100
0100
0010
0010
,
1000
1000
0001
0001
,
0100
0100
0010
0010
,
1000
0100
0010
0001
,
1000
0100
0010
0001
,
1001
0110
1001
0110
,
2002
0000
0000
3003
,
0001
0100
1000
0100
,
0001
1000
0001
0000
,
1000
0100
0001
0100
,
1000
0001
1000
0001
,
1000
0010
0001
0010
,
1000
0010
0100
0000
,
1000
0100
0001
1000
,
0100
0000
1000
0000
0010
0000
0100
0001
,
0000
0000
0000
1001
,
0000
0000
0000
0110
,
0000
0000
0000
0100
,
0001
0000
1001
0000
0000
0000
1000
0010
,
0000
0000
0000
0000
,
0000
0000
0000
0100
,
0000
0000
0000
0000
0000
0000
0000
1001
,
0000
0110
1001
0000
0001
0000
1000
0000
,
0100
0000
1000
0010
,
0100
0001
0100
0000
0010
0000
0000
0000
,
1000
0000
0100
1000
,
0001
0100
0000
0001
,
0000
1000
0100
1000
,
0010
0100
0000
0001
,
1000
0000
0010
0000
0100
0000
0010
1000
,
0001
1000
0001
0100
,
0001
0000
0100
0010
,
1000
0000
0100
0010
,
0001
0000
0010
0001
,
0100
0010
0010
0100
,
0100
0001
0001
1000
,
1000
0001
0100
0010
,
1000
2002
0000
0000
,
3003
0001
0000
1000
,
0000
0001
0000
1000
,
1001
0001
0100
0010
,
0100
0001
1000
0100
,
1000
0001
0100
0001
,
1000
0100
1000
0010
,
0100
0001
0100
0000
0010
0000
1000
0000
,
0100
1000
0001
0010
,
0100
0010
0001
1000
,
0100
0000
1000
0000
0010
0000
0100
0001
,
0100
0001
1000
0000
0100
0000
0001
0000
,
0100
0010
0001
0010
,
1000
0100
0001
0100
,
1000
0010
0001
0010
,
0100
0001
1000
0000
0001
0000
0010
0000
,
0100
0010
0001
1000
,
0100
0000
0110
0000
0000
1001
0000
0000
,
0110
0100
0010
1000
,
0001
1000
0100
1000
,
0100
0010
0001
0010
,
0100
0010
0001
1000
,
0001
0100
0001
1000
,
0100
0010
0001
1000
,
0010
0100
0010
1000
,
0010
0100
0001
1000
,
0000
0000
0001
0000
0010
0000
0100
0000
0010
0000
0000
0000
0001
0000
0000
2002
,
0000
0000
0000
0000
,
0000
0000
0000
0000
,
3003
0000
0000
0000
;

//---------------dance-single - ----------------
#NOTES:
     dance-single:
     :
     Beginner:
     3:
     0.192521,0.295536,0.055167,0.070929,0.000000,171.000000,164.000000,7.000000,9.000000,0.000000,0.000000,0.192521,0.295536,0.055167,0.070929,0.000000,171.000000,164.000000,7.000000,9.000000,0.000000,0.000000:
// measure 0
0000
0000
0000
0000
,  // measure 1
0000
0000
0000
0000
,  // measure 2
0001
0000
0000
0000
,  // measure 3
0000
0000
0000
0000
,  // measure 4
0001
0000
0000
0000
,  // measure 5
0000
0000
0000
0000
,  // measure 6
1000
0000
0000
0000
,  // measure 7
1000
0000
0000
0000
,  // measure 8
0010
0000
0100
0000
,  // measure 9
0010
0000
0100
0100
,  // measure 10
0010
0000
0010
0000
,  // measure 11
0100
0000
0100
0000
,  // measure 12
0001
0000
0001
0000
,  // measure 13
1000
0000
1000
0000
,  // measure 14
0010
0010
0010
0010
,  // measure 15
0100
0100
0100
0100
,  // measure 16
0001
0001
1000
1000
,  // measure 17
2002
0000
0000
3003
,  // measure 18
0001
0000
0001
0000
,  // measure 19
0001
0000
0001
0000
,  // measure 20
1000
0000
1000
1000
,  // measure 21
0000
0010
0000
0100
,  // measure 22
0100
0000
0010
0000
,  // measure 23
1000
0000
0001
1000
,  // measure 24
1000
0000
0001
0100
,  // measure 25
0000
0010
0000
1001
,  // measure 26
0000
0000
0000
1000
,  // measure 27
0000
0000
0000
0010
,  // measure 28
0000
0000
0000
0100
,  // measure 29
0000
0000
0010
0000
0000
0000
0000
0100
,  // measure 30
0000
0000
0000
0000
,  // measure 31
0000
0000
0000
0010
,  // measure 32
0000
0000
0000
0000
,  // measure 33
0000
1001
0000
1000
,  // measure 34
0000
0000
0001
0000
,  // measure 35
1000
0001
0000
0100
,  // measure 36
0000
0001
0000
1000
,  // measure 37
1000
0010
0000
0000
,  // measure 38
0000
0100
0000
0000
,  // measure 39
0000
1001
0000
1000
,  // measure 40
0000
0020
0000
0000
,  // measure 41
0030
0100
0000
0010
,  // measure 42
0000
1000
0000
0001
,  // measure 43
0000
1000
0000
0010
,  // measure 44
0000
0100
0000
0010
,  // measure 45
0000
0200
0300
0002
,  // measure 46
0003
2000
3000
0020
,  // measure 47
0030
1000
1000
1000
,  // measure 48
1000
0000
2002
0000
0000
0000
0000
3003
,  // measure 49
0000
1001
0000
0000
,  // measure 50
0000
0010
0000
0000
,  // measure 51
0000
1000
0001
1000
,  // measure 52
0001
1000
0001
1000
,  // measure 53
0001
1000
0001
1000
,  // measure 54
0001
1000
0001
1000
,  // measure 55
0001
0100
0010
0100
,  // measure 56
0010
0100
0010
0100
,  // measure 57
0010
0100
0010
0100
,  // measure 58
0010
0100
0000
0010
,  // measure 59
0000
1000
1000
0001
,  // measure 60
0001
1000
1000
0001
,  // measure 61
0001
1000
1000
0001
,  // measure 62
0001
1000
1000
0001
,  // measure 63
1000
0010
0010
0100
,  // measure 64
0100
0010
0010
0100
,  // measure 65
0100
0000
0010
0000
0000
0100
0000
0000
,  // measure 66
0010
0000
0100
0000
,  // measure 67
0001
0000
1000
0000
,  // measure 68
0010
0000
1000
0000
,  // measure 69
0001
0000
0100
0000
,  // measure 70
0010
0000
1000
0000
,  // measure 71
0001
0000
1000
0000
,  // measure 72
0100
0000
1000
0000
,  // measure 73
0010
0000
0100
0000
,  // measure 74
0000
0001
1000
0010
,  // measure 75
1001
0000
0000
0000
;
