#VERSION:0.83;
#TITLE:Slluuddggee;
#SUBTITLE:;
#ARTIST:Hommarju;
#TITLETRANSLIT:;
#SUBTITLETRANSLIT:;
#ARTISTTRANSLIT:;
#GENRE:;
#ORIGIN:;
#CREDIT:;
#BANNER:Slluuddggee.png;
#BACKGROUND:Slluuddggee-bg.png;
#PREVIEWVID:;
#JACKET:Slluuddggee-jacket.png;
#CDIMAGE:;
#DISCIMAGE:;
#LYRICSPATH:;
#CDTITLE:;
#MUSIC:Slluuddggee.ogg;
#OFFSET:-0.075000;
#SAMPLESTART:23.642155;
#SAMPLELENGTH:10.689651;
#SELECTABLE:YES;
#DISPLAYBPM:83.000000:174.000000;
#BPMS:0.000=83.000,
1.000=85.000,
2.000=100.000,
3.000=107.000,
4.000=112.000,
5.000=117.000,
6.000=122.000,
7.000=125.000,
8.000=135.000,
9.000=140.000,
10.000=145.000,
11.000=147.500,
12.000=150.000,
14.000=152.500,
16.000=155.000,
18.000=160.000,
20.000=165.000,
22.000=170.000,
24.000=171.000,
26.000=172.000,
28.000=173.000,
30.000=174.000,
154.000=83.000,
155.000=90.000,
156.000=100.000,
157.000=105.000,
158.000=110.000,
159.000=120.000,
160.000=125.000,
161.000=130.000,
162.000=135.000,
163.000=140.000,
164.000=145.000,
166.000=150.000,
170.000=155.000,
172.000=160.000,
173.000=165.000,
174.000=166.000,
175.000=167.000,
176.000=168.000,
177.000=169.000,
178.000=170.000,
180.000=171.000,
182.000=172.000,
184.000=173.000,
186.000=174.000;
#STOPS:60.000=1.034,
121.000=1.034,
188.000=0.345,
191.000=0.345,
194.000=0.345,
211.000=1.034;
#DELAYS:;
#WARPS:;
#TIMESIGNATURES:0.000=4=4;
#TICKCOUNTS:0.000=4;
#COMBOS:0.000=1;
#SPEEDS:0.000=1.000=0.000=0;
#SCROLLS:0.000=1.000;
#FAKES:;
#LABELS:0.000=Song Start;
#BGCHANGES:;
#KEYSOUNDS:;
#ATTACKS:
;

//---------------dance-single - ----------------
#NOTEDATA:;
#CHARTNAME:;
#STEPSTYPE:dance-single;
#DESCRIPTION:;
#CHARTSTYLE:;
#DIFFICULTY:Hard;
#METER:9;
#RADARVALUES:0.544760,0.557102,0.195773,0.059583,0.187261,448.000000,425.000000,23.000000,7.000000,0.000000,0.000000,3.000000,0.000000,0.000000,0.544760,0.557102,0.195773,0.059583,0.187261,448.000000,425.000000,23.000000,7.000000,0.000000,0.000000,3.000000,0.000000,0.000000;
#CREDIT:;
#DISPLAYBPM:83.000000:174.000000;
#NOTES:
0000
0000
0000
0000
,
0000
0000
0000
0000
,
0000
0000
0000
0000
,
0000
0000
0000
0000
,
1001
0001
0010
0001
,
1000
1000
0001
0001
,
1001
1000
0010
1000
,
0100
0100
1000
1000
,
0001
0100
0001
0000
0100
0010
0100
0000
,
0010
1000
0010
0000
1000
0100
1000
0000
,
0100
0010
0100
0000
0010
0001
0010
0000
,
0001
1000
0001
0000
0100
0001
0100
0000
,
0010
0000
0000
0010
0000
0000
0010
0000
0100
0000
0000
0100
0000
0000
0100
0000
,
0001
0000
0000
0001
0000
0000
0001
0000
1000
0000
0000
1000
0000
0000
1000
0000
,
0100
0000
0000
1000
0000
0000
0010
0000
0100
0000
0000
0001
0000
0000
0010
0000
,
0100
0000
2001
0000
3010
0000
1000
0010
,
0100
0001
1000
0001
1000
0001
0100
0001
,
0100
0001
0010
0000
0100
0000
1000
0001
,
0100
0010
1000
0001
1000
0001
0100
0000
,
0001
0000
1000
0000
0100
0000
0010
0001
,
1000
0100
1000
0001
1000
0001
1000
0010
,
1000
0010
0100
0000
0001
0000
0010
0100
,
1000
0001
0010
0100
0010
0100
0010
0001
,
0010
0001
1001
0000
0100
0000
1001
0000
,
0010
1001
0100
1001
,
0010
1001
0110
1001
,
0110
1001
0000
0000
,
0110
1001
1000
0100
,
1000
0001
0010
0001
,
0100
0000
0001
1000
0001
1000
0001
1000
,
0001
0000
1000
0000
0001
0000
0000
0000
0201
0000
0000
0000
0310
0000
0000
1000
,
0000
0000
0010
0000
0000
1000
0000
0000
0100
0000
0000
0010
0000
0000
0100
0000
,
0000
0010
0000
0000
0001
0000
0000
0000
1000
0000
0000
0000
0001
0000
0000
0100
,
0000
0000
0010
0000
0000
1000
0000
0000
0010
0000
0000
0100
0000
0000
0001
0000
,
0000
0010
0000
0000
0100
0000
0010
0000
0001
0000
0000
0000
1000
0000
0000
0100
,
0000
0000
1000
0000
0000
0010
0000
0000
0100
0000
0000
0001
0000
0000
0010
0000
,
0000
0001
0000
0000
1000
0000
0000
0000
0001
0000
0000
0000
0100
0000
0000
0010
,
0000
0000
1000
0000
0000
0100
0000
0000
0001
0000
0000
0100
0000
0000
0010
0000
,
0000
0001
0000
0000
1000
0000
0001
0000
0100
0000
0000
0000
0010
0000
1000
0000
,
0010
0100
0001
1000
0001
0001
1000
1000
,
0010
0010
1000
1000
0100
0000
1000
0100
,
0010
0100
1000
0001
0100
0100
0001
0001
,
0010
0010
0100
0100
1000
0000
0100
1000
,
0010
0100
0001
1000
0001
0001
1000
1000
,
0010
0010
1000
1000
0010
0000
1000
0010
,
0100
0001
0010
0100
1000
1000
0100
0100
,
1000
1000
0001
0001
0100
0000
0010
1000
,
1010
0000
1000
0001
0010
0100
1100
0000
,
0100
0000
0010
0001
0011
0000
0001
1000
,
0100
0000
1000
0000
1001
0000
0000
0000
1000
0000
0000
0000
0001
0000
0000
0001
,
0000
0000
0001
0000
1000
0000
0000
1000
0000
0000
1000
0000
0010
0000
0000
0010
,
0000
0000
0010
0000
0100
0000
0000
0100
0000
0000
0100
0000
0010
0000
0000
1000
,
0000
0000
0010
0000
0100
0000
0000
0001
0000
0000
0010
0000
0400
0000
0300
0000
,
0120
0000
0031
1000
0010
1000
0001
0010
,
0100
0010
0001
0100
1000
0100
0010
1000
,
0100
0000
1000
0001
0010
0001
1000
0100
,
1000
0010
0001
0010
0100
0001
0010
0100
,
1000
0000
0100
1000
0010
1000
0100
1000
,
0001
0010
1000
0010
0100
0010
0001
1000
,
0010
0000
0100
0010
1000
0010
0100
0001
,
0010
1000
0010
0100
0010
0001
1000
0010
,
1000
0000
0000
0000
0001
0000
0000
0100
0000
0000
0010
0000
0000
1000
0000
0000
,
0010
0000
0000
0100
0000
0000
0001
0000
0000
1000
0000
0000
0010
0000
1000
0000
,
0100
0000
0000
0000
0010
0000
0000
0001
0000
0000
1000
0000
0000
0100
0000
0000
,
1000
0000
0000
0001
0000
0000
0100
0000
0000
0010
0000
0000
0100
0000
0010
0000
,
1000
0000
0000
0000
0200
0000
0000
1300
0000
0000
0020
0000
0000
0130
0000
0000
,
0002
0000
0000
0013
0000
0000
0200
0000
0000
0310
0000
0000
0001
0000
0000
0000
,
4004
0000
0000
0000
,
0000
0000
0000
3003
,
1010
1000
0010
0100
,
0010
1000
0001
0010
,
0100
0010
0001
1000
,
0001
0001
1000
1000
,
0001
0000
0000
1000
0010
0000
0100
0000
0001
0000
0000
0010
0100
0000
1000
0000
,
0001
0000
0000
1000
0010
0000
1000
0000
0100
0000
0000
0010
0001
0000
0100
0000
,
0010
0000
1000
0100
0001
0100
0010
0001
,
0100
0100
0010
1000
0001
0001
1000
1000
,
0110
0000
0000
0000
;

//---------------dance-single - ----------------
#NOTEDATA:;
#CHARTNAME:;
#STEPSTYPE:dance-single;
#DESCRIPTION:;
#CHARTSTYLE:;
#DIFFICULTY:Medium;
#METER:7;
#RADARVALUES:0.459641,0.589873,0.536248,0.093631,0.004256,378.000000,315.000000,63.000000,11.000000,0.000000,0.000000,2.000000,0.000000,0.000000,0.459641,0.589873,0.536248,0.093631,0.004256,378.000000,315.000000,63.000000,11.000000,0.000000,0.000000,2.000000,0.000000,0.000000;
#CREDIT:;
#DISPLAYBPM:83.000000:174.000000;
#NOTES:
0000
0000
0000
0000
,
0000
0000
0000
0000
,
0000
0000
0000
0000
,
0000
0000
0000
0000
,
1001
0001
0100
0001
,
0100
0010
1000
0010
,
0101
0001
0100
0001
,
0100
0010
1000
0001
,
0101
0100
0010
1000
,
0001
0001
1000
1000
,
1001
1000
0001
0001
,
0010
0010
0100
0100
,
1100
0000
0100
1000
0100
0000
0100
0010
,
0100
0000
0010
0001
0010
0000
0010
0100
,
0010
0100
1000
0001
,
1001
0110
1000
0010
,
0100
0001
0001
1000
,
1000
1001
0001
0010
,
0010
0000
0100
0000
0010
0000
0001
0100
,
0101
0001
0100
0010
,
1000
0010
0010
1000
,
1000
0020
0000
0030
,
0200
0302
2003
0002
,
3003
1001
0000
0110
,
0000
1010
0000
0101
,
0000
0011
1010
0011
,
1010
0011
0000
0000
,
0011
1001
0001
0010
,
0001
1000
0001
0010
,
0001
1000
0001
0010
,
0001
1001
0100
0101
,
0000
1010
0000
0000
0011
0000
0000
1100
,
0000
0000
0001
1000
0100
0000
1100
0000
,
0000
0011
0000
0000
0110
0000
0000
0011
,
0000
0000
0010
0100
1000
0000
1100
0000
,
0000
1010
0000
0000
0101
0000
0000
0011
,
0000
0000
0010
0100
1000
0000
1100
0000
,
0000
1010
0000
0000
0101
0000
0000
0011
,
0000
0110
1001
1000
,
0001
0000
1000
0000
0010
0100
0010
0100
,
0010
0100
0010
0100
0001
0000
1000
0000
,
0001
0000
1000
0000
0010
0100
0010
0100
,
0010
0100
0010
0100
0001
0000
1000
0000
,
0001
0000
1000
0000
0010
0100
0010
0100
,
0010
0100
0010
0100
0001
0000
1000
0000
,
0001
0000
1000
0000
0010
0100
0010
0100
,
0010
0100
0010
0100
0001
0000
0001
0100
,
0010
0000
0100
0000
0010
1000
0100
0000
,
0010
0000
0010
0001
0100
0000
0100
0000
,
0100
0010
1000
0000
0001
0000
1100
0000
,
0100
1000
0010
0000
0100
0010
1000
0000
,
0001
0010
0100
0000
0100
0010
0001
0000
,
1000
0001
0100
0000
0001
0100
0010
0000
,
1000
0000
1010
0000
1000
0010
0100
0000
,
0001
0000
0011
0000
0001
0010
0100
0000
,
1000
0000
1100
0000
0100
1000
0010
0000
,
0120
0000
0000
0000
0130
0001
1000
0000
,
0001
0000
0101
0000
0001
0100
0010
0000
,
1000
0000
1100
0000
0100
1000
0010
0000
,
0200
0310
1000
0002
,
0023
0230
2300
3000
,
1100
0000
1100
0000
0000
1010
0000
0000
,
0101
0000
0000
0011
0000
0000
0010
0100
,
1000
0000
1100
0000
0000
1010
0000
0000
,
0101
0000
0000
1001
0000
0000
0010
0001
,
0100
0000
0110
0000
0000
1010
0000
0000
,
0101
0000
0000
0011
0000
0000
1100
0000
,
1001
1000
0001
1000
0001
1000
0001
1000
,
0001
1000
0001
1000
0001
1000
0001
1000
,
0010
1000
0010
0100
,
0001
0100
0010
1000
,
1001
0001
0010
0001
,
1000
0100
1000
0001
,
1001
0000
0001
0010
0100
0000
0010
0100
,
1000
0000
0100
1000
0010
0000
0100
0010
,
4000
0004
0000
0000
0000
0000
0000
0000
0000
0000
0000
0000
0000
0000
0000
0000
,
0000
0000
0000
0000
,
3003
0000
0000
0000
;

//---------------dance-single - ----------------
#NOTEDATA:;
#CHARTNAME:;
#STEPSTYPE:dance-single;
#DESCRIPTION:;
#CHARTSTYLE:;
#DIFFICULTY:Easy;
#METER:4;
#RADARVALUES:0.295483,0.458790,0.212797,0.051071,0.000000,243.000000,218.000000,25.000000,6.000000,0.000000,0.000000,0.000000,0.000000,0.000000,0.295483,0.458790,0.212797,0.051071,0.000000,243.000000,218.000000,25.000000,6.000000,0.000000,0.000000,0.000000,0.000000,0.000000;
#CREDIT:;
#DISPLAYBPM:83.000000:174.000000;
#NOTES:
0000
0000
0000
0000
,
0000
0000
0000
0000
,
0000
0000
0000
0000
,
0000
0000
0000
0000
,
1001
0000
1000
0000
,
0010
0000
0100
0000
,
1001
0000
0001
0000
,
0010
0000
0100
0000
,
0010
0010
0001
0001
,
1000
1000
0001
1000
,
0100
0100
1000
1000
,
0010
0100
0010
0100
,
0001
0000
1000
0000
,
0010
0000
0100
0000
,
0010
0100
0001
1000
,
1001
0220
0000
0000
,
0000
0000
0000
0000
,
0000
0000
0000
0000
,
0330
0000
1000
0000
0000
0000
0001
0100
,
0001
0100
0010
0000
,
1000
0001
0010
0000
,
0100
0020
0000
0030
,
0100
0010
0001
1000
,
0000
1001
0000
0110
,
0000
1001
0000
0110
,
0000
1001
1001
0110
,
0110
1001
0000
0000
,
1001
0110
0000
0100
,
0000
0010
0000
1000
,
0000
0001
1000
0001
,
0100
0010
0000
1000
,
0000
1000
0000
0000
1000
0000
0000
1000
,
0000
1000
0001
1000
,
0000
0001
0000
0000
0100
0000
0000
0010
,
0000
0100
0001
0100
,
0000
0010
0000
0000
1000
0000
0000
0010
,
0000
0100
0010
1000
,
0000
0001
0000
0000
0010
0000
0000
0001
,
0000
1000
1001
1000
,
0001
1000
0010
0010
,
0010
0010
1000
0001
,
1000
0001
0100
0100
,
0100
0100
0001
1000
,
0001
1000
0010
0010
,
0010
0010
1000
0001
,
1000
0001
0100
0100
,
0100
0100
0010
1000
,
1100
0100
0010
0110
,
0010
0001
0011
0001
,
0100
0101
0001
1000
,
0100
1000
0001
0100
,
0001
1000
0100
1000
,
0001
0100
0010
1001
,
0202
0000
0000
0000
,
0000
0000
0000
0000
,
0000
0000
0000
0303
,
0101
0000
0000
0000
0001
0100
0010
0000
,
1000
0010
1000
0100
,
1000
0001
0100
0010
,
2000
0000
3000
0001
,
1000
0100
1000
0000
,
0010
0000
1000
0000
0000
0010
0000
0000
,
0100
0000
0000
0001
0000
0000
0010
0000
,
0100
0000
0010
0000
0000
0001
0000
0000
,
0010
0000
0000
0100
0000
0000
1000
0000
,
0100
0000
1000
0000
0000
0010
0000
0000
,
0100
0000
0000
0010
0000
0000
1000
0000
,
0001
0100
0010
1000
,
0001
0010
0100
1000
,
1001
0000
0001
0000
,
1000
0000
0010
0000
,
0100
0000
0010
0000
,
1000
0000
0001
0000
,
1000
0010
0100
0001
,
0010
0100
1000
0100
,
1000
0010
0100
0001
,
0010
0100
1000
0100
,
1001
0000
0000
0000
;

//---------------dance-single - ----------------
#NOTEDATA:;
#CHARTNAME:;
#STEPSTYPE:dance-single;
#DESCRIPTION:;
#CHARTSTYLE:;
#DIFFICULTY:Beginner;
#METER:2;
#RADARVALUES:0.110654,0.262166,0.034047,0.000000,0.000000,91.000000,87.000000,4.000000,0.000000,0.000000,0.000000,0.000000,0.000000,0.000000,0.110654,0.262166,0.034047,0.000000,0.000000,91.000000,87.000000,4.000000,0.000000,0.000000,0.000000,0.000000,0.000000,0.000000;
#CREDIT:;
#DISPLAYBPM:83.000000:174.000000;
#NOTES:
// measure 0
0000
0000
0000
0000
,  // measure 1
0000
0000
0000
0000
,  // measure 2
0000
0000
0000
0000
,  // measure 3
0000
0000
0000
0000
,  // measure 4
1000
0000
0000
0000
,  // measure 5
0000
0000
0000
0000
,  // measure 6
0001
0000
0000
0000
,  // measure 7
0000
0000
0000
0000
,  // measure 8
0100
0000
0000
0000
,  // measure 9
0010
0000
0000
0000
,  // measure 10
1000
0000
0000
0000
,  // measure 11
0001
0000
0000
0000
,  // measure 12
0100
0000
0100
0000
,  // measure 13
0100
0000
0100
0000
,  // measure 14
0010
0000
0000
0000
,  // measure 15
0000
0110
0000
0000
,  // measure 16
0000
0000
0000
0000
,  // measure 17
0000
0000
0000
0000
,  // measure 18
0000
1000
0000
0001
,  // measure 19
0001
0000
1000
0000
,  // measure 20
0000
0000
0000
0000
,  // measure 21
0000
0001
0000
0000
,  // measure 22
1000
0010
0010
0010
,  // measure 23
0000
0100
0000
0010
,  // measure 24
0000
1000
0000
0001
,  // measure 25
0000
1000
0000
1000
,  // measure 26
0000
1000
0000
0000
,  // measure 27
1000
1000
0000
0000
,  // measure 28
0000
0001
0000
0000
,  // measure 29
0000
0100
0000
0000
,  // measure 30
0000
0010
0100
0000
,  // measure 31
0000
0000
0000
0000
,  // measure 32
0000
0000
0010
0000
,  // measure 33
0000
0000
0000
0000
,  // measure 34
0000
0000
1000
0000
,  // measure 35
0000
0000
0000
0000
,  // measure 36
0000
0000
0001
0000
,  // measure 37
0000
0000
0000
0000
,  // measure 38
0000
0000
0100
0000
,  // measure 39
0000
0000
0010
0000
,  // measure 40
0010
0000
0010
0000
,  // measure 41
0000
0000
1000
0000
,  // measure 42
1000
0000
1000
0000
,  // measure 43
0000
0000
0001
0000
,  // measure 44
0001
0000
0001
0000
,  // measure 45
0000
0000
0100
0000
,  // measure 46
0100
0000
0000
0000
,  // measure 47
0010
0000
0000
1000
,  // measure 48
0000
0000
0001
0000
,  // measure 49
0000
0100
0000
0010
,  // measure 50
0000
1000
0000
0001
,  // measure 51
0000
0100
0000
0010
,  // measure 52
0000
0000
0000
0000
,  // measure 53
0110
0000
0000
0000
,  // measure 54
0000
0000
0000
0000
,  // measure 55
0000
0000
0000
0000
,  // measure 56
0010
0000
1000
1000
,  // measure 57
0001
0000
0000
0000
,  // measure 58
0000
0000
0000
0000
,  // measure 59
0100
0000
0000
0010
,  // measure 60
1000
1000
1000
0000
,  // measure 61
1001
0000
0000
0000
,  // measure 62
0001
0000
0000
0000
,  // measure 63
0100
0000
0000
0000
,  // measure 64
0010
0000
0000
0000
,  // measure 65
1000
0000
0000
0000
,  // measure 66
0100
0000
0000
0000
,  // measure 67
1000
0000
0000
0000
,  // measure 68
0001
0000
0000
0000
,  // measure 69
0100
0000
0000
0000
,  // measure 70
0000
0000
0000
0000
,  // measure 71
0010
0000
0000
0000
,  // measure 72
0000
0000
0000
0000
,  // measure 73
1000
0000
0000
0000
,  // measure 74
0001
0000
0000
0000
,  // measure 75
0100
0000
0010
0000
,  // measure 76
1000
0001
0100
0010
,  // measure 77
1001
0000
0000
0000
;
