#TITLE:Sleeping Beauty;
#SUBTITLE:;
#ARTIST:Perfume;
#TITLETRANSLIT:;
#SUBTITLETRANSLIT:;
#ARTISTTRANSLIT:;
#GENRE:;
#CREDIT:;
#BANNER:Sleeping Beauty.png;
#BACKGROUND:Sleeping Beauty-background.png;
#LYRICSPATH:;
#CDTITLE:;
#MUSIC:Sleeping Beauty.ogg;
#OFFSET:-7.798000;
#SAMPLESTART:52.799999;
#SAMPLELENGTH:12.000000;
#SELECTABLE:YES;
#BPMS:0.000000=128.000000
;
#STOPS:
;
#BGCHANGES:;
#KEYSOUNDS:;
#ATTACKS:;

//---------------dance-single - ----------------
#NOTES:
     dance-single:
     :
     Hard:
     7:
     0.423457,0.405448,0.170356,0.442926,0.063884,276.000000,20.000000,52.000000,0.000000,0.000000,0.000000,0.423457,0.405448,0.170356,0.442926,0.063884,276.000000,20.000000,52.000000,0.000000,0.000000,0.000000:
0001
1000
0010
1000
,
0001
0100
0001
1000
,
0100
0010
0100
1000
,
0100
1000
0001
0100
,
0001
0010
0100
0010
,
0001
1000
0010
1000
,
0001
0100
0001
1000
,
0200
0000
0000
0000
,
1300
0001
0100
0001
1000
0001
0010
0100
,
1000
0100
1000
0001
0100
0001
0010
0100
,
1000
0100
0010
0100
1000
0001
0100
0001
,
1000
0001
0100
0001
1000
0100
0010
0001
,
1000
0001
0100
0001
1000
0001
0010
0100
,
1000
0100
1000
0001
0100
0001
0010
0100
,
1000
0100
0010
0100
1000
0001
0100
0001
,
1000
0001
0100
0001
1000
0100
0010
0001
,
0000
1000
0001
0100
0000
0001
1000
0100
,
1000
0000
0010
0000
0100
0010
1000
0001
,
0000
0010
0100
1000
0000
1000
0100
0010
,
0100
0000
0010
0000
0001
1000
0010
0100
,
0000
0010
1000
0001
0000
1000
0001
0010
,
0100
0000
0010
0000
0100
1000
0010
1000
,
0000
0001
0100
0010
0000
0100
0010
1000
,
0001
0000
0000
0000
0100
0000
0000
0000
0010
1000
0000
0000
0001
0000
0000
0000
,
0210
0301
0210
1300
,
0210
0301
0210
1300
,
0210
0000
1000
0010
,
0302
0000
0000
2000
0000
3003
0002
0003
,
2100
3010
2100
3001
,
2100
3010
2100
3001
,
2100
0000
0100
0010
,
3002
0000
0000
0200
0000
0000
0303
0000
,
1002
0103
0210
0301
,
0120
1030
2010
3100
,
1002
0000
0100
1000
,
0023
0000
0000
0200
0000
0330
0020
0030
,
0210
1300
2100
3100
,
0120
0031
0012
2003
,
3200
0000
0000
0000
,
2300
0000
3002
0203
0320
2030
3002
0000
,
0013
0000
0100
0010
0002
0000
0023
0000
,
0230
0000
0000
1300
0200
0000
0000
0301
,
0200
0000
0000
1300
0200
0000
0000
0301
,
0200
0000
0000
1300
0200
0000
0000
0301
,
0200
0000
0000
1300
0200
0000
0000
0301
,
0200
0000
0000
1300
0200
0000
0000
0301
,
0200
0000
0000
1300
0200
0000
0000
0301
,
0200
0000
0000
1300
0200
0000
0000
0301
,
0100
0000
0000
1000
0000
0000
0010
0000
0100
0000
0000
0001
0000
0000
1000
0000
,
0100
0000
0000
1000
0000
0000
0010
0000
0100
0000
0000
0010
0000
0000
1000
0000
,
0001
0000
0000
0010
0000
0000
0100
0000
0010
0000
0000
0001
0000
0000
1000
0000
,
0010
0000
0000
0100
0000
0000
0001
0000
1000
0000
0000
0001
0000
0000
0010
0000
,
0001
0000
0000
0100
0000
0000
0001
0000
0100
0000
0000
0010
0000
0000
1000
0000
,
0001
0000
0000
1000
0000
0000
0010
0000
0100
0000
0000
0100
0000
0000
0010
0000
,
1000
0000
0000
1000
0000
0000
0010
0000
0100
0000
0000
0010
0000
0000
1000
0000
,
0001
1000
0010
0100
,
1001
0000
0000
0000
;

//---------------dance-single - ----------------
#NOTES:
     dance-single:
     :
     Easy:
     3:
     0.229981,0.214649,0.025553,0.212945,0.000000,161.000000,3.000000,25.000000,0.000000,0.000000,0.000000,0.229981,0.214649,0.025553,0.212945,0.000000,161.000000,3.000000,25.000000,0.000000,0.000000,0.000000:
0001
0010
0100
1000
,
0100
1000
0010
1000
,
0100
0010
0001
1000
,
0100
0010
0100
1000
,
0001
0010
0100
1000
,
0100
0010
0100
1000
,
0001
0100
0010
1000
,
2002
0000
0000
3003
,
0001
0100
0001
0010
,
0001
1000
0001
0100
,
0010
1000
0100
0010
,
0100
1000
0010
0100
,
0010
1000
0001
0010
,
0001
1000
0100
1000
,
0010
0100
0001
1000
,
0100
1000
0010
0100
,
0000
0001
0000
1000
,
0000
0010
0000
0100
,
0000
0010
0000
1000
,
0000
0001
0000
1000
,
0000
0100
0000
1000
,
0000
0010
0000
0100
,
0000
0001
0000
1000
,
0000
0010
0000
0100
,
0020
0030
2000
3000
,
0002
0003
0200
0300
,
0020
0000
1000
1000
,
2000
0000
3030
0010
,
2000
3000
0002
0003
,
0020
0030
0002
0003
,
2000
0000
0001
0001
,
0002
0000
0000
3003
0000
0000
0000
0000
,
0120
0000
2030
0000
,
3020
0000
2030
0000
,
3002
0000
1000
1000
,
2000
0000
3003
0001
,
0200
0000
0320
0000
,
2030
0000
3000
0001
,
0200
0000
0000
0000
,
0320
0000
0100
0100
,
0130
0000
0010
1000
,
0001
0000
1000
0000
,
0001
0000
1000
0000
,
0001
0000
1000
0000
,
0010
0000
0100
0000
,
0010
0000
0100
0000
,
0010
0000
0100
0000
,
0010
0000
0100
0000
,
0010
1000
0100
0010
,
0100
1000
0001
1000
,
0001
0100
0010
0100
,
0001
1000
0001
1000
,
0010
0100
1000
0100
,
0001
0010
1000
0010
,
0100
0010
0001
0010
,
0100
1000
0001
0100
,
1001
0000
0000
0000
;

//---------------dance-single - ----------------
#NOTES:
     dance-single:
     :
     Medium:
     4:
     0.304208,0.286199,0.051107,0.400337,0.000000,197.000000,6.000000,47.000000,0.000000,0.000000,0.000000,0.304208,0.286199,0.051107,0.400337,0.000000,197.000000,6.000000,47.000000,0.000000,0.000000,0.000000:
0001
0010
0100
1000
,
0100
1000
0100
0010
,
0100
0010
0001
1000
,
0001
0100
0001
1000
,
0001
0010
0100
1000
,
0100
0010
0100
1000
,
0001
0010
0100
1000
,
2002
0000
0000
3003
,
0001
0100
0010
0000
1000
0000
0010
0000
,
0100
0010
0100
0000
0010
0100
0010
0000
,
0100
0001
1000
0010
,
0100
0001
0010
0000
0100
1000
0010
0000
,
0100
0000
0001
0000
1000
0100
1000
0000
,
0100
0000
1000
0000
0010
0100
0001
0000
,
1000
0000
0001
0000
0100
0010
1000
0000
,
0010
0000
0100
0000
0001
1000
0100
0000
,
2000
0000
3010
0000
0100
0010
0100
0000
,
0020
0000
1030
0000
1000
0001
0010
0000
,
0200
0000
0310
0000
0100
1000
0010
0000
,
0200
0000
0301
0000
0100
0010
1000
0000
,
0000
0001
1000
0010
0000
1000
0001
0010
,
0000
0100
0010
0001
0000
0010
0100
1000
,
0001
1000
0010
0100
,
0001
0100
0010
1001
,
0002
0000
0203
0000
,
0320
0000
0230
0000
,
0302
0000
1003
0100
,
0020
0000
0000
0200
0000
0000
0330
0000
,
0200
0000
2300
0000
,
3020
0000
0230
0000
,
2300
0000
0100
0100
,
3200
0000
0000
0002
0000
0000
0303
0000
,
2001
0000
3020
0000
,
0230
0000
0320
0000
,
2030
0000
0001
0001
,
3002
0000
0000
0100
0000
0000
0203
0000
,
0320
0000
2030
0000
,
0002
0000
3003
0002
,
0200
0000
0000
0000
,
0300
0003
0100
0010
,
2010
0000
3010
0100
,
0102
0000
0203
0000
,
0320
0000
2030
0000
,
3002
0000
0023
0000
,
0230
0000
0320
0000
,
0032
0000
2003
0000
,
3020
0000
2030
0000
,
3020
0000
0230
0000
,
0301
1000
0000
0001
0000
0100
0000
0001
,
0000
0010
0000
0100
0000
0010
0000
0001
,
0000
1000
0000
0010
0000
1000
0000
0001
,
0000
0010
0000
0100
0000
0010
0000
0001
,
1000
0010
0000
1000
0000
0001
0000
0010
,
0000
0001
0000
0100
0000
0010
0000
1000
,
0000
0001
0000
1000
0000
0010
0000
0100
,
0000
0010
0000
1000
0000
0001
0000
0100
,
1001
0000
0000
0000
;

//---------------dance-single - ----------------
#NOTES:
     dance-single:
     :
     Challenge:
     10:
     0.754435,0.752549,0.000000,0.494033,0.881594,562.000000,0.000000,58.000000,0.000000,0.000000,0.000000,0.754435,0.752549,0.000000,0.494033,0.881594,562.000000,0.000000,58.000000,0.000000,0.000000,0.000000:
// measure 0
0001
0010
1000
0010
0001
0100
0001
1000
,  // measure 1
0100
0001
0100
1000
0001
0010
0100
1000
,  // measure 2
0001
0010
1000
0010
0001
0100
0001
1000
,  // measure 3
0001
0100
1000
0100
0010
1000
0001
0010
,  // measure 4
0100
0010
0001
0100
1000
0100
0010
1000
,  // measure 5
0001
0010
1000
0010
0001
0100
0010
1000
,  // measure 6
0100
0001
0100
1000
0010
0001
0010
1000
,  // measure 7
0010
0100
0010
0001
0010
0100
0010
1000
,  // measure 8
0001
0010
0001
1000
0001
0100
0001
1000
0010
0100
0001
1000
0001
1000
0100
1000
,  // measure 9
0000
1000
0001
1000
0001
0100
0000
0100
0001
0010
0100
1000
0010
0100
0001
1000
,  // measure 10
0001
0010
0001
1000
0001
0100
0001
1000
0010
0100
0001
1000
0001
1000
0100
1000
,  // measure 11
0000
1000
0001
1000
0001
0100
0000
0100
0001
0010
0100
1000
0010
0100
0001
1000
,  // measure 12
0010
0100
0010
1000
0001
1000
0010
0100
0001
0010
0100
1000
0001
0010
0100
1000
,  // measure 13
0000
1000
0010
0100
0010
1000
0000
0001
1000
0100
0010
0001
0100
0010
1000
0001
,  // measure 14
1000
0100
0010
0100
1000
0010
0100
0001
0100
0010
1000
0001
0010
0100
0010
0001
,  // measure 15
0000
0100
0010
1000
0100
0010
0000
0010
0001
0010
0001
0100
0010
1000
0001
1000
,  // measure 16
0000
0000
0000
0001
1000
0000
0001
0000
1000
0000
0001
0000
1000
0000
0000
0001
0000
0000
1000
0000
0000
0001
0000
0000
0000
0000
0000
0000
0000
0000
1000
0000
0000
0100
0000
0000
1000
0000
0000
0001
0000
0000
0100
0000
0000
0000
0000
0000
,  // measure 17
0010
1000
0010
1000
0001
0000
1000
0000
0001
0010
0100
0010
0001
1000
0100
0010
,  // measure 18
0000
0100
1000
0010
0100
0001
1000
0000
0001
0100
0001
0100
0001
0000
0100
0000
,  // measure 19
0010
0000
1000
0000
0010
0000
1000
0000
0000
0010
0000
0000
1000
0000
0000
0001
0000
0000
0010
0000
0000
0100
0000
0000
0000
0000
0000
0000
0000
0000
0100
0000
0000
1000
0000
0000
0001
0000
0000
0100
0000
0000
0001
0000
0000
0000
0000
0000
,  // measure 20
1000
0000
0000
0000
0000
0000
0001
0000
1000
0000
0001
0000
1000
0000
0000
0000
0000
0000
0001
0000
0000
0000
0000
0000
1000
0000
0100
0000
1000
0000
0100
0000
0000
0010
0000
0000
0001
0000
0000
0100
0000
0000
0010
0000
0000
1000
0000
0000
,  // measure 21
0000
0000
0000
0001
0000
0000
0100
0000
0000
0001
0000
0000
1000
0000
0000
0001
0000
0000
1000
0000
0000
0000
0000
0000
0001
0000
0100
0000
0001
0000
0100
0000
0000
0001
0000
0000
1000
0000
0000
0000
0000
0000
0100
0000
0000
0000
0000
0000
,  // measure 22
0010
0001
0100
0010
1000
0001
0100
0010
0000
1000
0010
0100
0001
1000
0001
0010
,  // measure 23
0100
0000
0000
0000
0000
0000
0010
0000
0000
0001
0000
0000
0100
0000
0000
0000
0000
0000
0010
0000
0000
0000
0000
0000
1000
0000
0000
1000
0000
0000
0000
0000
0000
0001
0000
0000
0010
0000
0000
0010
0000
0000
0010
0000
0100
0000
0010
0000
,  // measure 24
0200
0000
0000
1300
0010
0000
0010
0000
0200
0000
0000
0310
1000
0000
1000
0000
,  // measure 25
0020
0000
0000
0130
1000
0000
1000
0000
0002
0000
0000
1003
0100
0000
0100
0000
,  // measure 26
0020
0000
0000
0000
0002
0003
2000
3000
,  // measure 27
0230
0000
0000
0020
0000
0330
0020
0000
,  // measure 28
2030
0000
0000
3010
0001
0000
0001
0000
2000
0000
0000
3001
0010
0000
0010
0000
,  // measure 29
0002
0000
0000
1003
0010
0000
0010
0000
0200
0000
0000
0310
1000
0000
1000
0000
,  // measure 30
0002
0000
0000
0000
0200
0300
0020
0030
,  // measure 31
2003
0000
0000
0002
0000
0000
0000
3003
,  // measure 32
0020
0000
0000
1030
0100
0000
0001
0000
0200
0000
0000
0310
0001
0000
1000
0000
,  // measure 33
0002
0000
0000
0103
0010
0000
1000
0000
0002
0000
0000
0013
0100
0000
1000
0000
,  // measure 34
0002
0000
0000
0000
2000
3000
0200
0300
,  // measure 35
0023
0000
0000
0200
0000
0330
0200
0000
,  // measure 36
2300
0000
0000
3001
1000
0000
0010
0000
0200
0000
0000
0310
1000
0000
0001
0000
,  // measure 37
2000
0000
0000
3100
0010
0000
0001
0000
0020
0000
0000
0130
2000
0000
0000
0000
,  // measure 38
0002
0000
0000
0000
0000
0000
0000
3003
,  // measure 39
0002
0000
2003
0000
3002
0000
0203
0000
0302
0000
0023
0000
0230
0000
0300
0010
0000
0000
0100
0000
0000
0010
0000
0000
0001
0000
0000
1000
0000
0000
0001
0000
0000
1000
0000
0000
0001
0000
0000
0100
0000
0000
0010
0000
0000
0100
0000
0000
,  // measure 40
0001
0000
1000
0010
2000
0000
3002
0000
,  // measure 41
1003
0000
1000
0010
0002
0000
0013
0100
,  // measure 42
0002
0000
0103
0010
2000
0000
3001
1000
,  // measure 43
0020
0000
1030
0001
0200
0000
0301
0010
,  // measure 44
0200
0000
0310
0001
2000
0000
3010
0100
,  // measure 45
0002
0000
0013
0100
2000
0000
3100
0010
,  // measure 46
2000
0000
3001
0010
0200
0000
0310
0001
,  // measure 47
2000
0000
3010
0100
0002
0000
1003
0001
,  // measure 48
1000
0001
1000
0100
0010
0001
0010
0100
1000
0010
0100
0001
1000
0010
0100
0010
,  // measure 49
0000
0100
0001
0010
0100
1000
0000
0100
1000
0010
0100
0001
0010
0001
1000
0010
,  // measure 50
1000
0001
0010
0001
0100
0010
1000
0001
0010
0100
1000
0100
0010
0100
1000
0001
,  // measure 51
0000
1000
0001
0100
0010
0100
0000
0010
1000
0001
0010
1000
0010
0100
0010
0001
,  // measure 52
0010
0100
0010
1000
0001
0100
0001
1000
0010
0100
0001
0100
0010
1000
0001
1000
,  // measure 53
0000
1000
0100
0010
0100
1000
0000
1000
0100
0010
0001
0100
0001
0100
0010
1000
,  // measure 54
0010
0100
0001
0100
0001
1000
0010
0100
0001
1000
0010
1000
0001
1000
0010
0100
,  // measure 55
0001
0010
0001
1000
0010
0100
0000
0100
0010
0010
1000
0001
0010
0010
0100
1000
,  // measure 56
0020
0000
0000
0000
,  // measure 57
0030
0000
0000
0000
;

//---------------dance-single - ----------------
#NOTES:
     dance-single:
     :
     Beginner:
     1:
     0.097346,0.095400,0.008518,0.042589,0.000000,74.000000,1.000000,5.000000,0.000000,0.000000,0.000000,0.097346,0.095400,0.008518,0.042589,0.000000,74.000000,1.000000,5.000000,0.000000,0.000000,0.000000:
1000
0000
0000
0000
,
0100
0000
0000
0000
,
1000
0000
0000
0000
,
0001
0000
0000
0000
,
0100
0000
0000
0000
,
0001
0000
0000
0000
,
0010
0000
0000
0000
,
0001
0000
0000
0000
,
1000
0000
0000
0000
,
0100
0000
0100
0000
,
0010
0000
0000
0000
,
0001
0000
0001
0000
,
1000
0000
0000
0000
,
0010
0000
0010
0000
,
0100
0000
0000
0000
,
0001
0000
0001
0000
,
0000
1000
0000
0000
,
0001
0000
0100
0000
,
0000
0100
0000
0000
,
0010
0000
0000
0000
,
1000
0000
0000
0000
,
0001
0000
0000
0000
,
0010
0000
0000
0000
,
0001
0000
1000
0001
,
1000
0000
0100
0000
,
1000
0000
0010
0000
,
0100
0000
0000
0000
,
0000
0000
0000
0010
,
0010
0000
1000
0000
,
0001
0000
0100
0000
,
0001
0000
0000
0000
,
0000
0000
0000
0000
,
0001
0000
1000
0000
,
0010
0000
1000
0000
,
0001
0000
0000
0000
,
0000
0000
0000
1000
,
0001
0000
0010
0000
,
0001
0000
0000
1000
,
0001
0000
0000
0000
,
0200
0000
0000
0300
,
0010
0000
0000
0000
,
1000
0000
1000
0000
,
1000
0000
1000
0000
,
1000
0000
1000
0000
,
0001
0000
0001
0000
,
0001
0000
0001
0000
,
0001
0000
0001
0000
,
0001
0000
0001
0000
,
0200
0000
0000
0000
,
0000
0000
0000
0300
,
0020
0000
0000
0000
,
0000
0000
0000
0030
,
2000
0000
0000
0000
,
0000
0000
0000
3000
,
0002
0000
0000
0000
,
0000
0000
0000
0003
,
1001
0000
0000
0000
;
