#VERSION:0.83;
#TITLE:Sky High;
#SUBTITLE:;
#ARTIST:Cuvelia;
#TITLETRANSLIT:;
#SUBTITLETRANSLIT:;
#ARTISTTRANSLIT:;
#GENRE:;
#ORIGIN:;
#CREDIT:;
#BANNER:Sky High.png;
#BACKGROUND:Sky High-bg.png;
#PREVIEWVID:;
#JACKET:Sky High-jacket.png;
#CDIMAGE:;
#DISCIMAGE:;
#LYRICSPATH:;
#CDTITLE:;
#MUSIC:Sky High.mp3;
#OFFSET:-10.568997;
#SAMPLESTART:45.078800;
#SAMPLELENGTH:12.549023;
#SELECTABLE:YES;
#BPMS:0.000=76.500,
4.000=153.000;
#STOPS:48.000=1.176,
125.000=1.176;
#DELAYS:;
#WARPS:;
#TIMESIGNATURES:0.000=4=4;
#TICKCOUNTS:0.000=4;
#COMBOS:0.000=1;
#SPEEDS:0.000=1.000=0.000=0;
#SCROLLS:0.000=1.000;
#FAKES:;
#LABELS:0.000=Song Start;
#BGCHANGES:;
#KEYSOUNDS:;
#ATTACKS:
;

//---------------dance-single - ----------------
#NOTEDATA:;
#CHARTNAME:;
#STEPSTYPE:dance-single;
#DESCRIPTION:;
#CHARTSTYLE:;
#DIFFICULTY:Hard;
#METER:8;
#RADARVALUES:0.394263,0.467020,0.207565,0.361316,0.215252,359.000000,332.000000,27.000000,47.000000,0.000000,0.000000,0.000000,0.000000,0.000000,0.394263,0.467020,0.207565,0.361316,0.215252,359.000000,332.000000,27.000000,47.000000,0.000000,0.000000,0.000000,0.000000,0.000000;
#CREDIT:;
#NOTES:
0000
0000
0000
0000
0020
0000
0000
0030
,
1001
0001
0010
0001
,
1000
0100
1000
0010
,
0100
0010
1000
0100
,
0010
0100
1000
0001
,
0101
0001
0010
1000
,
0010
0100
0010
0001
,
0100
1000
0100
0010
,
2000
0000
3002
0000
,
0103
0000
0000
0000
0000
0000
0000
0010
1000
0000
0000
0000
0000
0000
0000
0000
,
0100
0000
0010
0001
,
0100
1000
0100
0010
,
1000
0000
0000
0000
0001
0000
1000
0000
0000
0100
0000
0000
1000
0000
0010
0000
,
0100
0000
0001
0000
0010
0000
0001
0000
0100
0000
0000
0010
0000
1000
0000
0001
,
0000
1000
0000
0000
0100
0000
1000
0000
0000
0010
0000
0100
0000
0001
0000
1000
,
0001
0000
0010
0000
0100
0000
0010
0000
0000
0100
0000
1000
0001
0000
0100
0000
,
0001
0000
0010
0000
0100
0000
0010
0000
0000
0000
0000
0001
1000
0000
0000
1000
,
0010
0000
0000
0010
0100
0000
0001
0000
0000
0000
1000
0000
0001
0000
0010
0000
,
0001
0000
1000
0000
0010
0000
0000
0010
0000
0000
0100
0000
0001
0000
0000
0000
,
1000
0001
0200
0000
0000
0000
0320
0000
,
0000
0030
1001
0000
0001
1000
0100
0010
,
0100
0000
1100
0000
0100
0010
0001
0010
,
0100
0011
0001
1000
,
0010
0000
0100
1000
0100
0001
0100
0010
,
1000
0001
0010
0000
0100
0010
0001
1000
,
0010
0100
0001
1000
0001
0010
0001
1000
,
0100
0010
0100
1000
0010
0100
0001
0010
,
0001
0100
0010
1000
0100
0010
0001
0010
,
0100
0000
0010
0000
0001
0000
0000
0000
0000
0000
0000
1000
0010
0000
0000
0000
,
0000
0100
0000
0001
,
0010
0001
0100
1000
,
0010
0000
0000
0000
1001
0000
0000
0000
0100
0000
0000
0010
0000
0000
0000
0000
,
2020
0000
0000
0000
3030
0000
0000
0000
1000
0001
1000
0001
0000
0000
0000
0000
,
0202
0000
0000
0000
0000
0000
0303
0000
0001
0000
0000
0010
0000
0000
0000
0000
,
2200
0000
0000
0000
0000
0000
3300
1000
0100
0000
0000
0010
0001
0000
0000
0000
,
0200
0000
0000
0000
0000
0000
0000
0000
0310
0000
0000
1000
0000
0000
0000
0000
,
2002
0000
0000
0000
0000
0000
3003
0000
0001
0010
0001
0010
0000
0000
0000
0000
,
2200
0000
0000
0000
0000
0000
3300
0000
1000
0000
0000
0010
0000
0000
0000
0000
,
0202
0000
0000
0303
0001
1000
0200
0000
,
0010
0000
0000
0000
1300
0000
0000
0000
0010
0000
0000
0100
0000
0000
0000
0000
,
0202
0000
0000
0000
0303
0000
0000
0000
0001
1000
0001
1000
0000
0000
0000
0000
,
2020
0000
0000
0000
0000
0000
3030
0000
1000
0000
0000
0100
0000
0000
0000
0000
,
0022
0000
0000
0000
0000
0000
0033
0001
0010
0000
0000
0100
1000
0000
0000
0000
,
0020
0000
0000
0000
0000
0000
0000
0000
0130
0000
0000
0001
0000
0000
0000
0000
,
2002
0000
0000
0000
0000
0000
3003
0000
1000
0100
1000
0100
0000
0000
0000
0000
,
0022
0000
0000
0000
0000
0000
0033
0000
0001
0000
0000
0100
0000
0000
0000
0000
,
2020
0000
0000
3030
1000
0010
0200
0010
,
0310
0100
0010
1000
0002
0000
0103
0000
,
2000
3100
0002
0013
,
2000
3010
2000
3001
,
0002
1003
0002
0103
,
0020
0000
0000
0000
1030
0000
0000
0000
0001
0000
0000
0001
0000
0000
0001
0000
,
1000
0000
0000
1000
0000
0000
1000
0000
0200
0000
0000
0000
0310
0000
0000
0000
,
0002
0103
0020
1030
,
0002
0000
0013
0000
0001
1000
0001
0100
,
0001
0000
0010
0000
0100
0000
1000
0000
1001
0000
0000
1000
0100
0000
0000
0100
,
0010
0000
0000
0010
0001
0000
0000
0001
0100
0000
0000
0100
0010
0000
0000
0010
,
1000
0000
0100
0000
1000
0000
0010
0000
0100
0000
0000
0001
0100
0000
0000
0100
,
0010
0000
0000
0010
1000
0000
0000
1000
0001
0000
0000
0001
0010
0000
0000
0010
,
0100
0000
0000
0010
0000
0000
0001
0000
1000
0000
0000
0010
0000
0000
0001
0000
,
0010
0000
0000
1000
0000
0000
0100
0000
0001
0000
0100
0000
0010
0000
0001
0000
,
1000
0000
0100
0000
1000
0000
0010
0000
0100
0000
0010
0000
0000
1000
0000
0000
,
0001
0000
0000
0010
0000
0000
0001
0000
1000
0000
0001
0000
0100
0000
0001
0000
,
0010
0100
1000
0001
1001
0000
0000
0000
,
1010
0000
0101
0000
,
0011
0000
1010
0000
,
0101
1100
2002
0000
,
0000
0000
3003
0000
;

//---------------dance-single - ----------------
#NOTEDATA:;
#CHARTNAME:;
#STEPSTYPE:dance-single;
#DESCRIPTION:;
#CHARTSTYLE:;
#DIFFICULTY:Medium;
#METER:5;
#RADARVALUES:0.325075,0.363238,0.315191,0.284440,0.003844,296.000000,255.000000,41.000000,37.000000,0.000000,0.000000,0.000000,0.000000,0.000000,0.325075,0.363238,0.315191,0.284440,0.003844,296.000000,255.000000,41.000000,37.000000,0.000000,0.000000,0.000000,0.000000,0.000000;
#CREDIT:;
#NOTES:
0000
0000
0000
0000
0020
0000
0000
0030
,
1001
0001
0010
0001
,
1000
0100
1000
0100
,
1000
0010
1000
0010
,
0100
0001
0100
0001
,
0011
0010
0001
0010
,
0100
1000
0100
1000
,
0001
1000
0001
1000
,
0020
0000
0000
0030
,
1001
0000
0101
0000
,
1010
0000
1100
0100
,
0110
0010
1001
0110
,
1001
0000
0001
0000
0100
0000
0001
0100
,
0001
0000
0100
0000
0010
0000
1000
0010
,
1000
0000
0010
0000
0100
0000
0001
1000
,
0001
0000
1000
0000
0100
0000
0010
0001
,
0010
0000
0001
0000
0100
0000
0010
1000
,
0010
0000
1000
0000
0001
0000
0010
0100
,
0010
0000
0100
0000
0010
0000
0001
0100
,
0001
2000
0000
0002
,
3003
0000
1001
0000
0001
0000
0010
0001
,
0010
0000
0100
0000
1000
0000
0010
1000
,
0010
0000
1000
0000
0001
0000
0100
0001
,
0100
0000
0001
0010
0100
1000
0100
0010
,
0001
0000
1000
0000
0010
0000
0100
0001
,
0010
0000
0100
0000
1000
0000
0100
1000
,
0010
0000
0100
0000
0001
0000
1000
0001
,
0010
0000
0100
0000
0010
0000
0001
1000
,
0010
0110
0000
1001
,
0000
1010
0000
0101
,
0001
0011
0000
1100
,
0011
1001
0001
0100
,
2020
3030
1000
0100
,
0022
0033
0001
1000
,
0220
0330
0001
0100
,
0022
0033
0001
0100
,
2020
3030
1000
0100
,
0220
0330
0100
1000
,
2002
3003
1000
0020
,
0130
0001
1000
0001
,
2200
3300
1000
0010
,
0202
0303
0001
1000
,
0022
0033
0001
1000
,
2020
3030
1000
0100
,
0022
0033
0001
0100
,
2020
3030
1000
0010
,
0202
0303
0001
0020
,
0130
0010
0002
1003
,
0001
0100
0001
0010
,
0100
0010
0001
1000
,
0010
0100
0001
1000
,
0010
0000
0000
1000
0000
0000
0001
0000
1000
0000
0000
0000
0000
0000
0000
0000
,
0001
0000
0100
0001
,
0010
0001
1000
0100
,
0001
0000
0100
0000
0010
0001
0010
0000
,
0100
1000
0100
0000
1000
0000
0010
0000
,
0100
0001
1000
0001
,
0100
0000
0001
0010
0001
0000
0010
0000
,
0100
1000
0100
1000
,
0010
0000
0100
0010
1000
0000
0010
0000
,
0100
0000
0001
0000
1000
0001
1000
0000
,
0001
1000
0001
0000
1000
0000
0010
0000
,
0100
0001
0010
0100
,
1000
0100
0110
0000
,
1100
0000
0011
0000
,
0101
0000
1010
0000
,
0011
1100
2002
0000
,
0000
0000
3003
0000
;

//---------------dance-single - ----------------
#NOTEDATA:;
#CHARTNAME:;
#STEPSTYPE:dance-single;
#DESCRIPTION:;
#CHARTSTYLE:;
#DIFFICULTY:Easy;
#METER:3;
#RADARVALUES:0.195484,0.230051,0.038438,0.153752,0.000000,178.000000,173.000000,5.000000,20.000000,0.000000,0.000000,0.000000,0.000000,0.000000,0.195484,0.230051,0.038438,0.153752,0.000000,178.000000,173.000000,5.000000,20.000000,0.000000,0.000000,0.000000,0.000000,0.000000;
#CREDIT:;
#NOTES:
0000
0000
0000
0000
,
1001
0000
0001
0000
,
1000
0000
0100
0000
,
1000
0000
0010
0000
,
0100
0000
0001
0000
,
1001
0000
1000
0000
,
0010
0000
1000
0000
,
0100
0000
1000
0000
,
0001
0000
1000
0000
,
0110
0000
0100
0000
,
0010
0000
1000
0001
,
0010
0000
0001
1000
,
0001
1000
0000
0010
,
0000
0100
0000
0001
,
0000
0010
0000
0100
,
0010
0100
0000
0010
,
0000
0001
0000
1000
,
0010
1000
0100
1000
,
0001
0100
0010
1000
,
0001
0020
0000
0230
,
0000
1300
0100
1000
,
0000
0100
0010
0100
,
0000
0010
0001
0010
,
0001
1000
0000
0001
,
0000
1000
0010
0100
,
0000
0010
0100
0001
,
0000
1000
0001
0010
,
0001
2000
0000
0002
,
3003
0010
0000
0100
,
0000
0001
0000
1000
,
0001
0010
0000
0100
,
0010
0001
1000
0000
,
0020
0030
1000
0000
,
0200
0300
0010
0000
,
0002
0003
1000
0000
,
0020
0030
0100
0000
,
0002
0003
1000
0000
,
0200
0300
1000
0000
,
0020
0030
0100
0002
,
0003
0000
1000
0001
,
0200
0300
0001
1000
,
0020
0030
1000
0001
,
0200
0300
0001
1000
,
0020
0030
1000
0010
,
0200
0300
0010
0100
,
0002
0003
0100
0010
,
2000
3000
0100
0020
,
0031
0010
0100
0000
,
1000
0000
0010
0000
,
0100
0000
0001
0000
,
1000
0000
0010
0000
,
0100
0000
1001
0000
,
0001
0000
0010
0000
,
0001
0000
1000
0000
,
0100
0000
1000
0010
,
0100
0001
1000
0001
,
0010
0000
0001
1000
,
0010
0000
1000
0001
,
0100
0000
0010
0100
,
0001
0000
0100
0010
,
1000
0010
0100
0001
,
0010
0100
1000
0000
,
0100
0000
1000
0001
,
0100
0010
1000
0000
,
0010
0000
0100
0000
,
0001
0000
0010
0000
,
0001
1000
0110
0000
;

//---------------dance-single - ----------------
#NOTEDATA:;
#CHARTNAME:;
#STEPSTYPE:dance-single;
#DESCRIPTION:;
#CHARTSTYLE:;
#DIFFICULTY:Beginner;
#METER:1;
#RADARVALUES:0.093349,0.127806,0.038438,0.000000,0.000000,85.000000,80.000000,5.000000,0.000000,0.000000,0.000000,0.000000,0.000000,0.000000,0.093349,0.127806,0.038438,0.000000,0.000000,85.000000,80.000000,5.000000,0.000000,0.000000,0.000000,0.000000,0.000000,0.000000;
#CREDIT:;
#NOTES:
// measure 0
0000
0000
0000
0000
,  // measure 1
0010
0000
0000
0000
,  // measure 2
1000
0000
0000
0000
,  // measure 3
0001
0000
0000
0000
,  // measure 4
0100
0000
0000
0000
,  // measure 5
0010
0000
0000
0000
,  // measure 6
1000
0000
0000
0000
,  // measure 7
0100
0000
0000
0000
,  // measure 8
1000
0000
0000
0000
,  // measure 9
0001
0000
0000
0000
,  // measure 10
0100
0000
0001
0000
,  // measure 11
1000
0000
0000
0000
,  // measure 12
0000
0010
0000
0000
,  // measure 13
0000
1000
0000
0000
,  // measure 14
0000
0100
0000
1000
,  // measure 15
0000
0001
0000
0000
,  // measure 16
0000
0100
0000
0000
,  // measure 17
0000
0010
0000
0000
,  // measure 18
0000
0100
0000
0000
,  // measure 19
0000
0001
0000
1000
,  // measure 20
0000
1001
0000
0000
,  // measure 21
0000
0010
0000
0000
,  // measure 22
0000
1000
0000
0000
,  // measure 23
0000
0010
0000
0100
,  // measure 24
0000
0001
0000
0000
,  // measure 25
0000
1000
0000
0000
,  // measure 26
0000
0010
0000
0000
,  // measure 27
0000
1000
0000
0100
,  // measure 28
0000
1000
0000
0001
,  // measure 29
0000
0100
0000
0010
,  // measure 30
0000
0100
0000
0001
,  // measure 31
0000
1000
0000
0000
,  // measure 32
0001
0000
0000
0000
,  // measure 33
1000
0000
0000
0000
,  // measure 34
0010
0000
0000
0000
,  // measure 35
0100
0000
0000
0000
,  // measure 36
0010
0000
0000
0000
,  // measure 37
1000
0000
0000
0000
,  // measure 38
0001
0000
0000
0100
,  // measure 39
0000
0000
0000
0000
,  // measure 40
0010
0000
0000
0000
,  // measure 41
1000
0000
0000
0000
,  // measure 42
0001
0000
0000
0000
,  // measure 43
0100
0000
0000
0000
,  // measure 44
0010
0000
0000
0000
,  // measure 45
1000
0000
0000
0000
,  // measure 46
0001
0000
0000
0100
,  // measure 47
0000
0000
0110
0000
,  // measure 48
0000
0000
0010
0000
,  // measure 49
0000
0000
0100
0000
,  // measure 50
0000
0000
0001
0000
,  // measure 51
1000
0000
1001
0000
,  // measure 52
0000
0000
0010
0000
,  // measure 53
0000
0000
0100
0000
,  // measure 54
0000
0000
0010
0000
,  // measure 55
1000
0000
1001
0000
,  // measure 56
0000
0000
0001
0000
,  // measure 57
1000
0000
0100
0000
,  // measure 58
0000
0000
1000
0000
,  // measure 59
0001
0000
1000
0000
,  // measure 60
0000
0000
0010
0000
,  // measure 61
0000
0000
0100
0000
,  // measure 62
0000
0000
0001
0000
,  // measure 63
0000
0000
1000
0000
,  // measure 64
0000
0000
0001
0000
,  // measure 65
0000
0000
0100
0000
,  // measure 66
0010
0000
1001
0000
;
